Ошибка

(Electronic, Synthpop) Silicon Dream - Time Machine - 1998, FLAC (tracks+.cue), lossless

Ответить на тему
 
Автор Сообщение

Молескин

Пол: Пол:Муж

Стаж: 4 года 4 месяца

Сообщений: 123

Россия
Рейтинг

post 26-Янв-2018 22:45 0[+]

[Цитировать] 

Silicon Dream - Time Machine
pic="http://i99.fastpic.ru/big/2018/0126/9c/b99e89a472aa50683af1f5e5b8df5d9c.jpg"

Жанр: Electronic, Synthpop
Год издания данного носителя: 1998
Страна-производитель носителя: US
Лейбл: Blow Up
Каталоговый номер: INT 145531
Аудио кодек: FLAC
Тип рипа: tracks+.cue
Битрейт аудио: lossless
Продолжительность: 00:43:12
Источник: CD
Полиграфия: Присутствует


Треклист:
01. Time Machine (You Are The Master Of Time-Age)
02. Jimmy Dean Loved Marilyn-Film Ab (The Hollywood-Age)
03. Corleone Speaking (The Chicago-Age)
04. Holiday' In St. Tropez-Eating Pizza In Ibiza (The Cola-Age)
05. Marcello the Mastroianni (The Fellini-Age)
06. Space Intro (The-Age Of The First Cosmic Steps)
07. Andromeda (The Space-Age)
08. Albert Einstein - Everything Is Relative (The Age Of The Inventors)
09. Primaballerina (The Romantic Age)
10. Don't Break My Heart (The Age Of Love)


Exact Audio Copy V1.0 beta 3 from 29. August 2011 

EAC extraction logfile from 24. October 2016, 22:45

Silicon Dream / Time Machine

Used drive : TSSTcorpCDDVDW SH-224DB Adapter: 0 ID: 1

Read mode : Secure
Utilize accurate stream : Yes
Defeat audio cache : Yes
Make use of C2 pointers : No

Read offset correction : 6
Overread into Lead-In and Lead-Out : No
Fill up missing offset samples with silence : Yes
Delete leading and trailing silent blocks : No
Null samples used in CRC calculations : Yes
Used interface : Installed external ASPI interface
Gap handling : Appended to previous track

Used output format : User Defined Encoder
Selected bitrate : 1024 kBit/s
Quality : High
Add ID3 tag : No
Command line compressor : D:\Program Files\Exact Audio Copy\Flac\flac.exe
Additional command line options : -V -8 -T "Genre=%genre%" -T "Artist=%artist%" -T "Title=%title%" -T "Album=%albumtitle%" -T "Date=%year%" -T "Tracknumber=%tracknr%" -T "Comment=%comment%" %source%

TOC of the extracted CD

Track | Start | Length | Start sector | End sector
---------------------------------------------------------
1 | 0:00.00 | 5:59.10 | 0 | 26934
2 | 5:59.10 | 3:39.56 | 26935 | 43415
3 | 9:38.66 | 4:48.55 | 43416 | 65070
4 | 14:27.46 | 4:20.47 | 65071 | 84617
5 | 18:48.18 | 4:32.25 | 84618 | 105042
6 | 23:20.43 | 1:13.61 | 105043 | 110578
7 | 24:34.29 | 4:59.24 | 110579 | 133027
8 | 29:33.53 | 4:27.18 | 133028 | 153070
9 | 34:00.71 | 4:53.26 | 153071 | 175071
10 | 38:54.22 | 4:17.45 | 175072 | 194391

Track 1

Filename D:\Desktop\Silicon Dream - Time Machine (1998)\01. Time Machine (You Are The Master Of Time-Age).wav

Pre-gap length 0:00:02.00

Peak level 94.4 %
Extraction speed 2.0 X
Track quality 100.0 %
Test CRC 66D6CD71
Copy CRC 66D6CD71
Accurately ripped (confidence 1) [604C46A7] (AR v1)
Copy OK

Track 2

Filename D:\Desktop\Silicon Dream - Time Machine (1998)\02. Jimmy Dean Loved Marilyn-Film Ab (The Hollywood-Age).wav

Peak level 94.4 %
Extraction speed 1.8 X
Track quality 99.9 %
Test CRC 153C5702
Copy CRC 153C5702
Accurately ripped (confidence 1) [64202470] (AR v1)
Copy OK

Track 3

Filename D:\Desktop\Silicon Dream - Time Machine (1998)\03. Corleone Speaking (The Chicago-Age).wav

Peak level 94.4 %
Extraction speed 2.4 X
Track quality 100.0 %
Test CRC 03276624
Copy CRC 03276624
Accurately ripped (confidence 1) [31F92C51] (AR v1)
Copy OK

Track 4

Filename D:\Desktop\Silicon Dream - Time Machine (1998)\04. Holiday' In St. Tropez-Eating Pizza In Ibiza (The Cola-Age).wav

Peak level 94.4 %
Extraction speed 2.1 X
Track quality 99.9 %
Test CRC 26CFDA3A
Copy CRC 26CFDA3A
Accurately ripped (confidence 1) [87C89F15] (AR v1)
Copy OK

Track 5

Filename D:\Desktop\Silicon Dream - Time Machine (1998)\05. Marcello the Mastroianni (The Fellini-Age).wav

Peak level 94.5 %
Extraction speed 2.7 X
Track quality 100.0 %
Test CRC 0ED4DC63
Copy CRC 0ED4DC63
Accurately ripped (confidence 1) [68FF5220] (AR v1)
Copy OK

Track 6

Filename D:\Desktop\Silicon Dream - Time Machine (1998)\06. Space Intro (The-Age Of The First Cosmic Steps).wav

Pre-gap length 0:00:03.00

Peak level 94.4 %
Extraction speed 2.1 X
Track quality 100.0 %
Test CRC BC002369
Copy CRC BC002369
Accurately ripped (confidence 1) [9EDCA9D4] (AR v1)
Copy OK

Track 7

Filename D:\Desktop\Silicon Dream - Time Machine (1998)\07. Andromeda (The Space-Age).wav

Peak level 94.4 %
Extraction speed 2.9 X
Track quality 100.0 %
Test CRC DED9E839
Copy CRC DED9E839
Accurately ripped (confidence 1) [2C233974] (AR v1)
Copy OK

Track 8

Filename D:\Desktop\Silicon Dream - Time Machine (1998)\08. Albert Einstein - Everything Is Relative (The Age Of The Inventors).wav

Peak level 94.4 %
Extraction speed 2.4 X
Track quality 99.9 %
Test CRC F023D351
Copy CRC F023D351
Accurately ripped (confidence 1) [0DE21ED5] (AR v1)
Copy OK

Track 9

Filename D:\Desktop\Silicon Dream - Time Machine (1998)\09. Primaballerina (The Romantic Age).wav

Peak level 94.4 %
Extraction speed 3.2 X
Track quality 100.0 %
Test CRC B3C806DF
Copy CRC B3C806DF
Accurately ripped (confidence 1) [3651D1AD] (AR v1)
Copy OK

Track 10

Filename D:\Desktop\Silicon Dream - Time Machine (1998)\10. Don't Break My Heart (The Age Of Love).wav

Peak level 94.4 %
Extraction speed 3.3 X
Track quality 100.0 %
Test CRC B1CBA59E
Copy CRC B1CBA59E
Accurately ripped (confidence 1) [7642EA8A] (AR v1)
Copy OK

All tracks accurately ripped

No errors occurred

End of status report

==== Log checksum 479CA90EF9651384FFFD56DAD9BD1A8B973B56559B9293706D8B31FC86B30AAE ====
REM GENRE Synthpop 
REM DATE 1998
REM DISCID 780A1F0A
REM COMMENT "ExactAudioCopy v1.0b3"
PERFORMER "Silicon Dream"
TITLE "Time Machine"
FILE "01. Time Machine (You Are The Master Of Time-Age).wav" WAVE
TRACK 01 AUDIO
TITLE "Time Machine (You Are The Master Of Time-Age)"
PERFORMER "Silicon Dream"
INDEX 01 00:00:00
FILE "02. Jimmy Dean Loved Marilyn-Film Ab (The Hollywood-Age).wav" WAVE
TRACK 02 AUDIO
TITLE "Jimmy Dean Loved Marilyn-Film Ab (The Hollywood-Age)"
PERFORMER "Silicon Dream"
INDEX 01 00:00:00
FILE "03. Corleone Speaking (The Chicago-Age).wav" WAVE
TRACK 03 AUDIO
TITLE "Corleone Speaking (The Chicago-Age)"
PERFORMER "Silicon Dream"
INDEX 01 00:00:00
FILE "04. Holiday' In St. Tropez-Eating Pizza In Ibiza (The Cola-Age).wav" WAVE
TRACK 04 AUDIO
TITLE "Holiday' In St. Tropez-Eating Pizza In Ibiza (The Cola-Age)"
PERFORMER "Silicon Dream"
INDEX 01 00:00:00
FILE "05. Marcello the Mastroianni (The Fellini-Age).wav" WAVE
TRACK 05 AUDIO
TITLE "Marcello the Mastroianni (The Fellini-Age)"
PERFORMER "Silicon Dream"
INDEX 01 00:00:00
TRACK 06 AUDIO
TITLE "Space Intro (The-Age Of The First Cosmic Steps)"
PERFORMER "Silicon Dream"
INDEX 00 04:29:25
FILE "06. Space Intro (The-Age Of The First Cosmic Steps).wav" WAVE
INDEX 01 00:00:00
FILE "07. Andromeda (The Space-Age).wav" WAVE
TRACK 07 AUDIO
TITLE "Andromeda (The Space-Age)"
PERFORMER "Silicon Dream"
INDEX 01 00:00:00
FILE "08. Albert Einstein - Everything Is Relative (The Age Of The Inventors).wav" WAVE
TRACK 08 AUDIO
TITLE "Albert Einstein - Everything Is Relative (The Age Of The Inventors)"
PERFORMER "Silicon Dream"
INDEX 01 00:00:00
FILE "09. Primaballerina (The Romantic Age).wav" WAVE
TRACK 09 AUDIO
TITLE "Primaballerina (The Romantic Age)"
PERFORMER "Silicon Dream"
INDEX 01 00:00:00
FILE "10. Don't Break My Heart (The Age Of Love).wav" WAVE
TRACK 10 AUDIO
TITLE "Don't Break My Heart (The Age Of Love)"
PERFORMER "Silicon Dream"
INDEX 01 00:00:00

Discogs
          
info [Профиль]  [ЛС] 
Показать сообщения:    
Ответить на тему

Текущее время: 22-Май 08:53

Часовой пояс: GMT + 4



Вы не можете начинать темы
Вы не можете отвечать на сообщения
Вы не можете редактировать свои сообщения
Вы не можете удалять свои сообщения
Вы не можете голосовать в опросах
Вы не можете прикреплять файлы к сообщениям
Вы не можете скачивать файлы