Ошибка

(Folk, Pop, Disco, Schlager) Dschinghis Khan - 7 Leben - 2007, FLAC (tracks+.cue), lossless

Ответить на тему
 
Автор Сообщение

Молескин

Пол: Пол:Муж

Стаж: 3 года 4 месяца

Сообщений: 123

Россия
Рейтинг

post 26-Янв-2018 21:26 0[+]

[Цитировать] 

Dschinghis Khan - 7 Leben
pic="http://i103.fastpic.ru/big/2018/0126/ed/2e8fb03a143e635d0c1770d5e93beaed.jpg"

Жанр: Folk, Pop, Disco, Schlager
Год издания данного носителя: 2007
Страна-производитель носителя: Europe
Лейбл: Koch Universal
Каталоговый номер: 06025 1724121
Аудио кодек: FLAC
Тип рипа: tracks+.cue
Битрейт аудио: lossless
Продолжительность: 00:58:09
Источник: CD
Полиграфия: Присутствует


Треклист:
Brandbeue Songs
01. Temudschin
02. Brennende Taiga
03. In Der Mongolei
05. Die Gold'ne Horde Dschinghis Khans
06. Doswidanje
07. Der Teufel Kann Warten
08. Wie Feuer Im Wind
Best Of Dschinghis Khan (Neuaufnahmen 2007)
09. Dschingis Khan
10. Moskau
11. Samurai
12. Hadschi Halef Omar
13. Rocking Son Of Dschingis Khan
14. China Boy
15. Moskau (Long Version)


Exact Audio Copy V1.0 beta 3 from 29. August 2011 

EAC extraction logfile from 21. September 2014, 0:18

Dschinghis Khan / 7 Leben

Used drive : HL-DT-STDVDRAM GSA-T10N Adapter: 0 ID: 0

Read mode : Secure
Utilize accurate stream : Yes
Defeat audio cache : Yes
Make use of C2 pointers : No

Read offset correction : 667
Overread into Lead-In and Lead-Out : No
Fill up missing offset samples with silence : Yes
Delete leading and trailing silent blocks : No
Null samples used in CRC calculations : Yes
Used interface : Installed external ASPI interface
Gap handling : Appended to previous track

Used output format : User Defined Encoder
Selected bitrate : 1024 kBit/s
Quality : High
Add ID3 tag : No
Command line compressor : D:\Program Files\Foobar2000\encoders\flac.exe
Additional command line options : -V -8 -T "Date=%year%" -T "Genre=%genre%" %source%

TOC of the extracted CD

Track | Start | Length | Start sector | End sector
---------------------------------------------------------
1 | 0:00.00 | 3:24.63 | 0 | 15362
2 | 3:24.63 | 3:42.00 | 15363 | 32012
3 | 7:06.63 | 4:04.00 | 32013 | 50312
4 | 11:10.63 | 3:38.00 | 50313 | 66662
5 | 14:48.63 | 3:59.00 | 66663 | 84587
6 | 18:47.63 | 3:03.00 | 84588 | 98312
7 | 21:50.63 | 3:15.00 | 98313 | 112937
8 | 25:05.63 | 4:08.00 | 112938 | 131537
9 | 29:13.63 | 3:09.00 | 131538 | 145712
10 | 32:22.63 | 3:44.00 | 145713 | 162512
11 | 36:06.63 | 4:38.00 | 162513 | 183362
12 | 40:44.63 | 3:52.00 | 183363 | 200762
13 | 44:36.63 | 4:22.00 | 200763 | 220412
14 | 48:58.63 | 4:07.00 | 220413 | 238937
15 | 53:05.63 | 5:03.22 | 238938 | 261684

Track 1

Filename D:\Desktop - копия\Dschinghis Khan - 7 Leben (2007)\01 Temudschin.wav

Pre-gap length 0:00:02.00

Peak level 98.8 %
Extraction speed 2.1 X
Track quality 99.9 %
Test CRC 3223DBA6
Copy CRC 3223DBA6
Accurately ripped (confidence 2) [DD9ECB9E] (AR v1)
Copy OK

Track 2

Filename D:\Desktop - копия\Dschinghis Khan - 7 Leben (2007)\02 Brennende Taiga.wav

Pre-gap length 0:00:02.71

Peak level 97.9 %
Extraction speed 2.6 X
Track quality 100.0 %
Test CRC C2F67E39
Copy CRC C2F67E39
Accurately ripped (confidence 2) [4C196525] (AR v1)
Copy OK

Track 3

Filename D:\Desktop - копия\Dschinghis Khan - 7 Leben (2007)\03 In Der Mongolei.wav

Pre-gap length 0:00:03.50

Peak level 98.8 %
Extraction speed 2.5 X
Track quality 99.9 %
Test CRC 94534CCE
Copy CRC 94534CCE
Accurately ripped (confidence 2) [2BF8986B] (AR v1)
Copy OK

Track 4

Filename D:\Desktop - копия\Dschinghis Khan - 7 Leben (2007)\04 Rote Sonne Über Kasachstan.wav

Pre-gap length 0:00:03.33

Peak level 97.9 %
Extraction speed 2.9 X
Track quality 100.0 %
Test CRC 11D06161
Copy CRC 11D06161
Accurately ripped (confidence 2) [59D6C4B6] (AR v1)
Copy OK

Track 5

Filename D:\Desktop - копия\Dschinghis Khan - 7 Leben (2007)\05 Die Gold'ne Horde Dschinghis Khans.wav

Pre-gap length 0:00:04.18

Peak level 98.8 %
Extraction speed 3.2 X
Track quality 100.0 %
Test CRC AA316D42
Copy CRC AA316D42
Accurately ripped (confidence 2) [F1D72559] (AR v1)
Copy OK

Track 6

Filename D:\Desktop - копия\Dschinghis Khan - 7 Leben (2007)\06 Doswidanje.wav

Pre-gap length 0:00:04.63

Peak level 98.8 %
Extraction speed 3.2 X
Track quality 100.0 %
Test CRC 774D2AFB
Copy CRC 774D2AFB
Accurately ripped (confidence 2) [0653181F] (AR v1)
Copy OK

Track 7

Filename D:\Desktop - копия\Dschinghis Khan - 7 Leben (2007)\07 Der Teufel Kann Warten.wav

Pre-gap length 0:00:02.23

Peak level 98.0 %
Extraction speed 3.4 X
Track quality 100.0 %
Test CRC 8C8D7A6A
Copy CRC 8C8D7A6A
Accurately ripped (confidence 2) [1C3E7E22] (AR v1)
Copy OK

Track 8

Filename D:\Desktop - копия\Dschinghis Khan - 7 Leben (2007)\08 Wie Feuer Im Wind.wav

Pre-gap length 0:00:03.65

Peak level 98.0 %
Extraction speed 3.2 X
Track quality 99.9 %
Test CRC 482865C2
Copy CRC 482865C2
Accurately ripped (confidence 2) [83D48DF7] (AR v1)
Copy OK

Track 9

Filename D:\Desktop - копия\Dschinghis Khan - 7 Leben (2007)\09 Dschingis Khan (Version 2007).wav

Pre-gap length 0:00:01.47

Peak level 98.8 %
Extraction speed 3.6 X
Track quality 100.0 %
Test CRC 723E7D6B
Copy CRC 723E7D6B
Accurately ripped (confidence 2) [FC4A0B02] (AR v1)
Copy OK

Track 10

Filename D:\Desktop - копия\Dschinghis Khan - 7 Leben (2007)\10 Moskau (Version 2007).wav

Pre-gap length 0:00:02.51

Peak level 98.8 %
Extraction speed 3.8 X
Track quality 100.0 %
Test CRC 60746BBF
Copy CRC 60746BBF
Accurately ripped (confidence 2) [8142A80E] (AR v1)
Copy OK

Track 11

Filename D:\Desktop - копия\Dschinghis Khan - 7 Leben (2007)\11 Samurai (Version 2007).wav

Pre-gap length 0:00:02.47

Peak level 98.0 %
Extraction speed 4.1 X
Track quality 100.0 %
Test CRC 5D2AF14E
Copy CRC 5D2AF14E
Accurately ripped (confidence 2) [8B21A2EE] (AR v1)
Copy OK

Track 12

Filename D:\Desktop - копия\Dschinghis Khan - 7 Leben (2007)\12 Hadschi Halef Omar (Version 2007).wav

Pre-gap length 0:00:03.05

Peak level 97.9 %
Extraction speed 4.0 X
Track quality 100.0 %
Test CRC 629CBA57
Copy CRC 629CBA57
Accurately ripped (confidence 2) [376E1420] (AR v1)
Copy OK

Track 13

Filename D:\Desktop - копия\Dschinghis Khan - 7 Leben (2007)\13 Rocking Son Of Dschingis Khan (Version 2007).wav

Pre-gap length 0:00:03.62

Peak level 98.0 %
Extraction speed 4.4 X
Track quality 100.0 %
Test CRC 9B5B7855
Copy CRC 9B5B7855
Accurately ripped (confidence 2) [B2BB6339] (AR v1)
Copy OK

Track 14

Filename D:\Desktop - копия\Dschinghis Khan - 7 Leben (2007)\14 China Boy (Version 2007).wav

Pre-gap length 0:00:03.02

Peak level 98.0 %
Extraction speed 3.8 X
Track quality 99.9 %
Test CRC 05E782AB
Copy CRC 05E782AB
Accurately ripped (confidence 2) [25D6D107] (AR v1)
Copy OK

Track 15

Filename D:\Desktop - копия\Dschinghis Khan - 7 Leben (2007)\15 Moskau (Long Version 2007).wav

Pre-gap length 0:00:04.11

Peak level 98.8 %
Extraction speed 4.6 X
Track quality 100.0 %
Test CRC 018A2B6B
Copy CRC 018A2B6B
Accurately ripped (confidence 2) [F9C316EE] (AR v1)
Copy OK

All tracks accurately ripped

No errors occurred

End of status report

==== Log checksum E7BA4EECA30D84BA61A4C034E5737D19FD17ABA599A2D665294BCFA2F609C628 ====
REM GENRE Disco 
REM DATE 2007
REM DISCID D70DA10F
REM COMMENT "ExactAudioCopy v1.0b3"
PERFORMER "Dschinghis Khan"
TITLE "7 Leben"
FILE "01 Temudschin.wav" WAVE
TRACK 01 AUDIO
TITLE "Temudschin"
PERFORMER "Dschinghis Khan"
INDEX 01 00:00:00
TRACK 02 AUDIO
TITLE "Brennende Taiga"
PERFORMER "Dschinghis Khan"
INDEX 00 03:21:67
FILE "02 Brennende Taiga.wav" WAVE
INDEX 01 00:00:00
TRACK 03 AUDIO
TITLE "In Der Mongolei"
PERFORMER "Dschinghis Khan"
INDEX 00 03:38:25
FILE "03 In Der Mongolei.wav" WAVE
INDEX 01 00:00:00
TRACK 04 AUDIO
TITLE "Rote Sonne Uber Kasachstan"
PERFORMER "Dschinghis Khan"
INDEX 00 04:00:42
FILE "04 Rote Sonne Uber Kasachstan.wav" WAVE
INDEX 01 00:00:00
TRACK 05 AUDIO
TITLE "Die Gold'ne Horde Dschinghis Khans"
PERFORMER "Dschinghis Khan"
INDEX 00 03:33:57
FILE "05 Die Gold'ne Horde Dschinghis Khans.wav" WAVE
INDEX 01 00:00:00
TRACK 06 AUDIO
TITLE "Doswidanje"
PERFORMER "Dschinghis Khan"
INDEX 00 03:54:12
FILE "06 Doswidanje.wav" WAVE
INDEX 01 00:00:00
TRACK 07 AUDIO
TITLE "Der Teufel Kann Warten"
PERFORMER "Dschinghis Khan"
INDEX 00 03:00:52
FILE "07 Der Teufel Kann Warten.wav" WAVE
INDEX 01 00:00:00
TRACK 08 AUDIO
TITLE "Wie Feuer Im Wind"
PERFORMER "Dschinghis Khan"
INDEX 00 03:11:10
FILE "08 Wie Feuer Im Wind.wav" WAVE
INDEX 01 00:00:00
TRACK 09 AUDIO
TITLE "Dschingis Khan (Version 2007)"
PERFORMER "Dschinghis Khan"
INDEX 00 04:06:28
FILE "09 Dschingis Khan (Version 2007).wav" WAVE
INDEX 01 00:00:00
TRACK 10 AUDIO
TITLE "Moskau (Version 2007)"
PERFORMER "Dschinghis Khan"
INDEX 00 03:06:24
FILE "10 Moskau (Version 2007).wav" WAVE
INDEX 01 00:00:00
TRACK 11 AUDIO
TITLE "Samurai (Version 2007)"
PERFORMER "Dschinghis Khan"
INDEX 00 03:41:28
FILE "11 Samurai (Version 2007).wav" WAVE
INDEX 01 00:00:00
TRACK 12 AUDIO
TITLE "Hadschi Halef Omar (Version 2007)"
PERFORMER "Dschinghis Khan"
INDEX 00 04:34:70
FILE "12 Hadschi Halef Omar (Version 2007).wav" WAVE
INDEX 01 00:00:00
TRACK 13 AUDIO
TITLE "Rocking Son Of Dschingis Khan (Version 2007)"
PERFORMER "Dschinghis Khan"
INDEX 00 03:48:13
FILE "13 Rocking Son Of Dschingis Khan (Version 2007).wav" WAVE
INDEX 01 00:00:00
TRACK 14 AUDIO
TITLE "China Boy (Version 2007)"
PERFORMER "Dschinghis Khan"
INDEX 00 04:18:73
FILE "14 China Boy (Version 2007).wav" WAVE
INDEX 01 00:00:00
TRACK 15 AUDIO
TITLE "Moskau (Long Version 2007)"
PERFORMER "Dschinghis Khan"
INDEX 00 04:02:64
FILE "15 Moskau (Long Version 2007).wav" WAVE
INDEX 01 00:00:00

Discogs
          
info [Профиль]  [ЛС] 
Показать сообщения:    
Ответить на тему

Текущее время: 18-Май 21:39

Часовой пояс: GMT + 4



Вы не можете начинать темы
Вы не можете отвечать на сообщения
Вы не можете редактировать свои сообщения
Вы не можете удалять свои сообщения
Вы не можете голосовать в опросах
Вы не можете прикреплять файлы к сообщениям
Вы не можете скачивать файлы