Ошибка

(Synthpop, New Wave) Depeche Mode - The Best Of (Volume 1) - 2006, FLAC (tracks+.cue), lossless

Ответить на тему
 
Автор Сообщение

Молескин

Пол: Пол:Муж

Стаж: 4 года 4 месяца

Сообщений: 123

Россия
Рейтинг

post 18-Янв-2018 11:36 1[+]

[Цитировать] 

Depeche Mode - The Best Of (Volume 1)
pic="http://i103.fastpic.ru/big/2018/0118/f3/0230a7791e0cc74e17af9765f51dfcf3.jpg"

Жанр: Synthpop, New Wave
Год издания данного носителя: 2006
Страна-производитель носителя: Europe
Лейбл: Mute
Каталоговый номер: cdmutel15, 0094637507322
Аудио кодек: FLAC
Тип рипа: tracks+.cue
Битрейт аудио: lossless
Продолжительность: 01:14:46
Источник: CD
Полиграфия: Присутствует


Треклист:
01. Personal Jesus
02. Just Can't Get Enough
03. Everything Counts
04. Enjoy The Silence
05. Shake The Disease
06. See You
07. It's No Good
08. Strangelove
09. Suffer Well
10. Dream On
11. People Are People
12. Martyr
13. Walking In My Shoes
14. I Feel You
15. Precious
16. Master And Servant
17. New Life
18. Never Let Me Down Again


Exact Audio Copy V1.0 beta 3 from 29. August 2011 

EAC extraction logfile from 24. October 2016, 21:54

Depeche Mode / The Best Of (Volume 1)

Used drive : TSSTcorpCDDVDW SH-224DB Adapter: 0 ID: 1

Read mode : Secure
Utilize accurate stream : Yes
Defeat audio cache : Yes
Make use of C2 pointers : No

Read offset correction : 6
Overread into Lead-In and Lead-Out : No
Fill up missing offset samples with silence : Yes
Delete leading and trailing silent blocks : No
Null samples used in CRC calculations : Yes
Used interface : Installed external ASPI interface
Gap handling : Appended to previous track

Used output format : User Defined Encoder
Selected bitrate : 1024 kBit/s
Quality : High
Add ID3 tag : No
Command line compressor : D:\Program Files\Exact Audio Copy\Flac\flac.exe
Additional command line options : -V -8 -T "Genre=%genre%" -T "Artist=%artist%" -T "Title=%title%" -T "Album=%albumtitle%" -T "Date=%year%" -T "Tracknumber=%tracknr%" -T "Comment=%comment%" %source%

TOC of the extracted CD

Track | Start | Length | Start sector | End sector
---------------------------------------------------------
1 | 0:00.00 | 3:47.31 | 0 | 17055
2 | 3:47.31 | 3:43.23 | 17056 | 33803
3 | 7:30.54 | 4:01.11 | 33804 | 51889
4 | 11:31.65 | 4:14.64 | 51890 | 71003
5 | 15:46.54 | 4:51.59 | 71004 | 92887
6 | 20:38.38 | 3:57.60 | 92888 | 110722
7 | 24:36.23 | 5:58.44 | 110723 | 137616
8 | 30:34.67 | 3:46.53 | 137617 | 154619
9 | 34:21.45 | 3:52.46 | 154620 | 172065
10 | 38:14.16 | 3:41.67 | 172066 | 188707
11 | 41:56.08 | 3:46.16 | 188708 | 205673
12 | 45:42.24 | 3:25.21 | 205674 | 221069
13 | 49:07.45 | 5:00.64 | 221070 | 243633
14 | 54:08.34 | 4:35.07 | 243634 | 264265
15 | 58:43.41 | 4:09.23 | 264266 | 282963
16 | 62:52.64 | 3:49.01 | 282964 | 300139
17 | 66:41.65 | 3:46.07 | 300140 | 317096
18 | 70:27.72 | 4:18.24 | 317097 | 336470

Track 1

Filename D:\Desktop\Depeche Mode - The Best Of (Volume 1) (2006)\01. Personal Jesus.wav

Pre-gap length 0:00:02.00

Peak level 98.8 %
Extraction speed 1.7 X
Track quality 99.9 %
Test CRC AEBCC753
Copy CRC AEBCC753
Accurately ripped (confidence 72) [33E35F8E] (AR v2)
Copy OK

Track 2

Filename D:\Desktop\Depeche Mode - The Best Of (Volume 1) (2006)\02. Just Can't Get Enough.wav

Pre-gap length 0:00:02.28

Peak level 95.5 %
Extraction speed 2.1 X
Track quality 100.0 %
Test CRC C5EA3781
Copy CRC C5EA3781
Accurately ripped (confidence 72) [7E7BCD83] (AR v2)
Copy OK

Track 3

Filename D:\Desktop\Depeche Mode - The Best Of (Volume 1) (2006)\03. Everything Counts.wav

Pre-gap length 0:00:02.32

Peak level 97.7 %
Extraction speed 2.2 X
Track quality 100.0 %
Test CRC 38E0DBCE
Copy CRC 38E0DBCE
Accurately ripped (confidence 73) [CCB61AAC] (AR v2)
Copy OK

Track 4

Filename D:\Desktop\Depeche Mode - The Best Of (Volume 1) (2006)\04. Enjoy The Silence.wav

Pre-gap length 0:00:02.12

Peak level 98.8 %
Extraction speed 2.4 X
Track quality 100.0 %
Test CRC 879089E5
Copy CRC 879089E5
Accurately ripped (confidence 72) [1988E77A] (AR v2)
Copy OK

Track 5

Filename D:\Desktop\Depeche Mode - The Best Of (Volume 1) (2006)\05. Shake The Disease.wav

Pre-gap length 0:00:01.20

Peak level 95.1 %
Extraction speed 2.6 X
Track quality 100.0 %
Test CRC A70274EF
Copy CRC A70274EF
Accurately ripped (confidence 73) [6CD09029] (AR v2)
Copy OK

Track 6

Filename D:\Desktop\Depeche Mode - The Best Of (Volume 1) (2006)\06. See You.wav

Pre-gap length 0:00:02.06

Peak level 100.0 %
Extraction speed 2.7 X
Track quality 100.0 %
Test CRC 909CAF67
Copy CRC 909CAF67
Accurately ripped (confidence 73) [180394A8] (AR v2)
Copy OK

Track 7

Filename D:\Desktop\Depeche Mode - The Best Of (Volume 1) (2006)\07. It's No Good.wav

Pre-gap length 0:00:02.20

Peak level 98.8 %
Extraction speed 3.0 X
Track quality 100.0 %
Test CRC C6FA8C23
Copy CRC C6FA8C23
Accurately ripped (confidence 71) [7E4D8796] (AR v2)
Copy OK

Track 8

Filename D:\Desktop\Depeche Mode - The Best Of (Volume 1) (2006)\08. Strangelove.wav

Pre-gap length 0:00:01.05

Peak level 100.0 %
Extraction speed 2.4 X
Track quality 99.9 %
Test CRC 713E984C
Copy CRC 713E984C
Accurately ripped (confidence 73) [C29F00B9] (AR v2)
Copy OK

Track 9

Filename D:\Desktop\Depeche Mode - The Best Of (Volume 1) (2006)\09. Suffer Well.wav

Pre-gap length 0:00:02.16

Peak level 79.3 %
Extraction speed 3.1 X
Track quality 100.0 %
Test CRC 1E5ADFA1
Copy CRC 1E5ADFA1
Accurately ripped (confidence 70) [410918E6] (AR v2)
Copy OK

Track 10

Filename D:\Desktop\Depeche Mode - The Best Of (Volume 1) (2006)\10. Dream On.wav

Pre-gap length 0:00:02.61

Peak level 92.7 %
Extraction speed 3.2 X
Track quality 100.0 %
Test CRC AC7AA66C
Copy CRC AC7AA66C
Accurately ripped (confidence 71) [9CCC43C5] (AR v2)
Copy OK

Track 11

Filename D:\Desktop\Depeche Mode - The Best Of (Volume 1) (2006)\11. People Are People.wav

Pre-gap length 0:00:02.28

Peak level 98.8 %
Extraction speed 3.2 X
Track quality 100.0 %
Test CRC 77729D49
Copy CRC 77729D49
Accurately ripped (confidence 72) [AD3A957A] (AR v2)
Copy OK

Track 12

Filename D:\Desktop\Depeche Mode - The Best Of (Volume 1) (2006)\12. Martyr.wav

Pre-gap length 0:00:02.12

Peak level 97.7 %
Extraction speed 3.3 X
Track quality 100.0 %
Test CRC DFDC1D8D
Copy CRC DFDC1D8D
Accurately ripped (confidence 70) [42CD9620] (AR v2)
Copy OK

Track 13

Filename D:\Desktop\Depeche Mode - The Best Of (Volume 1) (2006)\13. Walking In My Shoes.wav

Pre-gap length 0:00:03.12

Peak level 97.7 %
Extraction speed 3.6 X
Track quality 100.0 %
Test CRC 28FB6103
Copy CRC 28FB6103
Accurately ripped (confidence 71) [A9D19752] (AR v2)
Copy OK

Track 14

Filename D:\Desktop\Depeche Mode - The Best Of (Volume 1) (2006)\14. I Feel You.wav

Pre-gap length 0:00:01.54

Peak level 97.7 %
Extraction speed 3.7 X
Track quality 100.0 %
Test CRC 26A76A5C
Copy CRC 26A76A5C
Accurately ripped (confidence 70) [D33AD158] (AR v2)
Copy OK

Track 15

Filename D:\Desktop\Depeche Mode - The Best Of (Volume 1) (2006)\15. Precious.wav

Pre-gap length 0:00:01.25

Peak level 76.5 %
Extraction speed 2.9 X
Track quality 99.9 %
Test CRC 8627AF48
Copy CRC 8627AF48
Accurately ripped (confidence 71) [3A6672B5] (AR v2)
Copy OK

Track 16

Filename D:\Desktop\Depeche Mode - The Best Of (Volume 1) (2006)\16. Master And Servant.wav

Pre-gap length 0:00:01.02

Peak level 97.7 %
Extraction speed 3.7 X
Track quality 100.0 %
Test CRC ED5FD220
Copy CRC ED5FD220
Accurately ripped (confidence 72) [83DDD727] (AR v2)
Copy OK

Track 17

Filename D:\Desktop\Depeche Mode - The Best Of (Volume 1) (2006)\17. New Life.wav

Pre-gap length 0:00:01.55

Peak level 95.5 %
Extraction speed 2.9 X
Track quality 99.9 %
Test CRC 35E0A00F
Copy CRC 35E0A00F
Accurately ripped (confidence 72) [8F099057] (AR v2)
Copy OK

Track 18

Filename D:\Desktop\Depeche Mode - The Best Of (Volume 1) (2006)\18. Never Let Me Down Again.wav

Pre-gap length 0:00:02.38

Peak level 98.8 %
Extraction speed 3.1 X
Track quality 99.9 %
Test CRC 27003736
Copy CRC 27003736
Accurately ripped (confidence 70) [CBEFFFCA] (AR v2)
Copy OK

All tracks accurately ripped

No errors occurred

End of status report

==== Log checksum 61BBC4552B83F06CA8599BF3B042A03CB9331B7271FAD3AF926B4B82C690F403 ====
REM GENRE Synthpop 
REM DATE 2006
REM DISCID 0C118612
REM COMMENT "ExactAudioCopy v1.0b3"
PERFORMER "Depeche Mode"
TITLE "The Best Of (Volume 1)"
FILE "01. Personal Jesus.wav" WAVE
TRACK 01 AUDIO
TITLE "Personal Jesus"
PERFORMER "Depeche Mode"
INDEX 01 00:00:00
TRACK 02 AUDIO
TITLE "Just Can't Get Enough"
PERFORMER "Depeche Mode"
INDEX 00 03:45:03
FILE "02. Just Can't Get Enough.wav" WAVE
INDEX 01 00:00:00
TRACK 03 AUDIO
TITLE "Everything Counts"
PERFORMER "Depeche Mode"
INDEX 00 03:40:66
FILE "03. Everything Counts.wav" WAVE
INDEX 01 00:00:00
TRACK 04 AUDIO
TITLE "Enjoy The Silence"
PERFORMER "Depeche Mode"
INDEX 00 03:58:74
FILE "04. Enjoy The Silence.wav" WAVE
INDEX 01 00:00:00
TRACK 05 AUDIO
TITLE "Shake The Disease"
PERFORMER "Depeche Mode"
INDEX 00 04:13:44
FILE "05. Shake The Disease.wav" WAVE
INDEX 01 00:00:00
TRACK 06 AUDIO
TITLE "See You"
PERFORMER "Depeche Mode"
INDEX 00 04:49:53
FILE "06. See You.wav" WAVE
INDEX 01 00:00:00
TRACK 07 AUDIO
TITLE "It's No Good"
PERFORMER "Depeche Mode"
INDEX 00 03:55:40
FILE "07. It's No Good.wav" WAVE
INDEX 01 00:00:00
TRACK 08 AUDIO
TITLE "Strangelove"
PERFORMER "Depeche Mode"
INDEX 00 05:57:39
FILE "08. Strangelove.wav" WAVE
INDEX 01 00:00:00
TRACK 09 AUDIO
TITLE "Suffer Well"
PERFORMER "Depeche Mode"
INDEX 00 03:44:37
FILE "09. Suffer Well.wav" WAVE
INDEX 01 00:00:00
TRACK 10 AUDIO
TITLE "Dream On"
PERFORMER "Depeche Mode"
INDEX 00 03:49:60
FILE "10. Dream On.wav" WAVE
INDEX 01 00:00:00
TRACK 11 AUDIO
TITLE "People Are People"
PERFORMER "Depeche Mode"
INDEX 00 03:39:39
FILE "11. People Are People.wav" WAVE
INDEX 01 00:00:00
TRACK 12 AUDIO
TITLE "Martyr"
PERFORMER "Depeche Mode"
INDEX 00 03:44:04
FILE "12. Martyr.wav" WAVE
INDEX 01 00:00:00
TRACK 13 AUDIO
TITLE "Walking In My Shoes"
PERFORMER "Depeche Mode"
INDEX 00 03:22:09
FILE "13. Walking In My Shoes.wav" WAVE
INDEX 01 00:00:00
TRACK 14 AUDIO
TITLE "I Feel You"
PERFORMER "Depeche Mode"
INDEX 00 04:59:10
FILE "14. I Feel You.wav" WAVE
INDEX 01 00:00:00
TRACK 15 AUDIO
TITLE "Precious"
PERFORMER "Depeche Mode"
INDEX 00 04:33:57
FILE "15. Precious.wav" WAVE
INDEX 01 00:00:00
TRACK 16 AUDIO
TITLE "Master And Servant"
PERFORMER "Depeche Mode"
INDEX 00 04:08:21
FILE "16. Master And Servant.wav" WAVE
INDEX 01 00:00:00
TRACK 17 AUDIO
TITLE "New Life"
PERFORMER "Depeche Mode"
INDEX 00 03:47:21
FILE "17. New Life.wav" WAVE
INDEX 01 00:00:00
TRACK 18 AUDIO
TITLE "Never Let Me Down Again"
PERFORMER "Depeche Mode"
INDEX 00 03:43:44
FILE "18. Never Let Me Down Again.wav" WAVE
INDEX 01 00:00:00

Discogs
          
info [Профиль]  [ЛС] 

rustam73

Пол: Пол:Муж

Стаж: 9 лет 1 месяц

Сообщений: 25

Россия
Рейтинг

post 20-Янв-2018 05:58 (спустя 1 день 18 часов) [-]0[+]

[Цитировать] 

Спасибо ,кумиры моего детства ,а будет ли vol 2?

_________________
С ув.Рустам
info [Профиль]  [ЛС] 

KILAgad

Пол: Пол:Муж

Стаж: 13 лет

Сообщений: 33

СССР
Рейтинг

post 21-Янв-2018 15:41 (спустя 1 день 9 часов) [-]0[+]

[Цитировать] 

rustam73 писал(а):

Спасибо ,кумиры моего детства ,а будет ли vol 2?
На данный момент такого не существует
info [Профиль]  [ЛС] 

Молескин

Пол: Пол:Муж

Стаж: 4 года 4 месяца

Сообщений: 123

Россия
Рейтинг

post 21-Янв-2018 16:00 (спустя 18 минут) [-]0[+]

[Цитировать] 

KILAgad писал(а):

rustam73 писал(а):

Спасибо ,кумиры моего детства ,а будет ли vol 2?
На данный момент такого не существует
KILAgad   да, вы правы. есть ремиксы, но не по мне эти ремикcы.
Discogs
info [Профиль]  [ЛС] 
Показать сообщения:    
Ответить на тему

Текущее время: 22-Май 07:34

Часовой пояс: GMT + 4



Вы не можете начинать темы
Вы не можете отвечать на сообщения
Вы не можете редактировать свои сообщения
Вы не можете удалять свои сообщения
Вы не можете голосовать в опросах
Вы не можете прикреплять файлы к сообщениям
Вы не можете скачивать файлы