Ошибка

(Hard Rock) Black Star Riders / The Killer Instinct (Deluxe Edition 2CD-Digbook) - 2015, FLAC (image+.cue)+cover, lossless

Ответить на тему
 
Автор Сообщение

karlmenni

Пол: Пол:Муж

Стаж: 5 лет 6 месяцев

Сообщений: 1559

Россия
Рейтинг

post 09-Апр-2015 15:32 0[+]

[Цитировать] 

Black Star Riders / The Killer Instinct (Delux Edition 2CD-Digbook)


pic="http://i.imgur.com/ChaVmrQ.png"


Жанр: Hard Rock
Год издания данного носителя: 2015
Страна-производитель носителя: Germany
Лейбл: Nuclear Blast
Каталоговый номер: 27361 34150
Аудио кодек: FLAC
Тип рипа: image+.cue
Битрейт аудио: lossless
Продолжительность: 46:10 + 23:23
Источник (релизер): kikel
Полиграфия: Присутствует

Треклист:
01. The Killer Instinct
02. Bullet Blues
03. Finest Hour
04. Soldierstown
05. Charlie I Gotta Go
06. Blindsided
07. Through The Motions
08. Sex, Guns & Gasoline
09. Turn In Your Arms
10. You Little Liar

Bonus CD:
01. Gabrielle
02. The Reckoning Day
03. The Killer Instinct (Acoustic)
04. Blindsided (Acoustic)
05. Charlie I Gotta Go (Acoustic)
06. Finest Hour (Acoustic)

Код:

Exact Audio Copy V1.0 beta 3 from 29. August 2011
EAC extraction logfile from 25. February 2015, 18:49

Black Star Riders / The Killer Instinct (Disc One)

Used drive  : HL-DT-STDVDRAM GU40N   Adapter: 0  ID: 1

Read mode               : Secure
Utilize accurate stream : Yes
Defeat audio cache      : Yes
Make use of C2 pointers : No
Read offset correction                      : 103
Overread into Lead-In and Lead-Out          : No
Fill up missing offset samples with silence : Yes
Delete leading and trailing silent blocks   : No
Null samples used in CRC calculations       : Yes
Used interface                              : Installed external ASPI interface
Used output format              : User Defined Encoder
Selected bitrate                : 128 kBit/s
Quality                         : High
Add ID3 tag                     : No
Command line compressor         : C:\Program Files (x86)\AudioConverter\AudioConverter.exe
Additional command line options :  -V -8 -T "Date=%year%" -T "Genre=%genre%" %source%
TOC of the extracted CD

     Track |   Start  |  Length  | Start sector | End sector
    ---------------------------------------------------------
        1  |  0:00.00 |  3:32.07 |         0    |    15906
        2  |  3:32.07 |  4:54.07 |     15907    |    37963
        3  |  8:26.14 |  3:56.32 |     37964    |    55695
        4  | 12:22.46 |  4:49.55 |     55696    |    77425
        5  | 17:12.26 |  4:13.42 |     77426    |    96442
        6  | 21:25.68 |  5:59.66 |     96443    |   123433
        7  | 27:25.59 |  3:47.11 |    123434    |   140469
        8  | 31:12.70 |  3:59.40 |    140470    |   158434
        9  | 35:12.35 |  3:50.02 |    158435    |   175686
       10  | 39:02.37 |  7:07.50 |    175687    |   207761
Range status and errors

Selected range

     Filename C:\Users\workutagin\Desktop\Black Star Riders - The Killer Instinct ((Deluxe Edition) 2015\Black Star Riders - The Killer Instinct (Disc One).wav

     Peak level 98.8 %
     Extraction speed 2.0 X
     Range quality 100.0 %
     Test CRC 5A149E67
     Copy CRC 5A149E67
     Copy OK
No errors occurred

AccurateRip summary

Track  1  not present in database
Track  2  not present in database
Track  3  not present in database
Track  4  not present in database
Track  5  not present in database
Track  6  not present in database
Track  7  not present in database
Track  8  not present in database
Track  9  not present in database
Track 10  not present in database
None of the tracks are present in the AccurateRip database

End of status report

==== Log checksum A3CB52143749B1EB2AC16A6B30CFB8ACD88C5532BA9E73C558889F02D360A593 ====

Код:

REM GENRE "Hard Rock"
REM DATE 2015
REM DISCID 7A0AD20A
REM COMMENT "ExactAudioCopy v1.0b3"
PERFORMER "Black Star Riders"
TITLE "The Killer Instinct (Disc One)"
FILE "Black Star Riders - The Killer Instinct (Disc One).flac" WAVE
  TRACK 01 AUDIO
    TITLE "The Killer Instinct"
    PERFORMER "Black Star Riders"
    FLAGS DCP
    INDEX 01 00:00:00
  TRACK 02 AUDIO
    TITLE "Bullet Blues"
    PERFORMER "Black Star Riders"
    FLAGS DCP
    INDEX 01 03:32:07
  TRACK 03 AUDIO
    TITLE "Finest Hour"
    PERFORMER "Black Star Riders"
    FLAGS DCP
    INDEX 01 08:26:14
  TRACK 04 AUDIO
    TITLE "Soldierstown"
    PERFORMER "Black Star Riders"
    FLAGS DCP
    INDEX 01 12:22:46
  TRACK 05 AUDIO
    TITLE "Charlie I Gotta Go"
    PERFORMER "Black Star Riders"
    FLAGS DCP
    INDEX 01 17:12:26
  TRACK 06 AUDIO
    TITLE "Blindsided"
    PERFORMER "Black Star Riders"
    FLAGS DCP
    INDEX 01 21:25:68
  TRACK 07 AUDIO
    TITLE "Through The Motions"
    PERFORMER "Black Star Riders"
    FLAGS DCP
    INDEX 01 27:25:59
  TRACK 08 AUDIO
    TITLE "Sex, Guns & Gasoline"
    PERFORMER "Black Star Riders"
    FLAGS DCP
    INDEX 01 31:12:70
  TRACK 09 AUDIO
    TITLE "Turn In Your Arms"
    PERFORMER "Black Star Riders"
    FLAGS DCP
    INDEX 01 35:12:35
  TRACK 10 AUDIO
    TITLE "You Little Liar"
    PERFORMER "Black Star Riders"
    FLAGS DCP
    INDEX 01 39:02:37

Код:

Exact Audio Copy V1.0 beta 3 from 29. August 2011
EAC extraction logfile from 25. February 2015, 19:23
Black Star Riders / The Killer Instinct (Disc Two)
Used drive  : HL-DT-STDVDRAM GU40N   Adapter: 0  ID: 1
Read mode               : Secure
Utilize accurate stream : Yes
Defeat audio cache      : Yes
Make use of C2 pointers : No
Read offset correction                      : 103
Overread into Lead-In and Lead-Out          : No
Fill up missing offset samples with silence : Yes
Delete leading and trailing silent blocks   : No
Null samples used in CRC calculations       : Yes
Used interface                              : Installed external ASPI interface
Used output format              : User Defined Encoder
Selected bitrate                : 128 kBit/s
Quality                         : High
Add ID3 tag                     : No
Command line compressor         : C:\Program Files (x86)\AudioConverter\AudioConverter.exe
Additional command line options :  -V -8 -T "Date=%year%" -T "Genre=%genre%" %source%
TOC of the extracted CD
     Track |   Start  |  Length  | Start sector | End sector
    ---------------------------------------------------------
        1  |  0:00.00 |  3:21.60 |         0    |    15134
        2  |  3:21.60 |  3:38.12 |     15135    |    31496
        3  |  6:59.72 |  3:18.60 |     31497    |    46406
        4  | 10:18.57 |  5:14.70 |     46407    |    70026
        5  | 15:33.52 |  4:05.69 |     70027    |    88470
        6  | 19:39.46 |  3:43.58 |     88471    |   105253
Range status and errors
Selected range
     Filename C:\Users\workutagin\Desktop\Black Star Riders - The Killer Instinct ((Deluxe Edition) 2015 CD2\Black Star Riders - The Killer Instinct (Disc Two).wav
     Peak level 98.8 %
     Extraction speed 1.6 X
     Range quality 99.9 %
     Test CRC F1485302
     Copy CRC F1485302
     Copy OK
No errors occurred
AccurateRip summary
Track  1  not present in database
Track  2  not present in database
Track  3  not present in database
Track  4  not present in database
Track  5  not present in database
Track  6  not present in database
None of the tracks are present in the AccurateRip database
End of status report
==== Log checksum D07501A8AC589631CE5811D6C257B45C26971E1B4F732BE13C7BD64174AA0D30 ====

Код:

REM GENRE "Hard Rock"
REM DATE 2015
REM DISCID 32057B06
REM COMMENT "ExactAudioCopy v1.0b3"
PERFORMER "Black Star Riders"
TITLE "The Killer Instinct (Disc Two)"
FILE "Black Star Riders - The Killer Instinct (Disc Two).flac" WAVE
  TRACK 01 AUDIO
    TITLE "Gabrielle"
    PERFORMER "Black Star Riders"
    FLAGS DCP
    INDEX 01 00:00:00
  TRACK 02 AUDIO
    TITLE "The Reckoning Day"
    PERFORMER "Black Star Riders"
    FLAGS DCP
    INDEX 01 03:21:60
  TRACK 03 AUDIO
    TITLE "The Killer Instinct (Acoustic)"
    PERFORMER "Black Star Riders"
    FLAGS DCP
    INDEX 01 06:59:72
  TRACK 04 AUDIO
    TITLE "Blindsided (Acoustic)"
    PERFORMER "Black Star Riders"
    FLAGS DCP
    INDEX 01 10:18:57
  TRACK 05 AUDIO
    TITLE "Charlie I Gotta Go (Acoustic)"
    PERFORMER "Black Star Riders"
    FLAGS DCP
    INDEX 01 15:33:52
  TRACK 06 AUDIO
    TITLE "Finest Hour (Acoustic)"
    PERFORMER "Black Star Riders"
    FLAGS DCP
    INDEX 01 19:39:46
info [Профиль]  [ЛС] 

dejawu

Стаж: 11 лет

Сообщений: 346

Великобритания
Рейтинг

post 15-Апр-2015 12:57 (спустя 5 дней) [-]0[+]

[Цитировать] 

слабенько...

_________________
info [Профиль]  [ЛС] 
Показать сообщения:    
Ответить на тему

Текущее время: 08-Июл 04:59

Часовой пояс: GMT + 4



Вы не можете начинать темы
Вы не можете отвечать на сообщения
Вы не можете редактировать свои сообщения
Вы не можете удалять свои сообщения
Вы не можете голосовать в опросах
Вы не можете прикреплять файлы к сообщениям
Вы не можете скачивать файлы