Ошибка

(Heavy Metal)Ария - Через все времена 2014 / WAVPack (image + .cue), lossless

Ответить на тему
 
Автор Сообщение

Mindaugas

Пол: Пол:Муж

Стаж: 9 лет 8 месяцев

Сообщений: 39

Европейский Союз
Рейтинг

post 03-Дек-2014 11:55 0[+]

[Цитировать] 


Ария - Через все времена
Страна: Россия
Страна производитель диска: Россия
Жанр: Heavy Metal
Год выпуска: 2014
Издатель: (Лейбл) Мистерия звука
Номер по каталогу: M2БА - 0039
Формат: WAVPack
Тип рипа: (image + .cue)
Битрейт аудио: lossless
Продолжительность: 01:05:15
Полиграфия: присутствует


01.Через все времена (05:42)
02.Город (07:12)
03.Блики солнца на воде (06:10)
04.Не сходи с ума! (05:30)
05.Время затмений (04:29)
06.Точка невозврата (05:10)
07.Ангелы неба (04:48)
08.Атака мертвецов (06:51)
09.Зов бездны (07:40)
10.Бегущий человек (06:22)
11.Точка невозврата (orchestral) (05:16)

Код:

Exact Audio Copy V1.0 beta 3 from 29. August 2011

EAC extraction logfile from 1. December 2014, 11:58

Ария / Через все времена

Used drive  : ATAPI   iHAS124   B   Adapter: 0  ID: 0

Read mode               : Secure
Utilize accurate stream : Yes
Defeat audio cache      : Yes
Make use of C2 pointers : No

Read offset correction                      : 6
Overread into Lead-In and Lead-Out          : No
Fill up missing offset samples with silence : Yes
Delete leading and trailing silent blocks   : No
Null samples used in CRC calculations       : Yes
Used interface                              : Installed external ASPI interface

Used output format              : User Defined Encoder
Selected bitrate                : 768 kBit/s
Quality                         : High
Add ID3 tag                     : No
Command line compressor         : D:\EAC\wavpack.exe
Additional command line options : -hm %source% %dest%

TOC of the extracted CD

     Track |   Start  |  Length  | Start sector | End sector
    ---------------------------------------------------------
        1  |  0:00.00 |  5:42.27 |         0    |    25676
        2  |  5:42.27 |  7:12.29 |     25677    |    58105
        3  | 12:54.56 |  6:10.60 |     58106    |    85915
        4  | 19:05.41 |  5:30.42 |     85916    |   110707
        5  | 24:36.08 |  4:29.48 |    110708    |   130930
        6  | 29:05.56 |  5:10.41 |    130931    |   154221
        7  | 34:16.22 |  4:48.64 |    154222    |   175885
        8  | 39:05.11 |  6:51.25 |    175886    |   206735
        9  | 45:56.36 |  7:40.34 |    206736    |   241269
       10  | 53:36.70 |  6:22.08 |    241270    |   269927
       11  | 59:59.03 |  5:16.13 |    269928    |   293640

Range status and errors

Selected range

     Filename C:\Temp\Ария\Ария - Через все времена.wav

     Peak level 98.8 %
     Extraction speed 6.9 X
     Range quality 99.9 %
     Test CRC 5D3FC69D
     Copy CRC 5D3FC69D
     Copy OK

No errors occurred

 
AccurateRip summary
 
Track  1  not present in database
Track  2  not present in database
Track  3  not present in database
Track  4  not present in database
Track  5  not present in database
Track  6  not present in database
Track  7  not present in database
Track  8  not present in database
Track  9  not present in database
Track 10  not present in database
Track 11  not present in database
 
None of the tracks are present in the AccurateRip database

End of status report

---- CUETools DB Plugin V2.1.3

[CTDB TOCID: Pg7CpcPyz_gLOml5ce9kI_aYN.I-] disk not present in database, Submit result: Pg7CpcPyz_gLOml5ce9kI_aYN.I- has been uploaded

==== Log checksum 92B87FC650B2C5E140FDF17A2A79BCCDE3205B51B3494DDDCBA99A1F3506DF0E ====

Код:

REM GENRE Heavy Metal
REM DATE 2014
REM DISCID A20F4B0B
REM COMMENT ExactAudioCopy v1.0b3
PERFORMER "Ария"
TITLE "Через все времена"
FILE "Ariya - 2014 - CHerez vse vremena.wv" WAVE
  TRACK 01 AUDIO
    TITLE "Через все времена"
    PERFORMER "Ария"
    INDEX 01 00:00:00
  TRACK 02 AUDIO
    TITLE "Город"
    PERFORMER "Ария"
    INDEX 01 05:42:27
  TRACK 03 AUDIO
    TITLE "Блики солнца на воде"
    PERFORMER "Ария"
    INDEX 01 12:54:56
  TRACK 04 AUDIO
    TITLE "Не сходи с ума!"
    PERFORMER "Ария"
    INDEX 01 19:05:41
  TRACK 05 AUDIO
    TITLE "Время затмений"
    PERFORMER "Ария"
    INDEX 01 24:36:08
  TRACK 06 AUDIO
    TITLE "Точка невозврата"
    PERFORMER "Ария"
    INDEX 01 29:05:56
  TRACK 07 AUDIO
    TITLE "Ангелы неба"
    PERFORMER "Ария"
    INDEX 01 34:16:22
  TRACK 08 AUDIO
    TITLE "Атака мертвецов"
    PERFORMER "Ария"
    INDEX 01 39:05:11
  TRACK 09 AUDIO
    TITLE "Зов бездны"
    PERFORMER "Ария"
    INDEX 01 45:56:36
  TRACK 10 AUDIO
    TITLE "Бегущий человек"
    PERFORMER "Ария"
    INDEX 01 53:36:70
  TRACK 11 AUDIO
    TITLE "Точка невозврата (orchestral)"
    PERFORMER "Ария"
    INDEX 01 59:59:03


Не забываем говорить


info [Профиль]  [ЛС] 

death7lord

Пол: Пол:Муж

Стаж: 12 лет

Сообщений: 393

Рейтинг

post 03-Дек-2014 16:06 (спустя 4 часа) [-]0[+]

[Цитировать] 

всё-таки что лучше - флак или вав? флак сжимается, но вав-ку вроде тоже можно
info [Профиль]  [ЛС] 

TATOSHCA

Пол: Пол:Муж

Стаж: 13 лет

Сообщений: 5425

Россия
Рейтинг

post 11-Ноя-2015 15:53 (спустя 11 месяцев 7 дней) [-]1[+]

[Цитировать] 

death7lord
Флак это сжатый без потерь вав. Из флака можно в легкую восстановить оригинальный вав, байт в байт.

_________________
info [Профиль]  [ЛС] 

cubernoid

Пол: Пол:Муж

Стаж: 11 лет

Сообщений: 136

Греция
Рейтинг

post 12-Ноя-2015 16:42 (спустя 1 день) [-]-2[+]

[Цитировать] 

скачал выкинул в мусорное дырявое подвешенное галимое сартирное очко
чем открыть ваше гумно ? по людски награмайте

_________________
info [Профиль]  [ЛС] 
Показать сообщения:    
Ответить на тему

Текущее время: 30-Июн 02:11

Часовой пояс: GMT + 4



Вы не можете начинать темы
Вы не можете отвечать на сообщения
Вы не можете редактировать свои сообщения
Вы не можете удалять свои сообщения
Вы не можете голосовать в опросах
Вы не можете прикреплять файлы к сообщениям
Вы не можете скачивать файлы