Ошибка

(Electronic, Synthpop) Yello - By Yello (The Singles Collection 1980-2010) - 2010, FLAC (image+.cue), lossless

Ответить на тему
 
Автор Сообщение

TillL

Пол: Пол:Муж

Стаж: 12 лет

Сообщений: 16

Россия
Рейтинг

post 10-Май-2013 15:11 0[+]

[Цитировать] 

Yello - By Yello (The Singles Collection 1980-2010)

Жанр: Electronic, Synthpop
Происхождение исполнителя: Швейцария
Год выпуска диска: 2010
Тип релиза: image+.cue
Аудио кодек: FLAC
Битрейт аудио: lossless
Лейбл: Polydor
Каталоговый номер: 460502670720
Продолжительность: 75:10
Источник: Собственный CD

Треклист:
01 - Vicious Games 2010 (Feat. Heidi Happy) [3:09]
02 - Tremendous Pain [3:34]
03 - The Race [3:20]
04 - To The Sea (Feat. Stina Nordenstam) [3:52]
05 - Planet Dada (Co-producer by Håkan Lidbo) [3:07]
06 - Oh Yeah [3:06]
07 - The Expert [2:55]
08 - Bimbo [3:36]
09 - Bostich (Reflected) [2:32]
10 - How How [2:40]
11 - She's Got A Gun (Live At The Palladium NY 1985) [4:03]
12 - Part Love [3:40]
13 - Drive/Driven [4:15]
14 - Rubberbandman [3:38]
15 - Goldrush [4:20]
16 - Lost Again [4:20]
17 - Who's Gone [3:42]
18 - Squeeze Please [3:16]
19 - Of Course I'm Lying [3:52]
20 - Desire [3:42]
21 - The Rhythm Divine (Feat. Shirley Bassey) [4:21]


 
AUDIOCHECKER v1.2 - by Dester - opdester@freemail.hu
~~~~~~~~~~~~~~~~~

1 -===- C:\Yello By Yello\Yello - Yello By Yello - The Anthology (CD3 - The Singles Collection 1980 - 2010).flac
Extracted successfully
Conclusion: This track looks like CDDA with probability 100%
 
Exact Audio Copy V1.0 beta 3 from 29. August 2011

Отчёт EAC об извлечении, выполненном 9. мая 2013, 23:28

Yello / Yello By Yello - The Anthology (CD3 - The Singles Collection 1980 - 2010)

Дисковод: HP DVD Writer 1070d Adapter: 3 ID: 1

Режим чтения : Достоверность
Использование точного потока : Да
Отключение кэша аудио : Да
Использование указателей C2 : Нет

Коррекция смещения при чтении : 6
Способность читать области Lead-in и Lead-out : Нет
Заполнение пропущенных сэмплов тишиной : Да
Удаление блоков с тишиной в начале и конце : Нет
При вычислениях CRC использовались нулевые сэмплы : Да
Интерфейс : Встроенный Win32-интерфейс для Win NT/2000

Выходной формат : Пользовательский кодировщик
Выбранный битрейт : 896 kBit/s
Качество : Высокий
Добавление ID3-тега : Нет
Утилита сжатия : C:\Program Files (x86)\Exact Audio Copy\FLAC\FLAC.EXE
Дополнительные параметры : -8 -V -T "ARTIST=%artist%" -T "TITLE=%title%" -T "ALBUM=%albumtitle%" -T "DATE=%year%" -T "TRACKNUMBER=%tracknr%" -T "GENRE=%genre%" -T "COMMENT=EAC FLAC -8"

TOC извлечённого CD

Трек | Старт | Длительность | Начальный сектор | Конечный сектор
---------------------------------------------------------------------
1 | 0:00.00 | 3:09.37 | 0 | 14211
2 | 3:09.37 | 3:34.23 | 14212 | 30284
3 | 6:43.60 | 3:20.20 | 30285 | 45304
4 | 10:04.05 | 3:52.72 | 45305 | 62776
5 | 13:57.02 | 3:07.08 | 62777 | 76809
6 | 17:04.10 | 3:06.72 | 76810 | 90831
7 | 20:11.07 | 2:55.63 | 90832 | 104019
8 | 23:06.70 | 3:36.10 | 104020 | 120229
9 | 26:43.05 | 2:32.67 | 120230 | 131696
10 | 29:15.72 | 2:40.63 | 131697 | 143759
11 | 31:56.60 | 4:03.22 | 143760 | 162006
12 | 36:00.07 | 3:40.43 | 162007 | 178549
13 | 39:40.50 | 4:15.10 | 178550 | 197684
14 | 43:55.60 | 3:38.42 | 197685 | 214076
15 | 47:34.27 | 4:20.68 | 214077 | 233644
16 | 51:55.20 | 4:20.03 | 233645 | 253147
17 | 56:15.23 | 3:42.42 | 253148 | 269839
18 | 59:57.65 | 3:16.00 | 269840 | 284539
19 | 63:13.65 | 3:52.63 | 284540 | 302002
20 | 67:06.53 | 3:42.27 | 302003 | 318679
21 | 70:49.05 | 4:21.24 | 318680 | 338278

Характеристики диапазона извлечения и сообщения об ошибках

Выбранный диапазон

Имя файла C:\Yello By Yello\Yello - Yello By Yello - The Anthology (CD3 - The Singles Collection 1980 - 2010).wav

Пиковый уровень 96.6 %
Скорость извлечения 0.7 X
Качество диапазона 99.6 %
CRC теста 53BBE456
CRC копии 53BBE456
Копирование... OK

Ошибок не произошло

AccurateRip: сводка
Трек 1 : извлечено точно (доверие 10) [3225F43C] (AR v2)
Трек 2 : извлечено точно (доверие 9) [8650A449] (AR v2)
Трек 3 : извлечено точно (доверие 9) [FC2B4A42] (AR v2)
Трек 4 : извлечено точно (доверие 9) [F22D5E21] (AR v2)
Трек 5 : извлечено точно (доверие 9) [58824A6B] (AR v2)
Трек 6 : извлечено точно (доверие 9) [BE50DCCA] (AR v2)
Трек 7 : извлечено точно (доверие 9) [339D63B0] (AR v2)
Трек 8 : извлечено точно (доверие 9) [BC14FCEB] (AR v2)
Трек 9 : извлечено точно (доверие 9) [FC0BE628] (AR v2)
Трек 10 : извлечено точно (доверие 9) [50437453] (AR v2)
Трек 11 : извлечено точно (доверие 9) [0C95BB20] (AR v2)
Трек 12 : извлечено точно (доверие 9) [FFE864E5] (AR v2)
Трек 13 : извлечено точно (доверие 9) [4D59D97B] (AR v2)
Трек 14 : извлечено точно (доверие 9) [F9143D99] (AR v2)
Трек 15 : извлечено точно (доверие 9) [CA46EC85] (AR v2)
Трек 16 : извлечено точно (доверие 9) [746E27E1] (AR v2)
Трек 17 : извлечено точно (доверие 9) [0AA0FB9C] (AR v2)
Трек 18 : извлечено точно (доверие 9) [B4940B06] (AR v2)
Трек 19 : извлечено точно (доверие 9) [41846B67] (AR v2)
Трек 20 : извлечено точно (доверие 9) [C34FCE42] (AR v2)
Трек 21 : извлечено точно (доверие 10) [89FA65FB] (AR v2)
Все треки извлечены точно

Конец отчёта

==== Контрольная сумма отчёта 885233F77B8EC8F288296381340EE1D6E6872CB0BD7642DE1E5900E79FBFFEBC ====
 
REM GENRE Electronic
REM DATE 2010
REM DISCID 3B119E15
REM COMMENT "ExactAudioCopy v1.0b3"
PERFORMER "Yello"
TITLE "Yello By Yello - The Anthology (CD3 - The Singles Collection 1980 - 2010)"
FILE "Yello - Yello By Yello - The Anthology (CD3 - The Singles Collection 1980 - 2010).flac" WAVE
TRACK 01 AUDIO
TITLE "Vicious Games 2010 (feat. Heidi Happy)"
PERFORMER "Yello"
FLAGS DCP
INDEX 01 00:00:00
TRACK 02 AUDIO
TITLE "Tremendous Pain"
PERFORMER "Yello"
FLAGS DCP
INDEX 00 03:07:57
INDEX 01 03:09:37
TRACK 03 AUDIO
TITLE "The Race"
PERFORMER "Yello"
FLAGS DCP
INDEX 00 06:42:06
INDEX 01 06:43:60
TRACK 04 AUDIO
TITLE "To The Sea (feat. Stina Nordenstam)"
PERFORMER "Yello"
FLAGS DCP
INDEX 00 10:02:25
INDEX 01 10:04:05
TRACK 05 AUDIO
TITLE "Planet Dada (co-produced by Hakan Lidbo)"
PERFORMER "Yello"
FLAGS DCP
INDEX 00 13:55:22
INDEX 01 13:57:02
TRACK 06 AUDIO
TITLE "Oh Yeah"
PERFORMER "Yello"
FLAGS DCP
INDEX 00 17:02:30
INDEX 01 17:04:10
TRACK 07 AUDIO
TITLE "The Expert"
PERFORMER "Yello"
FLAGS DCP
INDEX 00 20:09:28
INDEX 01 20:11:07
TRACK 08 AUDIO
TITLE "Bimbo"
PERFORMER "Yello"
FLAGS DCP
INDEX 00 23:05:15
INDEX 01 23:06:70
TRACK 09 AUDIO
TITLE "Bostich (Reflected)"
PERFORMER "Yello"
FLAGS DCP
INDEX 00 26:41:25
INDEX 01 26:43:05
TRACK 10 AUDIO
TITLE "How How"
PERFORMER "Yello"
FLAGS DCP
INDEX 00 29:14:17
INDEX 01 29:15:72
TRACK 11 AUDIO
TITLE "She's Got A Gun (Live at the Palladium NY 1985)"
PERFORMER "Yello"
FLAGS DCP
INDEX 00 31:55:30
INDEX 01 31:56:60
TRACK 12 AUDIO
TITLE "Part Love"
PERFORMER "Yello"
FLAGS DCP
INDEX 00 35:58:27
INDEX 01 36:00:07
TRACK 13 AUDIO
TITLE "Drive,Driven"
PERFORMER "Yello"
FLAGS DCP
INDEX 00 39:38:70
INDEX 01 39:40:50
TRACK 14 AUDIO
TITLE "Rubberbandman"
PERFORMER "Yello"
FLAGS DCP
INDEX 00 43:54:05
INDEX 01 43:55:60
TRACK 15 AUDIO
TITLE "Goldrush"
PERFORMER "Yello"
FLAGS DCP
INDEX 00 47:32:47
INDEX 01 47:34:27
TRACK 16 AUDIO
TITLE "Lost Again"
PERFORMER "Yello"
FLAGS DCP
INDEX 00 51:53:20
INDEX 01 51:55:20
TRACK 17 AUDIO
TITLE "Who's Gone"
PERFORMER "Yello"
FLAGS DCP
INDEX 00 56:13:44
INDEX 01 56:15:23
TRACK 18 AUDIO
TITLE "Squeeze Please"
PERFORMER "Yello"
FLAGS DCP
INDEX 00 59:56:11
INDEX 01 59:57:65
TRACK 19 AUDIO
TITLE "Of Course I'm Lying"
PERFORMER "Yello"
FLAGS DCP
INDEX 00 63:12:11
INDEX 01 63:13:65
TRACK 20 AUDIO
TITLE "Desire"
PERFORMER "Yello"
FLAGS DCP
INDEX 00 67:04:74
INDEX 01 67:06:53
TRACK 21 AUDIO
TITLE "The Rhythm Divine (feat. Shirley Bassey)"
PERFORMER "Yello"
FLAGS DCP
INDEX 00 70:47:26
INDEX 01 70:49:05
info [Профиль]  [ЛС] 

post 10-Май-2013 16:53 (спустя 1 час 42 минуты) [-]0[+]

Топик был перенесен из форума Анонсы в форум Traditional Electronic, Ambient, Experimental (lossless)

The Buzzhorn
 

solo forever

Пол: Пол:Муж

Стаж: 12 лет

Сообщений: 5

Россия
Рейтинг

post 03-Фев-2014 16:16 (спустя 8 месяцев 24 дня) [-]0[+]

[Цитировать] 

классика электронной музыки

_________________
Лучше с разумом быть несчастным, чем без разума - счастливым. /Эпикур/

Прежде всего меня приводит в ужас и смущение то безнадежное одиночество, на которое обрекает меня моя философская система. /Д. Юм/

Не ищи идеал, найди такого же сумасшедшего, как ты сам.
/Просто мудрая мысль/
info [Профиль]  [ЛС] 
Показать сообщения:    
Ответить на тему

Текущее время: 22-Май 23:34

Часовой пояс: GMT + 4



Вы не можете начинать темы
Вы не можете отвечать на сообщения
Вы не можете редактировать свои сообщения
Вы не можете удалять свои сообщения
Вы не можете голосовать в опросах
Вы не можете прикреплять файлы к сообщениям
Вы не можете скачивать файлы