Ошибка

(Hard Rock) Royal Republic - Save The Nation - 2012, FLAC (tracks+.cue), lossless

Ответить на тему
 
Автор Сообщение

The Royal

Пол: Пол:Муж

Стаж: 10 лет

Сообщений: 673

Россия
Рейтинг

post 27-Авг-2012 17:50 0[+]

[Цитировать] 

pic="http://s002.youpic.su/pictures/1346184000/9134c0f92307c9995f37dac3f0a5a9dc.jpg"
Royal Republic - Save The Nation

Жанр: Hard Rock
Год издания данного носителя: 2012
Страна-производитель носителя: Sweden
Аудио кодек: FLAC
Тип рипа: tracks+.cue
Битрейт аудио: lossless
Продолжительность: 00:37:04
Полиграфия: Отсутствует
Треклист:
01. Save The Nation (3:02)
02. You Ain't Nobody ('Til Somebody Hates You) (3:01)
03. Be My Baby (2:38)
04. Everybody Wants To Be An Astronaut (3:04)
05. Make Love Not War (If You Have To Make War - Be Sure To Make Time To Make Love In Between) (2:28)
06. Strangers Friends Lovers Strangers (2:20)
07. Addictive (3:26)
08. Molotov (2:05)
09. Punch Drunk Love (1:51)
10. Sailing Man (3:47)
11. Let Your Hair Down (2:32)
12. Revolution (2:11)
13. Vicious (1:34)
14. I Don't Wanna Go Out (2:11)
15. Untitled (Unlisted Bonus Track) (0:54)
Exact Audio Copy V1.0 beta 3 from 29. August 2011  

EAC extraction logfile from 25. August 2012, 22:44

Royal Republic / Save The Nation

Used drive : HL-DT-STDVDRAM GH24NS70 Adapter: 0 ID: 0

Read mode : Secure
Utilize accurate stream : Yes
Defeat audio cache : Yes
Make use of C2 pointers : No

Read offset correction : 667
Overread into Lead-In and Lead-Out : No
Fill up missing offset samples with silence : Yes
Delete leading and trailing silent blocks : No
Null samples used in CRC calculations : Yes
Used interface : Native Win32 interface for Win NT & 2000
Gap handling : Appended to previous track

Used output format : User Defined Encoder
Selected bitrate : 1024 kBit/s
Quality : High
Add ID3 tag : Yes
Command line compressor : C:Program Files (x86)Exact Audio CopyFlacflac.exe
Additional command line options : -8 -V -T "ARTIST=%artist%" -T "TITLE=%title%" -T "ALBUM=%albumtitle%" -T "DATE=%year%" -T "TRACKNUMBER=%tracknr%" -T "GENRE=%genre%" -T "PERFORMER=%albuminterpret%" -T "COMPOSER=%composer%" %haslyrics%--tag-from-file=LYRICS="%lyricsfile%"%haslyrics% -T "ALBUMARTIST=%albumartist%" -T "DISCNUMBER=%cdnumber%" -T "TOTALDISCS=%totalcds%" -T "TOTALTRACKS=%numtracks%" -T "COMMENT=%comment%" %source% -o %dest%

TOC of the extracted CD

Track | Start | Length | Start sector | End sector
---------------------------------------------------------
1 | 0:00.00 | 3:01.40 | 0 | 13614
2 | 3:01.40 | 3:00.45 | 13615 | 27159
3 | 6:02.10 | 2:38.29 | 27160 | 39038
4 | 8:40.39 | 3:04.26 | 39039 | 52864
5 | 11:44.65 | 2:27.69 | 52865 | 63958
6 | 14:12.59 | 2:20.21 | 63959 | 74479
7 | 16:33.05 | 3:25.59 | 74480 | 89913
8 | 19:58.64 | 2:04.63 | 89914 | 99276
9 | 22:03.52 | 1:51.26 | 99277 | 107627
10 | 23:55.03 | 3:47.35 | 107628 | 124687
11 | 27:42.38 | 2:31.43 | 124688 | 136055
12 | 30:14.06 | 2:10.68 | 136056 | 145873
13 | 32:24.74 | 1:34.19 | 145874 | 152942
14 | 33:59.18 | 2:11.37 | 152943 | 162804
15 | 36:10.55 | 0:54.08 | 162805 | 166862

Track 1

Filename E:EAC RipsRoyal Republic - Save The Nation (2012) [FLAC]\01. Save The Nation.wav

Pre-gap length 0:00:02.00

Peak level 100.0 %
Extraction speed 0.9 X
Track quality 100.0 %
Test CRC FF336CAB
Copy CRC FF336CAB
Track not present in AccurateRip database
Copy OK

Track 2

Filename E:EAC RipsRoyal Republic - Save The Nation (2012) [FLAC]\02. You Ain't Nobody ('Til Somebody Hates You).wav

Peak level 100.0 %
Extraction speed 0.9 X
Track quality 99.9 %
Test CRC 37A4F7D6
Copy CRC 37A4F7D6
Track not present in AccurateRip database
Copy OK

Track 3

Filename E:EAC RipsRoyal Republic - Save The Nation (2012) [FLAC]\03. Be My Baby.wav

Pre-gap length 0:00:00.01

Peak level 100.0 %
Extraction speed 0.9 X
Track quality 99.9 %
Test CRC 0DFC5816
Copy CRC 0DFC5816
Track not present in AccurateRip database
Copy OK

Track 4

Filename E:EAC RipsRoyal Republic - Save The Nation (2012) [FLAC]\04. Everybody Wants To Be An Astronaut.wav

Pre-gap length 0:00:01.07

Peak level 100.0 %
Extraction speed 1.2 X
Track quality 100.0 %
Test CRC 2E192791
Copy CRC 2E192791
Track not present in AccurateRip database
Copy OK

Track 5

Filename E:EAC RipsRoyal Republic - Save The Nation (2012) [FLAC]\05. Make Love Not War (If You Have To Make War - Be Sure To Make Time To Make Love In Between).wav

Pre-gap length 0:00:00.01

Peak level 100.0 %
Extraction speed 1.2 X
Track quality 100.0 %
Test CRC AEB1691E
Copy CRC AEB1691E
Track not present in AccurateRip database
Copy OK

Track 6

Filename E:EAC RipsRoyal Republic - Save The Nation (2012) [FLAC]\06. Strangers Friends Lovers Strangers.wav

Pre-gap length 0:00:00.01

Peak level 100.0 %
Extraction speed 1.2 X
Track quality 100.0 %
Test CRC 3971946D
Copy CRC 3971946D
Track not present in AccurateRip database
Copy OK

Track 7

Filename E:EAC RipsRoyal Republic - Save The Nation (2012) [FLAC]\07. Addictive.wav

Pre-gap length 0:00:01.13

Peak level 100.0 %
Extraction speed 1.4 X
Track quality 100.0 %
Test CRC BEEA5C84
Copy CRC BEEA5C84
Track not present in AccurateRip database
Copy OK

Track 8

Filename E:EAC RipsRoyal Republic - Save The Nation (2012) [FLAC]\08. Molotov.wav

Pre-gap length 0:00:00.01

Peak level 100.0 %
Extraction speed 1.0 X
Track quality 99.9 %
Test CRC 8644E398
Copy CRC 8644E398
Track not present in AccurateRip database
Copy OK

Track 9

Filename E:EAC RipsRoyal Republic - Save The Nation (2012) [FLAC]\09. Punch Drunk Love.wav

Pre-gap length 0:00:00.01

Peak level 100.0 %
Extraction speed 1.3 X
Track quality 100.0 %
Test CRC FDEBC17B
Copy CRC FDEBC17B
Track not present in AccurateRip database
Copy OK

Track 10

Filename E:EAC RipsRoyal Republic - Save The Nation (2012) [FLAC]10. Sailing Man.wav

Pre-gap length 0:00:00.01

Peak level 100.0 %
Extraction speed 1.6 X
Track quality 100.0 %
Test CRC 48914A4B
Copy CRC 48914A4B
Track not present in AccurateRip database
Copy OK

Track 11

Filename E:EAC RipsRoyal Republic - Save The Nation (2012) [FLAC]11. Let Your Hair Down.wav

Pre-gap length 0:00:00.01

Peak level 100.0 %
Extraction speed 1.5 X
Track quality 100.0 %
Test CRC 9685CF20
Copy CRC 9685CF20
Track not present in AccurateRip database
Copy OK

Track 12

Filename E:EAC RipsRoyal Republic - Save The Nation (2012) [FLAC]12. Revolution.wav

Pre-gap length 0:00:00.01

Peak level 100.0 %
Extraction speed 1.5 X
Track quality 100.0 %
Test CRC 73818263
Copy CRC 73818263
Track not present in AccurateRip database
Copy OK

Track 13

Filename E:EAC RipsRoyal Republic - Save The Nation (2012) [FLAC]13. Vicious.wav

Pre-gap length 0:00:00.01

Peak level 100.0 %
Extraction speed 1.1 X
Track quality 99.8 %
Test CRC F7893FEF
Copy CRC F7893FEF
Track not present in AccurateRip database
Copy OK

Track 14

Filename E:EAC RipsRoyal Republic - Save The Nation (2012) [FLAC]14. I Don't Wanna Go Out.wav

Pre-gap length 0:00:00.01

Peak level 100.0 %
Extraction speed 1.3 X
Track quality 99.9 %
Test CRC FF3352CD
Copy CRC FF3352CD
Track not present in AccurateRip database
Copy OK

Track 15

Filename E:EAC RipsRoyal Republic - Save The Nation (2012) [FLAC]15. Untitled (Unlisted Bonus Track).wav

Pre-gap length 0:00:00.01

Peak level 100.0 %
Extraction speed 0.9 X
Track quality 99.8 %
Test CRC 5D0C8F78
Copy CRC 5D0C8F78
Track not present in AccurateRip database
Copy OK

None of the tracks are present in the AccurateRip database

No errors occurred

End of status report

---- CUETools DB Plugin V2.1.3

[CTDB TOCID: i9IfNwgjd.CC.HvtZ5tL14ldmok-] disk not present in database, Submit result: i9IfNwgjd.CC.HvtZ5tL14ldmok- has been uploaded

==== Log checksum 77FAC7C5BADAC6A25155BA6965FA00022851A65BD3AD0409091CCBE7BCAE056E ====
REM GENRE Rock  
REM DATE 2012
REM DISCID BE08B00F
REM COMMENT "ExactAudioCopy v1.0b3"
PERFORMER "Royal Republic"
TITLE "Save The Nation"
FILE "01. Save The Nation.wav" WAVE
TRACK 01 AUDIO
TITLE "Save The Nation"
PERFORMER "Royal Republic"
INDEX 01 00:00:00
FILE "02. You Ain't Nobody ('Til Somebody Hates You).wav" WAVE
TRACK 02 AUDIO
TITLE "You Ain't Nobody ('Til Somebody Hates You)"
PERFORMER "Royal Republic"
INDEX 01 00:00:00
TRACK 03 AUDIO
TITLE "Be My Baby"
PERFORMER "Royal Republic"
INDEX 00 03:00:44
FILE "03. Be My Baby.wav" WAVE
INDEX 01 00:00:00
TRACK 04 AUDIO
TITLE "Everybody Wants To Be An Astronaut"
PERFORMER "Royal Republic"
INDEX 00 02:37:22
FILE "04. Everybody Wants To Be An Astronaut.wav" WAVE
INDEX 01 00:00:00
TRACK 05 AUDIO
TITLE "Make Love Not War (If You Have To Make War - Be Sure To Make Time To Make Lov..."
PERFORMER "Royal Republic"
INDEX 00 03:04:25
FILE "05. Make Love Not War (If You Have To Make War - Be Sure To Make Time To Make Love In Between).wav" WAVE
INDEX 01 00:00:00
TRACK 06 AUDIO
TITLE "Strangers Friends Lovers Strangers"
PERFORMER "Royal Republic"
INDEX 00 02:27:68
FILE "06. Strangers Friends Lovers Strangers.wav" WAVE
INDEX 01 00:00:00
TRACK 07 AUDIO
TITLE "Addictive"
PERFORMER "Royal Republic"
INDEX 00 02:19:08
FILE "07. Addictive.wav" WAVE
INDEX 01 00:00:00
TRACK 08 AUDIO
TITLE "Molotov"
PERFORMER "Royal Republic"
INDEX 00 03:25:58
FILE "08. Molotov.wav" WAVE
INDEX 01 00:00:00
TRACK 09 AUDIO
TITLE "Punch Drunk Love"
PERFORMER "Royal Republic"
INDEX 00 02:04:62
FILE "09. Punch Drunk Love.wav" WAVE
INDEX 01 00:00:00
TRACK 10 AUDIO
TITLE "Sailing Man"
PERFORMER "Royal Republic"
INDEX 00 01:51:25
FILE "10. Sailing Man.wav" WAVE
INDEX 01 00:00:00
TRACK 11 AUDIO
TITLE "Let Your Hair Down"
PERFORMER "Royal Republic"
INDEX 00 03:47:34
FILE "11. Let Your Hair Down.wav" WAVE
INDEX 01 00:00:00
TRACK 12 AUDIO
TITLE "Revolution"
PERFORMER "Royal Republic"
INDEX 00 02:31:42
FILE "12. Revolution.wav" WAVE
INDEX 01 00:00:00
TRACK 13 AUDIO
TITLE "Vicious"
PERFORMER "Royal Republic"
INDEX 00 02:10:67
FILE "13. Vicious.wav" WAVE
INDEX 01 00:00:00
TRACK 14 AUDIO
TITLE "I Don't Wanna Go Out"
PERFORMER "Royal Republic"
INDEX 00 01:34:18
FILE "14. I Don't Wanna Go Out.wav" WAVE
INDEX 01 00:00:00
TRACK 15 AUDIO
TITLE "Untitled (Unlisted Bonus Track)"
PERFORMER "Royal Republic"
INDEX 00 02:11:36
FILE "15. Untitled (Unlisted Bonus Track).wav" WAVE
INDEX 01 00:00:00
info [Профиль]  [ЛС] 

The Royal

Пол: Пол:Муж

Стаж: 10 лет

Сообщений: 673

Россия
Рейтинг

post 14-Янв-2013 21:49 (спустя 4 месяца 18 дней) [-]0[+]

[Цитировать] 

Почему скачало так мало человек? Они же нереально круты!
          
info [Профиль]  [ЛС] 

stas495

Пол: Пол:Муж

Стаж: 10 лет

Сообщений: 87

Россия
Рейтинг

post 15-Янв-2013 10:18 (спустя 12 часов) [-]0[+]

[Цитировать] 

потому что на раздаче ни кого нету =\
info [Профиль]  [ЛС] 

The Royal

Пол: Пол:Муж

Стаж: 10 лет

Сообщений: 673

Россия
Рейтинг

post 15-Янв-2013 16:20 (спустя 6 часов) [-]0[+]

[Цитировать] 

stas495, ну извините. Не могу сидировать 24/7
info [Профиль]  [ЛС] 

oparin1954

Пол: Пол:Муж

Стаж: 6 лет 5 месяцев

Сообщений: 1

Рейтинг

post 10-Янв-2014 11:25 (спустя 11 месяцев 25 дней) [-]0[+]

[Цитировать] 

Спасибище!
Крутая музыка!
info [Профиль]  [ЛС] 
Показать сообщения:    
Ответить на тему

Текущее время: 08-Июл 05:07

Часовой пояс: GMT + 4



Вы не можете начинать темы
Вы не можете отвечать на сообщения
Вы не можете редактировать свои сообщения
Вы не можете удалять свои сообщения
Вы не можете голосовать в опросах
Вы не можете прикреплять файлы к сообщениям
Вы не можете скачивать файлы