Ошибка

(Thrash / Death / Modern Melodic Metal) Фактор Страха - Дискография - [2005 - 2010], FLAC (tracks+.cue)+covers, lossless

Ответить на тему
 
Автор Сообщение

Попрыгун

Пол: Пол:Муж

Стаж: 13 лет

Сообщений: 602

Рейтинг

post 29-Янв-2010 00:45 0[+]

[Цитировать] 

Фактор Страха
Жанр: Thrash / Death / Modern Melodic Metal
Происхождение исполнителя: Москва
Год издания данного носителя: 2005 - 2010
Страна-производитель носителя: Россия
Тип рипа: tracks+.cue
Тип релиза: tracks+.cue
Аудио кодек: FLAC
Битрейт аудио: lossless
Продолжительность: 3:08:09
Полиграфия: присутствует
Источник: Original CD's

[URL=http://www.lastfm.ru/music/Фактор+Страха][/URL]

Треклист:


01. Разлетаясь в Пыль (5:21)
02. Выше сил (5:25)
03. Война (5:15)
04. Профессионал (3:54)
05. Бездна (5:23)
06. Свет кривых зеркал (4:58)
07. Солдат (5:14)
08. Ночь (4:48)
09. Стандарт криволинейных лиц (8:15)

Лейбл: CD-Maximum
Каталоговый номер: 0505-2282
Exact Audio Copy V0.99 prebeta 5 from 4. May 2009 

EAC extraction logfile from 30. July 2010, 16:35

Фактор Страха / Театр Военных Действий, Акт 1

Used drive : Optiarc DVD RW AD-7173S Adapter: 6 ID: 0

Read mode : Secure
Utilize accurate stream : Yes
Defeat audio cache : Yes
Make use of C2 pointers : No

Read offset correction : 48
Overread into Lead-In and Lead-Out : No
Fill up missing offset samples with silence : Yes
Delete leading and trailing silent blocks : No
Null samples used in CRC calculations : Yes
Used interface : Native Win32 interface for Win NT & 2000
Gap handling : Appended to previous track

Used output format : Internal WAV Routines
Sample format : 44.100 Hz; 16 Bit; Stereo

TOC of the extracted CD

Track | Start | Length | Start sector | End sector
---------------------------------------------------------
1 | 0:00.00 | 5:20.38 | 0 | 24037
2 | 5:20.38 | 5:24.64 | 24038 | 48401
3 | 10:45.27 | 5:14.39 | 48402 | 71990
4 | 15:59.66 | 3:53.43 | 71991 | 89508
5 | 19:53.34 | 5:22.66 | 89509 | 113724
6 | 25:16.25 | 4:58.06 | 113725 | 136080
7 | 30:14.31 | 5:14.16 | 136081 | 159646
8 | 35:28.47 | 4:48.01 | 159647 | 181247
9 | 40:16.48 | 8:15.10 | 181248 | 218382

Track 1

Filename D:\lossless\Театр Военных Действий, Акт 1\01 Фактор Страха - Разлетаясь в Пыль.wav

Pre-gap length 0:00:02.00

Peak level 100.0 %
Track quality 100.0 %
Test CRC 522B2795
Copy CRC 522B2795
Accurately ripped (confidence 6) [65CE109A]
Copy OK

Track 2

Filename D:\lossless\Театр Военных Действий, Акт 1\02 Фактор Страха - Выше сил.wav

Peak level 100.0 %
Track quality 100.0 %
Test CRC 7F4C9776
Copy CRC 7F4C9776
Accurately ripped (confidence 6) [8D3B5371]
Copy OK

Track 3

Filename D:\lossless\Театр Военных Действий, Акт 1\03 Фактор Страха - Война.wav

Peak level 100.0 %
Track quality 100.0 %
Test CRC 9E721BB8
Copy CRC 9E721BB8
Accurately ripped (confidence 6) [58D60B7F]
Copy OK

Track 4

Filename D:\lossless\Театр Военных Действий, Акт 1\04 Фактор Страха - Профессионал.wav

Peak level 100.0 %
Track quality 100.0 %
Test CRC 39CBF84B
Copy CRC 39CBF84B
Accurately ripped (confidence 6) [C3C3FBC9]
Copy OK

Track 5

Filename D:\lossless\Театр Военных Действий, Акт 1\05 Фактор Страха - Бездна.wav

Peak level 100.0 %
Track quality 100.0 %
Test CRC 73E4F203
Copy CRC 73E4F203
Accurately ripped (confidence 6) [DB64D53C]
Copy OK

Track 6

Filename D:\lossless\Театр Военных Действий, Акт 1\06 Фактор Страха - Свет кривых зеркал.wav

Peak level 100.0 %
Track quality 100.0 %
Test CRC 998841DB
Copy CRC 998841DB
Accurately ripped (confidence 6) [BDD666BD]
Copy OK

Track 7

Filename D:\lossless\Театр Военных Действий, Акт 1\07 Фактор Страха - Солдат.wav

Peak level 100.0 %
Track quality 100.0 %
Test CRC 76B16601
Copy CRC 76B16601
Accurately ripped (confidence 6) [C7FF34D4]
Copy OK

Track 8

Filename D:\lossless\Театр Военных Действий, Акт 1\08 Фактор Страха - Ночь.wav

Peak level 100.0 %
Track quality 100.0 %
Test CRC 215AFC59
Copy CRC 215AFC59
Accurately ripped (confidence 6) [AB07EE2D]
Copy OK

Track 9

Filename D:\lossless\Театр Военных Действий, Акт 1\09 Фактор Страха - Стандарт криволинейных лиц.wav

Peak level 100.0 %
Track quality 99.9 %
Test CRC 9D5B7ACA
Copy CRC 9D5B7ACA
Accurately ripped (confidence 6) [1E447894]
Copy OK

All tracks accurately ripped

No errors occurred

End of status report
REM GENRE "Thrash / Modern Melodic Metal" 
REM DATE 2005
REM DISCID 6E0B5F09
REM COMMENT "ExactAudioCopy v0.99pb5"
PERFORMER "Фактор Страха"
TITLE "Театр Военных Действий, Акт 1"
FILE "01 Фактор Страха - Разлетаясь в Пыль.wav" WAVE
TRACK 01 AUDIO
TITLE "Разлетаясь в Пыль"
PERFORMER "Фактор Страха"
INDEX 01 00:00:00
FILE "02 Фактор Страха - Выше сил.wav" WAVE
TRACK 02 AUDIO
TITLE "Выше сил"
PERFORMER "Фактор Страха"
INDEX 01 00:00:00
FILE "03 Фактор Страха - Война.wav" WAVE
TRACK 03 AUDIO
TITLE "Война"
PERFORMER "Фактор Страха"
INDEX 01 00:00:00
FILE "04 Фактор Страха - Профессионал.wav" WAVE
TRACK 04 AUDIO
TITLE "Профессионал"
PERFORMER "Фактор Страха"
INDEX 01 00:00:00
FILE "05 Фактор Страха - Бездна.wav" WAVE
TRACK 05 AUDIO
TITLE "Бездна"
PERFORMER "Фактор Страха"
INDEX 01 00:00:00
FILE "06 Фактор Страха - Свет кривых зеркал.wav" WAVE
TRACK 06 AUDIO
TITLE "Свет кривых зеркал"
PERFORMER "Фактор Страха"
INDEX 01 00:00:00
FILE "07 Фактор Страха - Солдат.wav" WAVE
TRACK 07 AUDIO
TITLE "Солдат"
PERFORMER "Фактор Страха"
INDEX 01 00:00:00
FILE "08 Фактор Страха - Ночь.wav" WAVE
TRACK 08 AUDIO
TITLE "Ночь"
PERFORMER "Фактор Страха"
INDEX 01 00:00:00
FILE "09 Фактор Страха - Стандарт криволинейных лиц.wav" WAVE
TRACK 09 AUDIO
TITLE "Стандарт криволинейных лиц"
PERFORMER "Фактор Страха"
INDEX 01 00:00:00


01. Когда ты будешь проклят (4:11)
02. Видеть и знать (3:45)
03. Страх (5:54)
04. Изгнанный (4:52)
05. Быть собой (5:16)
06. Слова (4:30)
07. Ангел ждёт (4:39)
08. Террор слов (4:43)
09. Бег (4:18)
10. Мир без правил (4:48)
11. P.S. (3:21)

Лейбл: CD-Maximum
Каталоговый номер: 1006-2621
Exact Audio Copy V0.99 prebeta 5 from 4. May 2009 

EAC extraction logfile from 30. July 2010, 16:57

Фактор Страха / Театр Военных Действий, Акт 2

Used drive : Optiarc DVD RW AD-7173S Adapter: 6 ID: 0

Read mode : Secure
Utilize accurate stream : Yes
Defeat audio cache : Yes
Make use of C2 pointers : No

Read offset correction : 48
Overread into Lead-In and Lead-Out : No
Fill up missing offset samples with silence : Yes
Delete leading and trailing silent blocks : No
Null samples used in CRC calculations : Yes
Used interface : Native Win32 interface for Win NT & 2000
Gap handling : Appended to previous track

Used output format : Internal WAV Routines
Sample format : 44.100 Hz; 16 Bit; Stereo

TOC of the extracted CD

Track | Start | Length | Start sector | End sector
---------------------------------------------------------
1 | 0:00.00 | 4:11.22 | 0 | 18846
2 | 4:11.22 | 3:45.31 | 18847 | 35752
3 | 7:56.53 | 5:54.02 | 35753 | 62304
4 | 13:50.55 | 4:52.14 | 62305 | 84218
5 | 18:42.69 | 5:16.17 | 84219 | 107935
6 | 23:59.11 | 4:29.39 | 107936 | 128149
7 | 28:28.50 | 4:39.18 | 128150 | 149092
8 | 33:07.68 | 4:43.34 | 149093 | 170351
9 | 37:51.27 | 4:17.47 | 170352 | 189673
10 | 42:08.74 | 4:48.36 | 189674 | 211309
11 | 46:57.35 | 3:20.47 | 211310 | 226356

Track 1

Filename D:\lossless\Театр Военных Действий, Акт 2\01 Фактор Страха - Когда ты будешь проклят.wav

Pre-gap length 0:00:02.00

Peak level 100.0 %
Track quality 100.0 %
Test CRC 7C2E48DE
Copy CRC 7C2E48DE
Accurately ripped (confidence 5) [50D1F66F]
Copy OK

Track 2

Filename D:\lossless\Театр Военных Действий, Акт 2\02 Фактор Страха - Видеть и знать.wav

Peak level 100.0 %
Track quality 100.0 %
Test CRC AB0CD9D0
Copy CRC AB0CD9D0
Accurately ripped (confidence 5) [325C34AA]
Copy OK

Track 3

Filename D:\lossless\Театр Военных Действий, Акт 2\03 Фактор Страха - Страх.wav

Peak level 100.0 %
Track quality 100.0 %
Test CRC 7AA771B0
Copy CRC 7AA771B0
Accurately ripped (confidence 5) [C318CD50]
Copy OK

Track 4

Filename D:\lossless\Театр Военных Действий, Акт 2\04 Фактор Страха - Изгнанный.wav

Peak level 100.0 %
Track quality 100.0 %
Test CRC F6BE44B3
Copy CRC F6BE44B3
Accurately ripped (confidence 5) [EF90BAD2]
Copy OK

Track 5

Filename D:\lossless\Театр Военных Действий, Акт 2\05 Фактор Страха - Быть собой.wav

Peak level 100.0 %
Track quality 100.0 %
Test CRC 7D117B55
Copy CRC 7D117B55
Accurately ripped (confidence 5) [F17C51E3]
Copy OK

Track 6

Filename D:\lossless\Театр Военных Действий, Акт 2\06 Фактор Страха - Слова.wav

Peak level 100.0 %
Track quality 100.0 %
Test CRC 1D5EB3A1
Copy CRC 1D5EB3A1
Accurately ripped (confidence 5) [674690B9]
Copy OK

Track 7

Filename D:\lossless\Театр Военных Действий, Акт 2\07 Фактор Страха - Ангел ждёт.wav

Peak level 100.0 %
Track quality 100.0 %
Test CRC 214F2814
Copy CRC 214F2814
Accurately ripped (confidence 5) [3550BDFB]
Copy OK

Track 8

Filename D:\lossless\Театр Военных Действий, Акт 2\08 Фактор Страха - Террор слов.wav

Peak level 100.0 %
Track quality 100.0 %
Test CRC 829AC6DA
Copy CRC 829AC6DA
Accurately ripped (confidence 5) [F47C90C4]
Copy OK

Track 9

Filename D:\lossless\Театр Военных Действий, Акт 2\09 Фактор Страха - Бег.wav

Peak level 100.0 %
Track quality 99.9 %
Test CRC 365AC881
Copy CRC 365AC881
Accurately ripped (confidence 5) [56791B97]
Copy OK

Track 10

Filename D:\lossless\Театр Военных Действий, Акт 2\10 Фактор Страха - Мир без правил.wav

Peak level 100.0 %
Track quality 100.0 %
Test CRC 7A80964A
Copy CRC 7A80964A
Accurately ripped (confidence 5) [82405DD2]
Copy OK

Track 11

Filename D:\lossless\Театр Военных Действий, Акт 2\11 Фактор Страха - P.S..wav

Peak level 100.0 %
Track quality 100.0 %
Test CRC 04BE4447
Copy CRC 04BE4447
Accurately ripped (confidence 5) [09B35CA6]
Copy OK

All tracks accurately ripped

No errors occurred

End of status report
REM GENRE "Thrash / Modern Melodic Metal" 
REM DATE 2006
REM DISCID 8E0BCA0B
REM COMMENT "ExactAudioCopy v0.99pb5"
PERFORMER "Фактор Страха"
TITLE "Театр Военных Действий, Акт 2"
FILE "01 Фактор Страха - Когда ты будешь проклят.wav" WAVE
TRACK 01 AUDIO
TITLE "Когда ты будешь проклят"
PERFORMER "Фактор Страха"
INDEX 01 00:00:00
FILE "02 Фактор Страха - Видеть и знать.wav" WAVE
TRACK 02 AUDIO
TITLE "Видеть и знать"
PERFORMER "Фактор Страха"
INDEX 01 00:00:00
FILE "03 Фактор Страха - Страх.wav" WAVE
TRACK 03 AUDIO
TITLE "Страх"
PERFORMER "Фактор Страха"
INDEX 01 00:00:00
FILE "04 Фактор Страха - Изгнанный.wav" WAVE
TRACK 04 AUDIO
TITLE "Изгнанный"
PERFORMER "Фактор Страха"
INDEX 01 00:00:00
FILE "05 Фактор Страха - Быть собой.wav" WAVE
TRACK 05 AUDIO
TITLE "Быть собой"
PERFORMER "Фактор Страха"
INDEX 01 00:00:00
FILE "06 Фактор Страха - Слова.wav" WAVE
TRACK 06 AUDIO
TITLE "Слова"
PERFORMER "Фактор Страха"
INDEX 01 00:00:00
FILE "07 Фактор Страха - Ангел ждёт.wav" WAVE
TRACK 07 AUDIO
TITLE "Ангел ждёт"
PERFORMER "Фактор Страха"
INDEX 01 00:00:00
FILE "08 Фактор Страха - Террор слов.wav" WAVE
TRACK 08 AUDIO
TITLE "Террор слов"
PERFORMER "Фактор Страха"
INDEX 01 00:00:00
FILE "09 Фактор Страха - Бег.wav" WAVE
TRACK 09 AUDIO
TITLE "Бег"
PERFORMER "Фактор Страха"
INDEX 01 00:00:00
FILE "10 Фактор Страха - Мир без правил.wav" WAVE
TRACK 10 AUDIO
TITLE "Мир без правил"
PERFORMER "Фактор Страха"
INDEX 01 00:00:00
FILE "11 Фактор Страха - P.S..wav" WAVE
TRACK 11 AUDIO
TITLE "P.S."
PERFORMER "Фактор Страха"
INDEX 01 00:00:00


01. Фактор Страха (4:52)
02. Город (4:05)
03. Риск (4:18)
04. Твой Идеальный Мир (4:02)
05. Не Суждено (4:21)
06. Свобода В Наказанье (3:34)
07. Живой (4:23)
08. Армагеддон (3:59)
09. Казнь (4:17)
10. Код Судьбы (4:18)

Лейбл: CD-Maximum
Каталоговый номер: 0208-2810
Exact Audio Copy V0.99 prebeta 5 from 4. May 2009 

EAC extraction logfile from 30. July 2010, 17:25

Фактор Страха / Твой Идеальный Мир

Used drive : Optiarc DVD RW AD-7173S Adapter: 6 ID: 0

Read mode : Secure
Utilize accurate stream : Yes
Defeat audio cache : Yes
Make use of C2 pointers : No

Read offset correction : 48
Overread into Lead-In and Lead-Out : No
Fill up missing offset samples with silence : Yes
Delete leading and trailing silent blocks : No
Null samples used in CRC calculations : Yes
Used interface : Native Win32 interface for Win NT & 2000
Gap handling : Appended to previous track

Used output format : Internal WAV Routines
Sample format : 44.100 Hz; 16 Bit; Stereo

TOC of the extracted CD

Track | Start | Length | Start sector | End sector
---------------------------------------------------------
1 | 0:00.00 | 4:51.57 | 0 | 21881
2 | 4:51.57 | 4:04.54 | 21882 | 40235
3 | 8:56.36 | 4:17.64 | 40236 | 59574
4 | 13:14.25 | 4:01.56 | 59575 | 77705
5 | 17:16.06 | 4:20.49 | 77706 | 97254
6 | 21:36.55 | 3:33.50 | 97255 | 113279
7 | 25:10.30 | 4:22.68 | 113280 | 132997
8 | 29:33.23 | 3:58.69 | 132998 | 150916
9 | 33:32.17 | 4:17.29 | 150917 | 170220
10 | 37:49.46 | 4:17.52 | 170221 | 189547

Track 1

Filename D:\lossless\Твой Идеальный Мир\01 Фактор Страха - Фактор Страха.wav

Pre-gap length 0:00:02.00

Peak level 100.0 %
Track quality 100.0 %
Test CRC 6208F01F
Copy CRC 6208F01F
Accurately ripped (confidence 3) [4AB20BE8]
Copy OK

Track 2

Filename D:\lossless\Твой Идеальный Мир\02 Фактор Страха - Город.wav

Peak level 100.0 %
Track quality 99.9 %
Test CRC 0FD39697
Copy CRC 0FD39697
Accurately ripped (confidence 3) [A6ABA8F2]
Copy OK

Track 3

Filename D:\lossless\Твой Идеальный Мир\03 Фактор Страха - Риск.wav

Peak level 98.3 %
Track quality 100.0 %
Test CRC 25DB08B5
Copy CRC 25DB08B5
Accurately ripped (confidence 3) [8E791996]
Copy OK

Track 4

Filename D:\lossless\Твой Идеальный Мир\04 Фактор Страха - Твой Идеальный Мир.wav

Peak level 99.9 %
Track quality 99.9 %
Test CRC 0045BC8C
Copy CRC 0045BC8C
Accurately ripped (confidence 3) [75AF3D63]
Copy OK

Track 5

Filename D:\lossless\Твой Идеальный Мир\05 Фактор Страха - Не Суждено.wav

Peak level 99.8 %
Track quality 99.9 %
Test CRC E9FCD8BB
Copy CRC E9FCD8BB
Accurately ripped (confidence 3) [52B31F82]
Copy OK

Track 6

Filename D:\lossless\Твой Идеальный Мир\06 Фактор Страха - Свобода В Наказанье.wav

Peak level 100.0 %
Track quality 100.0 %
Test CRC C0190FA2
Copy CRC C0190FA2
Accurately ripped (confidence 3) [51E912F2]
Copy OK

Track 7

Filename D:\lossless\Твой Идеальный Мир\07 Фактор Страха - Живой.wav

Peak level 100.0 %
Track quality 99.8 %
Test CRC 889C30DE
Copy CRC 889C30DE
Accurately ripped (confidence 3) [D81AF05C]
Copy OK

Track 8

Filename D:\lossless\Твой Идеальный Мир\08 Фактор Страха - Армагеддон.wav

Peak level 98.4 %
Track quality 100.0 %
Test CRC E8220FEA
Copy CRC E8220FEA
Accurately ripped (confidence 3) [AC2A2685]
Copy OK

Track 9

Filename D:\lossless\Твой Идеальный Мир\09 Фактор Страха - Казнь.wav

Peak level 98.7 %
Track quality 100.0 %
Test CRC 496E305D
Copy CRC 496E305D
Accurately ripped (confidence 3) [CC13BD09]
Copy OK

Track 10

Filename D:\lossless\Твой Идеальный Мир\10 Фактор Страха - Код Судьбы.wav

Peak level 100.0 %
Track quality 99.9 %
Test CRC 4F884E5F
Copy CRC 4F884E5F
Accurately ripped (confidence 3) [F35943F9]
Copy OK

All tracks accurately ripped

No errors occurred

End of status report
REM GENRE "Thrash / Modern Melodic Metal" 
REM DATE 2008
REM DISCID 8609DF0A
REM COMMENT "ExactAudioCopy v0.99pb5"
PERFORMER "Фактор Страха"
TITLE "Твой Идеальный Мир"
FILE "01 Фактор Страха - Фактор Страха.wav" WAVE
TRACK 01 AUDIO
TITLE "Фактор Страха"
PERFORMER "Фактор Страха"
INDEX 01 00:00:00
FILE "02 Фактор Страха - Город.wav" WAVE
TRACK 02 AUDIO
TITLE "Город"
PERFORMER "Фактор Страха"
INDEX 01 00:00:00
FILE "03 Фактор Страха - Риск.wav" WAVE
TRACK 03 AUDIO
TITLE "Риск"
PERFORMER "Фактор Страха"
INDEX 01 00:00:00
FILE "04 Фактор Страха - Твой Идеальный Мир.wav" WAVE
TRACK 04 AUDIO
TITLE "Твой Идеальный Мир"
PERFORMER "Фактор Страха"
INDEX 01 00:00:00
FILE "05 Фактор Страха - Не Суждено.wav" WAVE
TRACK 05 AUDIO
TITLE "Не Суждено"
PERFORMER "Фактор Страха"
INDEX 01 00:00:00
FILE "06 Фактор Страха - Свобода В Наказанье.wav" WAVE
TRACK 06 AUDIO
TITLE "Свобода В Наказанье"
PERFORMER "Фактор Страха"
INDEX 01 00:00:00
FILE "07 Фактор Страха - Живой.wav" WAVE
TRACK 07 AUDIO
TITLE "Живой"
PERFORMER "Фактор Страха"
INDEX 01 00:00:00
FILE "08 Фактор Страха - Армагеддон.wav" WAVE
TRACK 08 AUDIO
TITLE "Армагеддон"
PERFORMER "Фактор Страха"
INDEX 01 00:00:00
FILE "09 Фактор Страха - Казнь.wav" WAVE
TRACK 09 AUDIO
TITLE "Казнь"
PERFORMER "Фактор Страха"
INDEX 01 00:00:00
FILE "10 Фактор Страха - Код Судьбы.wav" WAVE
TRACK 10 AUDIO
TITLE "Код Судьбы"
PERFORMER "Фактор Страха"
INDEX 01 00:00:00


01. Ты просто жил (4:03)
02. Мёртвые Сны (3:32)
03. Жизнь не вечна (3:53)
04. Поколение (4:06)
05. Игла (3:45)
06. Game Over (3:38)
07. Потерянный Рай (4:30)
08. Стая (4:10)
09. Дорога в никуда (5:35)
10. Beyond The Strength (5:16)
11. Cracking Into Dust (4:44)

Лейбл: CD-Maximum
Каталоговый номер: 1209-2959
Exact Audio Copy V0.99 prebeta 5 from 4. May 2009 

EAC extraction logfile from 30. July 2010, 17:46

Фактор Страха / Мёртвые Сны

Used drive : Optiarc DVD RW AD-7173S Adapter: 6 ID: 0

Read mode : Secure
Utilize accurate stream : Yes
Defeat audio cache : Yes
Make use of C2 pointers : No

Read offset correction : 48
Overread into Lead-In and Lead-Out : No
Fill up missing offset samples with silence : Yes
Delete leading and trailing silent blocks : No
Null samples used in CRC calculations : Yes
Used interface : Native Win32 interface for Win NT & 2000
Gap handling : Appended to previous track

Used output format : Internal WAV Routines
Sample format : 44.100 Hz; 16 Bit; Stereo

TOC of the extracted CD

Track | Start | Length | Start sector | End sector
---------------------------------------------------------
1 | 0:00.00 | 4:02.70 | 0 | 18219
2 | 4:02.70 | 3:31.57 | 18220 | 34101
3 | 7:34.52 | 3:52.53 | 34102 | 51554
4 | 11:27.30 | 4:05.38 | 51555 | 69967
5 | 15:32.68 | 3:45.15 | 69968 | 86857
6 | 19:18.08 | 3:37.55 | 86858 | 103187
7 | 22:55.63 | 4:30.13 | 103188 | 123450
8 | 27:26.01 | 4:10.04 | 123451 | 142204
9 | 31:36.05 | 5:34.72 | 142205 | 167326
10 | 37:11.02 | 5:16.23 | 167327 | 191049
11 | 42:27.25 | 4:44.06 | 191050 | 212355

Track 1

Filename D:\lossless\Мёртвые Сны\01 Фактор Страха - Ты просто жил.wav

Pre-gap length 0:00:02.00

Peak level 99.9 %
Track quality 100.0 %
Test CRC F2AED2F1
Copy CRC F2AED2F1
Accurately ripped (confidence 1) [A4F47661]
Copy OK

Track 2

Filename D:\lossless\Мёртвые Сны\02 Фактор Страха - Мёртвые Сны.wav

Peak level 99.9 %
Track quality 100.0 %
Test CRC D7B66736
Copy CRC D7B66736
Accurately ripped (confidence 1) [B028B4A2]
Copy OK

Track 3

Filename D:\lossless\Мёртвые Сны\03 Фактор Страха - Жизнь не вечна.wav

Peak level 99.9 %
Track quality 100.0 %
Test CRC 6275A68E
Copy CRC 6275A68E
Accurately ripped (confidence 1) [92A8992E]
Copy OK

Track 4

Filename D:\lossless\Мёртвые Сны\04 Фактор Страха - Поколение.wav

Peak level 99.9 %
Track quality 100.0 %
Test CRC BB892CEB
Copy CRC BB892CEB
Accurately ripped (confidence 1) [61D1BE36]
Copy OK

Track 5

Filename D:\lossless\Мёртвые Сны\05 Фактор Страха - Игла.wav

Peak level 99.9 %
Track quality 100.0 %
Test CRC A94D490D
Copy CRC A94D490D
Accurately ripped (confidence 1) [D98D0B97]
Copy OK

Track 6

Filename D:\lossless\Мёртвые Сны\06 Фактор Страха - Game Over.wav

Peak level 99.9 %
Track quality 100.0 %
Test CRC 53C98FB6
Copy CRC 53C98FB6
Accurately ripped (confidence 1) [E45DFD9F]
Copy OK

Track 7

Filename D:\lossless\Мёртвые Сны\07 Фактор Страха - Потерянный Рай.wav

Peak level 99.9 %
Track quality 100.0 %
Test CRC 522EC4D6
Copy CRC 522EC4D6
Accurately ripped (confidence 1) [5C59CF10]
Copy OK

Track 8

Filename D:\lossless\Мёртвые Сны\08 Фактор Страха - Стая.wav

Peak level 99.9 %
Track quality 99.9 %
Test CRC F0C16290
Copy CRC F0C16290
Accurately ripped (confidence 1) [FD9D9DF6]
Copy OK

Track 9

Filename D:\lossless\Мёртвые Сны\09 Фактор Страха - Дорога в никуда.wav

Peak level 99.9 %
Track quality 100.0 %
Test CRC 61DB64E4
Copy CRC 61DB64E4
Accurately ripped (confidence 1) [CBB809E5]
Copy OK

Track 10

Filename D:\lossless\Мёртвые Сны\10 Фактор Страха - Beyond The Strength.wav

Peak level 99.8 %
Track quality 100.0 %
Test CRC 9951FFE3
Copy CRC 9951FFE3
Accurately ripped (confidence 1) [58211DF3]
Copy OK

Track 11

Filename D:\lossless\Мёртвые Сны\11 Фактор Страха - Cracking Into Dust.wav

Peak level 99.9 %
Track quality 100.0 %
Test CRC A5BBE876
Copy CRC A5BBE876
Accurately ripped (confidence 1) [6D38830D]
Copy OK

All tracks accurately ripped

No errors occurred

End of status report
REM GENRE "Thrash / Modern Melodic Metal" 
REM DATE 2010
REM DISCID A70B0F0B
REM COMMENT "ExactAudioCopy v0.99pb5"
PERFORMER "Фактор Страха"
TITLE "Мёртвые Сны"
FILE "01 Фактор Страха - Ты просто жил.wav" WAVE
TRACK 01 AUDIO
TITLE "Ты просто жил"
PERFORMER "Фактор Страха"
INDEX 01 00:00:00
FILE "02 Фактор Страха - Мёртвые Сны.wav" WAVE
TRACK 02 AUDIO
TITLE "Мёртвые Сны"
PERFORMER "Фактор Страха"
INDEX 01 00:00:00
FILE "03 Фактор Страха - Жизнь не вечна.wav" WAVE
TRACK 03 AUDIO
TITLE "Жизнь не вечна"
PERFORMER "Фактор Страха"
INDEX 01 00:00:00
FILE "04 Фактор Страха - Поколение.wav" WAVE
TRACK 04 AUDIO
TITLE "Поколение"
PERFORMER "Фактор Страха"
INDEX 01 00:00:00
FILE "05 Фактор Страха - Игла.wav" WAVE
TRACK 05 AUDIO
TITLE "Игла"
PERFORMER "Фактор Страха"
INDEX 01 00:00:00
FILE "06 Фактор Страха - Game Over.wav" WAVE
TRACK 06 AUDIO
TITLE "Game Over"
PERFORMER "Фактор Страха"
INDEX 01 00:00:00
FILE "07 Фактор Страха - Потерянный Рай.wav" WAVE
TRACK 07 AUDIO
TITLE "Потерянный Рай"
PERFORMER "Фактор Страха"
INDEX 01 00:00:00
FILE "08 Фактор Страха - Стая.wav" WAVE
TRACK 08 AUDIO
TITLE "Стая"
PERFORMER "Фактор Страха"
INDEX 01 00:00:00
FILE "09 Фактор Страха - Дорога в никуда.wav" WAVE
TRACK 09 AUDIO
TITLE "Дорога в никуда"
PERFORMER "Фактор Страха"
INDEX 01 00:00:00
FILE "10 Фактор Страха - Beyond The Strength.wav" WAVE
TRACK 10 AUDIO
TITLE "Beyond The Strength"
PERFORMER "Фактор Страха"
INDEX 01 00:00:00
FILE "11 Фактор Страха - Cracking Into Dust.wav" WAVE
TRACK 11 AUDIO
TITLE "Cracking Into Dust"
PERFORMER "Фактор Страха"
INDEX 01 00:00:00
info [Профиль]  [ЛС] 

rughost

Стаж: 9 лет 8 месяцев

Сообщений: 22

Россия
Рейтинг

post 10-Ноя-2012 18:02 (спустя 2 года 9 месяцев) [-]0[+]

[Цитировать] 

Спасибо за раздачу, классная группа Улыбаюсь
info [Профиль]  [ЛС] 

stepfast

Пол: Пол:Муж

Стаж: 8 лет 6 месяцев

Сообщений: 27

Россия
Рейтинг

post 09-Янв-2014 11:10 (спустя 1 год 1 месяц) [-]0[+]

[Цитировать] 

Встаньте на раздачу плиз!
info [Профиль]  [ЛС] 

serg2772

Пол: Пол:Муж

Стаж: 12 лет

Сообщений: 4

Россия
Рейтинг

post 06-Янв-2015 23:41 (спустя 11 месяцев 28 дней) [-]0[+]

[Цитировать] 

Админы, заблокируйте, плиз, на раздаче не бывает никого
info [Профиль]  [ЛС] 
Показать сообщения:    
Ответить на тему

Текущее время: 03-Июл 08:57

Часовой пояс: GMT + 4



Вы не можете начинать темы
Вы не можете отвечать на сообщения
Вы не можете редактировать свои сообщения
Вы не можете удалять свои сообщения
Вы не можете голосовать в опросах
Вы не можете прикреплять файлы к сообщениям
Вы не можете скачивать файлы