Ошибка

(Score) Assassin's Creed IV Black Flag (by Brian Tyler) - 2013, FLAC (tracks), lossless

Ответить на тему
 
Автор Сообщение

Levittra_Hazard

Пол: Пол:Жен

Стаж: 9 лет 5 месяцев

Сообщений: 8

Россия
Рейтинг

post 23-Ноя-2013 15:26 1[+]

[Цитировать] 

Assassin's Creed IV Black Flag
by Brian Tyler

Жанр: Score
Год выпуска диска: 2013
Композитор: Брайан Тайлер (Brian Tyler)
Тип релиза: tracks+.cue
Аудио кодек: FLAC (*.flac)
Битрейт аудио: lossless
Продолжительность: 1:14:54
Доп.инфо: OST коллекционки Buccaneers Edition for Xbox360

Треклист:
01. Assassin's Creed IV Black Flag Main Theme (02:13)
02. Pyrates Beware (03:16)
03. On the Horizon (03:01)
04. The High Seas (02:44)
05. The Fortune of Edward Kenway (01:57)
06. In This World or the One Below (02:49)
07. Under the Black Flag (03:21)
08. The Ends of the Earth (02:53)
09. Stealing a Brig (01:52)
10. Fare Thee Well (05:14)
11. The Buccaneers (04:05)
12. Marked for Death (03:21)
13. Last Goodbyes (02:24)
14. Take What Is Ours! (03:15)
15. I'll Be with You (06:04)
16. Lay Aboard Lads (02:24)
17. A Pirate's Life (02:02)
18. Men of War (02:57)
19. Order of the Assassin (03:10)
20. In the Midst (03:07)
21. Randy Dandy Oh (01:35) (by Sean Dagher)
22. Maid of Amsterdam (01:41) (by Nils Brown)
23. Leave Her, Johnny (02:12) (by Sean Dagher)
24. Whiskey Johnny (01:21) (by Michiel Schrey)
25. Good Morning Ladies All (01:38) (by Sean Dagher)
26. Fish in the Sea (01:29) (by Michiel Schrey)
27. The Dead Horse (01:07) (by Sean Dagher)
28. Running Down to Cuba (01:29) (by Michiel Schrey)
 
Exact Audio Copy V1.0 beta 3 from 29. August 2011

Отчёт EAC об извлечении, выполненном 22. ноября 2013, 14:47

Brian Tyler / Assasin's Creed IV Black Flag Sountrack

Дисковод: PLDS DVD-RW DS8A8SH Adapter: 1 ID: 0

Режим чтения : Достоверность
Использование точного потока : Да
Отключение кэша аудио : Да
Использование указателей C2 : Нет

Коррекция смещения при чтении : 6
Способность читать области Lead-in и Lead-out : Нет
Заполнение пропущенных сэмплов тишиной : Да
Удаление блоков с тишиной в начале и конце : Нет
При вычислениях CRC использовались нулевые сэмплы : Да
Интерфейс : Встроенный Win32-интерфейс для Win NT/2000
Обработка зазоров : Добавлено к предыдущему треку

Выходной формат : Пользовательский кодировщик
Выбранный битрейт : 128 kBit/s
Качество : Высокий
Добавление ID3-тега : Нет
Утилита сжатия : C:\Program Files\Exact Audio Copy\Flac\flac.exe
Дополнительные параметры : -V -8 -T "Date=%year%" -T "Genre=%genre%" %source%

TOC извлечённого CD

Трек | Старт | Длительность | Начальный сектор | Конечный сектор
---------------------------------------------------------------------
1 | 0:00.00 | 2:13.28 | 0 | 10002
2 | 2:13.28 | 3:16.44 | 10003 | 24746
3 | 5:29.72 | 3:01.16 | 24747 | 38337
4 | 8:31.13 | 2:44.61 | 38338 | 50698
5 | 11:15.74 | 1:57.58 | 50699 | 59531
6 | 13:13.57 | 2:49.74 | 59532 | 72280
7 | 16:03.56 | 3:21.04 | 72281 | 87359
8 | 19:24.60 | 2:53.60 | 87360 | 100394
9 | 22:18.45 | 1:52.69 | 100395 | 108863
10 | 24:11.39 | 5:14.55 | 108864 | 132468
11 | 29:26.19 | 4:05.48 | 132469 | 150891
12 | 33:31.67 | 3:21.45 | 150892 | 166011
13 | 36:53.37 | 2:24.39 | 166012 | 176850
14 | 39:18.01 | 3:15.09 | 176851 | 191484
15 | 42:33.10 | 6:04.18 | 191485 | 218802
16 | 48:37.28 | 2:24.63 | 218803 | 229665
17 | 51:02.16 | 2:02.33 | 229666 | 238848
18 | 53:04.49 | 2:57.10 | 238849 | 252133
19 | 56:01.59 | 3:10.45 | 252134 | 266428
20 | 59:12.29 | 3:07.18 | 266429 | 280471
21 | 62:19.47 | 1:35.22 | 280472 | 287618
22 | 63:54.69 | 1:41.23 | 287619 | 295216
23 | 65:36.17 | 2:12.22 | 295217 | 305138
24 | 67:48.39 | 1:21.40 | 305139 | 311253
25 | 69:10.04 | 1:38.33 | 311254 | 318636
26 | 70:48.37 | 1:29.19 | 318637 | 325330
27 | 72:17.56 | 1:07.13 | 325331 | 330368
28 | 73:24.69 | 1:29.67 | 330369 | 337110

Трек 1

Имя файла C:\Program Files\Exact Audio Copy\Flac\Новая папка\Новая папка\01 Трек01.wav

Длина предзазора 0:00:02.00

Пиковый уровень 97.6 %
Скорость извлечения 2.1 X
Качество трека 100.0 %
CRC теста 6758D23A
CRC копии 6758D23A
Копирование... OK

Трек 2

Имя файла C:\Program Files\Exact Audio Copy\Flac\Новая папка\Новая папка\02 Трек02.wav

Пиковый уровень 97.6 %
Скорость извлечения 2.5 X
Качество трека 100.0 %
CRC теста A0926299
CRC копии A0926299
Копирование... OK

Трек 3

Имя файла C:\Program Files\Exact Audio Copy\Flac\Новая папка\Новая папка\03 Трек03.wav

Пиковый уровень 97.6 %
Скорость извлечения 2.6 X
Качество трека 100.0 %
CRC теста 74845A5A
CRC копии 74845A5A
Копирование... OK

Трек 4

Имя файла C:\Program Files\Exact Audio Copy\Flac\Новая папка\Новая папка\04 Трек04.wav

Пиковый уровень 97.6 %
Скорость извлечения 2.7 X
Качество трека 100.0 %
CRC теста 07787C96
CRC копии 07787C96
Копирование... OK

Трек 5

Имя файла C:\Program Files\Exact Audio Copy\Flac\Новая папка\Новая папка\05 Трек05.wav

Пиковый уровень 97.6 %
Скорость извлечения 2.6 X
Качество трека 100.0 %
CRC теста B91933C4
CRC копии B91933C4
Копирование... OK

Трек 6

Имя файла C:\Program Files\Exact Audio Copy\Flac\Новая папка\Новая папка\06 Трек06.wav

Пиковый уровень 97.6 %
Скорость извлечения 2.5 X
Качество трека 99.9 %
CRC теста 7DFE21E5
CRC копии 7DFE21E5
Копирование... OK

Трек 7

Имя файла C:\Program Files\Exact Audio Copy\Flac\Новая папка\Новая папка\07 Трек07.wav

Пиковый уровень 97.6 %
Скорость извлечения 3.1 X
Качество трека 100.0 %
CRC теста 24598E5F
CRC копии 24598E5F
Копирование... OK

Трек 8

Имя файла C:\Program Files\Exact Audio Copy\Flac\Новая папка\Новая папка\08 Трек08.wav

Пиковый уровень 97.6 %
Скорость извлечения 3.2 X
Качество трека 100.0 %
CRC теста 16D7EB6C
CRC копии 16D7EB6C
Копирование... OK

Трек 9

Имя файла C:\Program Files\Exact Audio Copy\Flac\Новая папка\Новая папка\09 Трек09.wav

Пиковый уровень 97.6 %
Скорость извлечения 3.0 X
Качество трека 100.0 %
CRC теста EED180B5
CRC копии EED180B5
Копирование... OK

Трек 10

Имя файла C:\Program Files\Exact Audio Copy\Flac\Новая папка\Новая папка\10 Трек10.wav

Пиковый уровень 97.6 %
Скорость извлечения 3.4 X
Качество трека 99.9 %
CRC теста 94983757
CRC копии 94983757
Копирование... OK

Трек 11

Имя файла C:\Program Files\Exact Audio Copy\Flac\Новая папка\Новая папка\11 Трек11.wav

Пиковый уровень 97.6 %
Скорость извлечения 3.8 X
Качество трека 100.0 %
CRC теста 17A991DD
CRC копии 17A991DD
Копирование... OK

Трек 12

Имя файла C:\Program Files\Exact Audio Copy\Flac\Новая папка\Новая папка\12 Трек12.wav

Пиковый уровень 97.6 %
Скорость извлечения 3.8 X
Качество трека 100.0 %
CRC теста 741477E2
CRC копии 741477E2
Копирование... OK

Трек 13

Имя файла C:\Program Files\Exact Audio Copy\Flac\Новая папка\Новая папка\13 Трек13.wav

Пиковый уровень 97.6 %
Скорость извлечения 3.7 X
Качество трека 100.0 %
CRC теста 47A9C0D9
CRC копии 47A9C0D9
Копирование... OK

Трек 14

Имя файла C:\Program Files\Exact Audio Copy\Flac\Новая папка\Новая папка\14 Трек14.wav

Пиковый уровень 97.6 %
Скорость извлечения 4.0 X
Качество трека 100.0 %
CRC теста 93725E73
CRC копии 93725E73
Копирование... OK

Трек 15

Имя файла C:\Program Files\Exact Audio Copy\Flac\Новая папка\Новая папка\15 Трек15.wav

Пиковый уровень 97.6 %
Скорость извлечения 4.4 X
Качество трека 100.0 %
CRC теста 535ED75D
CRC копии 535ED75D
Копирование... OK

Трек 16

Имя файла C:\Program Files\Exact Audio Copy\Flac\Новая папка\Новая папка\16 Трек16.wav

Пиковый уровень 97.6 %
Скорость извлечения 4.0 X
Качество трека 100.0 %
CRC теста E7F83A08
CRC копии E7F83A08
Копирование... OK

Трек 17

Имя файла C:\Program Files\Exact Audio Copy\Flac\Новая папка\Новая папка\17 Трек17.wav

Пиковый уровень 97.6 %
Скорость извлечения 4.0 X
Качество трека 100.0 %
CRC теста 1EA4D59D
CRC копии 1EA4D59D
Копирование... OK

Трек 18

Имя файла C:\Program Files\Exact Audio Copy\Flac\Новая папка\Новая папка\18 Трек18.wav

Пиковый уровень 97.6 %
Скорость извлечения 4.3 X
Качество трека 100.0 %
CRC теста 77410E97
CRC копии 77410E97
Копирование... OK

Трек 19

Имя файла C:\Program Files\Exact Audio Copy\Flac\Новая папка\Новая папка\19 Трек19.wav

Пиковый уровень 97.6 %
Скорость извлечения 4.4 X
Качество трека 100.0 %
CRC теста 8D63DDAA
CRC копии 8D63DDAA
Копирование... OK

Трек 20

Имя файла C:\Program Files\Exact Audio Copy\Flac\Новая папка\Новая папка\20 Трек20.wav

Пиковый уровень 97.6 %
Скорость извлечения 3.9 X
Качество трека 99.9 %
CRC теста 4866D730
CRC копии 4866D730
Копирование... OK

Трек 21

Имя файла C:\Program Files\Exact Audio Copy\Flac\Новая папка\Новая папка\21 Трек21.wav

Пиковый уровень 97.6 %
Скорость извлечения 3.1 X
Качество трека 99.8 %
CRC теста 5B01482F
CRC копии 5B01482F
Копирование... OK

Трек 22

Имя файла C:\Program Files\Exact Audio Copy\Flac\Новая папка\Новая папка\22 Трек22.wav

Пиковый уровень 97.6 %
Скорость извлечения 4.0 X
Качество трека 100.0 %
CRC теста 03BAC190
CRC копии 03BAC190
Копирование... OK

Трек 23

Имя файла C:\Program Files\Exact Audio Copy\Flac\Новая папка\Новая папка\23 Трек23.wav

Пиковый уровень 97.6 %
Скорость извлечения 4.4 X
Качество трека 100.0 %
CRC теста 387ED615
CRC копии 387ED615
Копирование... OK

Трек 24

Имя файла C:\Program Files\Exact Audio Copy\Flac\Новая папка\Новая папка\24 Трек24.wav

Пиковый уровень 97.6 %
Скорость извлечения 3.9 X
Качество трека 100.0 %
CRC теста 5824C7A2
CRC копии 5824C7A2
Копирование... OK

Трек 25

Имя файла C:\Program Files\Exact Audio Copy\Flac\Новая папка\Новая папка\25 Трек25.wav

Пиковый уровень 97.6 %
Скорость извлечения 4.2 X
Качество трека 100.0 %
CRC теста F631FCE8
CRC копии F631FCE8
Копирование... OK

Трек 26

Имя файла C:\Program Files\Exact Audio Copy\Flac\Новая папка\Новая папка\26 Трек26.wav

Пиковый уровень 97.6 %
Скорость извлечения 4.1 X
Качество трека 100.0 %
CRC теста 4225C998
CRC копии 4225C998
Копирование... OK

Трек 27

Имя файла C:\Program Files\Exact Audio Copy\Flac\Новая папка\Новая папка\27 Трек27.wav

Пиковый уровень 97.6 %
Скорость извлечения 3.7 X
Качество трека 100.0 %
CRC теста F0423844
CRC копии F0423844
Копирование... OK

Трек 28

Имя файла C:\Program Files\Exact Audio Copy\Flac\Новая папка\Новая папка\28 Трек28.wav

Пиковый уровень 97.6 %
Скорость извлечения 4.1 X
Качество трека 100.0 %
CRC теста 3D7B1C5A
CRC копии 3D7B1C5A
Копирование... OK

Ошибок не произошло

Конец отчёта

==== Контрольная сумма отчёта CFAE3A8F0775A6150673B6E270C9337291245D806B4F8ABE2C2C780413C09FB2 ====
 
REM GENRE Instrumental
REM DATE 2013
REM DISCID 8F118E1C
REM COMMENT "ExactAudioCopy v1.0b3"
PERFORMER "Brian Tyler"
TITLE "Assasin's Creed IV Black Flag Sountrack"
FILE "01 Трек01.wav" WAVE
TRACK 01 AUDIO
TITLE "Трек01"
PERFORMER "Brian Tyler"
INDEX 01 00:00:00
FILE "02 Трек02.wav" WAVE
TRACK 02 AUDIO
TITLE "Трек02"
PERFORMER "Brian Tyler"
INDEX 01 00:00:00
FILE "03 Трек03.wav" WAVE
TRACK 03 AUDIO
TITLE "Трек03"
PERFORMER "Brian Tyler"
INDEX 01 00:00:00
FILE "04 Трек04.wav" WAVE
TRACK 04 AUDIO
TITLE "Трек04"
PERFORMER "Brian Tyler"
INDEX 01 00:00:00
FILE "05 Трек05.wav" WAVE
TRACK 05 AUDIO
TITLE "Трек05"
PERFORMER "Brian Tyler"
INDEX 01 00:00:00
FILE "06 Трек06.wav" WAVE
TRACK 06 AUDIO
TITLE "Трек06"
PERFORMER "Brian Tyler"
INDEX 01 00:00:00
FILE "07 Трек07.wav" WAVE
TRACK 07 AUDIO
TITLE "Трек07"
PERFORMER "Brian Tyler"
INDEX 01 00:00:00
FILE "08 Трек08.wav" WAVE
TRACK 08 AUDIO
TITLE "Трек08"
PERFORMER "Brian Tyler"
INDEX 01 00:00:00
FILE "09 Трек09.wav" WAVE
TRACK 09 AUDIO
TITLE "Трек09"
PERFORMER "Brian Tyler"
INDEX 01 00:00:00
FILE "10 Трек10.wav" WAVE
TRACK 10 AUDIO
TITLE "Трек10"
PERFORMER "Brian Tyler"
INDEX 01 00:00:00
FILE "11 Трек11.wav" WAVE
TRACK 11 AUDIO
TITLE "Трек11"
PERFORMER "Brian Tyler"
INDEX 01 00:00:00
FILE "12 Трек12.wav" WAVE
TRACK 12 AUDIO
TITLE "Трек12"
PERFORMER "Brian Tyler"
INDEX 01 00:00:00
FILE "13 Трек13.wav" WAVE
TRACK 13 AUDIO
TITLE "Трек13"
PERFORMER "Brian Tyler"
INDEX 01 00:00:00
FILE "14 Трек14.wav" WAVE
TRACK 14 AUDIO
TITLE "Трек14"
PERFORMER "Brian Tyler"
INDEX 01 00:00:00
FILE "15 Трек15.wav" WAVE
TRACK 15 AUDIO
TITLE "Трек15"
PERFORMER "Brian Tyler"
INDEX 01 00:00:00
FILE "16 Трек16.wav" WAVE
TRACK 16 AUDIO
TITLE "Трек16"
PERFORMER "Brian Tyler"
INDEX 01 00:00:00
FILE "17 Трек17.wav" WAVE
TRACK 17 AUDIO
TITLE "Трек17"
PERFORMER "Brian Tyler"
INDEX 01 00:00:00
FILE "18 Трек18.wav" WAVE
TRACK 18 AUDIO
TITLE "Трек18"
PERFORMER "Brian Tyler"
INDEX 01 00:00:00
FILE "19 Трек19.wav" WAVE
TRACK 19 AUDIO
TITLE "Трек19"
PERFORMER "Brian Tyler"
INDEX 01 00:00:00
FILE "20 Трек20.wav" WAVE
TRACK 20 AUDIO
TITLE "Трек20"
PERFORMER "Brian Tyler"
INDEX 01 00:00:00
FILE "21 Трек21.wav" WAVE
TRACK 21 AUDIO
TITLE "Трек21"
PERFORMER "Brian Tyler"
INDEX 01 00:00:00
FILE "22 Трек22.wav" WAVE
TRACK 22 AUDIO
TITLE "Трек22"
PERFORMER "Brian Tyler"
INDEX 01 00:00:00
FILE "23 Трек23.wav" WAVE
TRACK 23 AUDIO
TITLE "Трек23"
PERFORMER "Brian Tyler"
INDEX 01 00:00:00
FILE "24 Трек24.wav" WAVE
TRACK 24 AUDIO
TITLE "Трек24"
PERFORMER "Brian Tyler"
INDEX 01 00:00:00
FILE "25 Трек25.wav" WAVE
TRACK 25 AUDIO
TITLE "Трек25"
PERFORMER "Brian Tyler"
INDEX 01 00:00:00
FILE "26 Трек26.wav" WAVE
TRACK 26 AUDIO
TITLE "Трек26"
PERFORMER "Brian Tyler"
INDEX 01 00:00:00
FILE "27 Трек27.wav" WAVE
TRACK 27 AUDIO
TITLE "Трек27"
PERFORMER "Brian Tyler"
INDEX 01 00:00:00
FILE "28 Трек28.wav" WAVE
TRACK 28 AUDIO
TITLE "Трек28"
PERFORMER "Brian Tyler"
INDEX 01 00:00:00
info [Профиль]  [ЛС] 

Snaip7

Пол: Пол:Муж

Стаж: 12 лет

Сообщений: 19

Россия
Рейтинг

post 23-Ноя-2013 21:13 (спустя 5 часов) [-]0[+]

[Цитировать] 

Так быстро, ничесе..

Качаю как и качал треки всех остальных частей Улыбаюсь
Надеюсь будут эпичные, наподобие Ezio's family

добавлено спустя 10 минут 12 секунд:

Почему не нажимается кнопка "Скачать" ???
info [Профиль]  [ЛС] 

Levittra_Hazard

Пол: Пол:Жен

Стаж: 9 лет 5 месяцев

Сообщений: 8

Россия
Рейтинг

post 23-Ноя-2013 21:34 (спустя 20 минут) [-]0[+]

[Цитировать] 

Snaip7
раздачу пока ещё не проверили. Если проверку пройдет - будет доступно)
И эпичного там хватает. kolob_171
info [Профиль]  [ЛС] 

Snaip7

Пол: Пол:Муж

Стаж: 12 лет

Сообщений: 19

Россия
Рейтинг

post 24-Ноя-2013 16:27 (спустя 18 часов) [-]0[+]

[Цитировать] 

Levittra_Hazard
Скорее бы)
хочца послушать уже

добавлено спустя 7 часов 56 минут 55 секунд:

Блин чо так долго проверяют? Че сложного?
info [Профиль]  [ЛС] 

Levittra_Hazard

Пол: Пол:Жен

Стаж: 9 лет 5 месяцев

Сообщений: 8

Россия
Рейтинг

post 24-Ноя-2013 17:26 (спустя 59 минут) [-]0[+]

[Цитировать] 

Цитата:

Блин чо так долго проверяют? Че сложного?
Snaip7
скорее всего до сих пор не прочитали сообщение. придется подождать kolob_135
info [Профиль]  [ЛС] 

Snaip7

Пол: Пол:Муж

Стаж: 12 лет

Сообщений: 19

Россия
Рейтинг

post 25-Ноя-2013 09:33 (спустя 16 часов) [-]0[+]

[Цитировать] 

Наконец-то Улыбаюсь
info [Профиль]  [ЛС] 

Kiaran

Пол: Пол:Муж

Стаж: 12 лет

Сообщений: 77

Россия
Рейтинг

post 25-Ноя-2013 11:06 (спустя 1 час 33 минуты) [-]0[+]

[Цитировать] 

Некоторых моряцких песен вроде бы нет. Тот же Drunken Sailor. Если ошибаюсь - буду только рад.
В любом случае спасибо.
info [Профиль]  [ЛС] 

Gizza

Пол: Пол:Муж

Стаж: 10 лет

Сообщений: 169

Россия
Рейтинг

post 25-Ноя-2013 12:40 (спустя 1 час 34 минуты) [-]0[+]

[Цитировать] 

Kiaran писал(а):

Некоторых моряцких песен вроде бы нет. Тот же Drunken Sailor. Если ошибаюсь - буду только рад.
В любом случае спасибо.
Вот Вам Drunken Sailor в исполнении группы Rapalje. Обратите внимание на творчество группы в целом.
http://www.youtube.com/watch?v=nNh-D1wb0bw

_________________
info [Профиль]  [ЛС] 

NYMEZIDE

Стаж: 10 лет

Сообщений: 39

Предупреждений: 1

Рейтинг

post 25-Ноя-2013 14:24 (спустя 1 час 43 минуты) [-]0[+]

[Цитировать] 

скорость 0. не качает. почему?
info [Профиль]  [ЛС] 

Levittra_Hazard

Пол: Пол:Жен

Стаж: 9 лет 5 месяцев

Сообщений: 8

Россия
Рейтинг

post 25-Ноя-2013 17:28 (спустя 3 часа) [-]0[+]

[Цитировать] 

NYMEZIDE
скорее всего потому что у меня завис торрент. Звиняйте, проблема исправлена >_<

Kiaran
диск с моряцкими выйдет потом вроде как (так их в интернете можно найти как уже подсказали, но не в lossless((( ). Это рип диска, который был в коллекционном издании.
info [Профиль]  [ЛС] 

Pray

Пол: Пол:Муж

Стаж: 10 лет

Сообщений: 1411

Украина
Рейтинг

post 25-Ноя-2013 21:10 (спустя 3 часа) [-]0[+]

[Цитировать] 

Круто, надо послушать! Помню OST FarCry 3 от Brian Tyler был шикарен!

_________________
info [Профиль]  [ЛС] 

MvP

Пол: Пол:Муж

Стаж: 13 лет

Сообщений: 33

Россия
Рейтинг

post 26-Май-2014 22:55 (спустя 6 месяцев 1 день) [-]0[+]

[Цитировать] 

Саундтрек прекрасный! Вообще в серии ассасина отличные саундтреки.
info [Профиль]  [ЛС] 
Показать сообщения:    
Ответить на тему

Текущее время: 02-Июл 14:29

Часовой пояс: GMT + 4



Вы не можете начинать темы
Вы не можете отвечать на сообщения
Вы не можете редактировать свои сообщения
Вы не можете удалять свои сообщения
Вы не можете голосовать в опросах
Вы не можете прикреплять файлы к сообщениям
Вы не можете скачивать файлы