Ошибка

(Acoustic, Female Vocals) Emma Hewitt - Starting Fires (acoustic) {ep} - 2012, FLAC (tracks+.cue), lossless

Ответить на тему
 
Автор Сообщение

Shamik

Пол: Пол:Муж

Стаж: 13 лет

Сообщений: 486

Кокосовые острова
Рейтинг

post 06-Дек-2012 20:55 1[+]

[Цитировать] 

Emma Hewitt - Starting Fires

Исполнитель:............: Emma Hewitt
Альбом:........................: Starting Fires
Тип:...............................: CD, EP
Страна:.........................: Netherlands
Лейбл:...........................: TME/ Open Gate - ПРЗ CD05851
Дата выпуска:...........: 12 Oct 2012
Жанр:............................: Acoustic, Female Vocals
Формат: FLAC (tracks+.cue)
Продолжительность: 00:32:33

Tracklist:
01. Emma Hewitt - Miss You Paradise (live acoustic) (3:27)
02. Emma Hewitt - Carry Me Away (live acoustic) (3:03)
03. Emma Hewitt - Circles (live acoustic) (3:40)
04. Cosmic Gate - Be Your Sound (ft. Emma Hewitt) (live acoustic) (3:42)
05. Emma Hewitt - Adeline (acoustic demo) (3:42)
06. Emma Hewitt - It All Began With You (acoustic demo) (3:44)
07. Dash Berlin - Waiting (ft. Emma Hewitt) (strings & vocals mix) (3:50)
08. Emma Hewitt - Colours (strings & vocals mix) (3:51)
09. Emma Hewitt - Miss You Paradise (strings & acoustic) (3:34)
Exact Audio Copy V1.0 beta 3 from 29. August 2011 

EAC extraction logfile from 10. November 2012, 21:18

Emma Hewitt / Starting Fires

Used drive : Optiarc DVD RW AD-5260S Adapter: 1 ID: 1

Read mode : Secure
Utilize accurate stream : Yes
Defeat audio cache : Yes
Make use of C2 pointers : No

Read offset correction : 48
Overread into Lead-In and Lead-Out : No
Fill up missing offset samples with silence : Yes
Delete leading and trailing silent blocks : No
Null samples used in CRC calculations : Yes
Used interface : Native Win32 interface for Win NT & 2000
Gap handling : Appended to previous track

Used output format : User Defined Encoder
Selected bitrate : 1024 kBit/s
Quality : High
Add ID3 tag : No
Command line compressor : C:\Program Files\Exact Audio Copy\Flac\flac.exe
Additional command line options : -V -8 -T "Genre=%genre%" -T "Artist=%artist%" -T "Title=%title%" -T "Album=%albumtitle%" -T "Date=%year%" -T "Tracknumber=%tracknr%" -T "Comment=%comment%" %source%

TOC of the extracted CD

Track | Start | Length | Start sector | End sector
---------------------------------------------------------
1 | 0:00.00 | 3:26.52 | 0 | 15501
2 | 3:26.52 | 3:03.15 | 15502 | 29241
3 | 6:29.67 | 3:40.12 | 29242 | 45753
4 | 10:10.04 | 3:41.73 | 45754 | 62401
5 | 13:52.02 | 3:41.69 | 62402 | 79045
6 | 17:33.71 | 3:44.05 | 79046 | 95850
7 | 21:18.01 | 3:49.52 | 95851 | 113077
8 | 25:07.53 | 3:51.22 | 113078 | 130424
9 | 28:59.00 | 3:33.68 | 130425 | 146467

Track 1

Filename I:\Bitt_Upload\Emma Hewitt-[2012]-Starting Fires (acoustic) {ep}\01. Emma Hewitt - Miss You Paradise (live acoustic).wav

Pre-gap length 0:00:02.00

Peak level 72.7 %
Extraction speed 2.2 X
Track quality 100.0 %
Test CRC 54F3C764
Copy CRC 54F3C764
Track not present in AccurateRip database
Copy OK

Track 2

Filename I:\Bitt_Upload\Emma Hewitt-[2012]-Starting Fires (acoustic) {ep}\02. Emma Hewitt - Carry Me Away (live acoustic).wav

Peak level 65.0 %
Extraction speed 2.4 X
Track quality 100.0 %
Test CRC A970DD5B
Copy CRC A970DD5B
Track not present in AccurateRip database
Copy OK

Track 3

Filename I:\Bitt_Upload\Emma Hewitt-[2012]-Starting Fires (acoustic) {ep}\03. Emma Hewitt - Circles (live acoustic).wav

Peak level 93.4 %
Extraction speed 2.7 X
Track quality 100.0 %
Test CRC A632A4AF
Copy CRC A632A4AF
Track not present in AccurateRip database
Copy OK

Track 4

Filename I:\Bitt_Upload\Emma Hewitt-[2012]-Starting Fires (acoustic) {ep}\04. Cosmic Gate - Be Your Sound (ft. Emma Hewitt) (live acoustic).wav

Peak level 87.6 %
Extraction speed 2.9 X
Track quality 100.0 %
Test CRC D84028EC
Copy CRC D84028EC
Track not present in AccurateRip database
Copy OK

Track 5

Filename I:\Bitt_Upload\Emma Hewitt-[2012]-Starting Fires (acoustic) {ep}\05. Emma Hewitt - Adeline (acoustic demo).wav

Peak level 100.0 %
Extraction speed 3.1 X
Track quality 100.0 %
Test CRC C9EFF502
Copy CRC C9EFF502
Track not present in AccurateRip database
Copy OK

Track 6

Filename I:\Bitt_Upload\Emma Hewitt-[2012]-Starting Fires (acoustic) {ep}\06. Emma Hewitt - It All Began With You (acoustic demo).wav

Peak level 100.0 %
Extraction speed 2.9 X
Track quality 99.9 %
Test CRC C04C2ED6
Copy CRC C04C2ED6
Track not present in AccurateRip database
Copy OK

Track 7

Filename I:\Bitt_Upload\Emma Hewitt-[2012]-Starting Fires (acoustic) {ep}\07. Dash Berlin - Waiting (ft. Emma Hewitt) (strings & vocals mix).wav

Peak level 100.0 %
Extraction speed 3.5 X
Track quality 100.0 %
Test CRC 05FE005B
Copy CRC 05FE005B
Track not present in AccurateRip database
Copy OK

Track 8

Filename I:\Bitt_Upload\Emma Hewitt-[2012]-Starting Fires (acoustic) {ep}\08. Emma Hewitt - Colours (strings & vocals mix).wav

Peak level 100.0 %
Extraction speed 3.6 X
Track quality 100.0 %
Test CRC D408C800
Copy CRC D408C800
Track not present in AccurateRip database
Copy OK

Track 9

Filename I:\Bitt_Upload\Emma Hewitt-[2012]-Starting Fires (acoustic) {ep}\09. Emma Hewitt - Miss You Paradise (strings & acoustic).wav

Peak level 100.0 %
Extraction speed 3.8 X
Track quality 100.0 %
Test CRC E9F50340
Copy CRC E9F50340
Track not present in AccurateRip database
Copy OK

None of the tracks are present in the AccurateRip database

No errors occurred

End of status report

==== Log checksum 979E7EDF9C65A97AE0B8C424AD9B53391988DCF7AE9F217C1B3F0B9096EE7971 ====
REM GENRE Acoustic 
REM DATE 2012
REM DISCID 6307A009
REM COMMENT "ExactAudioCopy v1.0b3"
PERFORMER "Emma Hewitt"
TITLE "Starting Fires"
FILE "01. Emma Hewitt - Miss You Paradise (live acoustic).flac" WAVE
TRACK 01 AUDIO
TITLE "Miss You Paradise (live acoustic)"
PERFORMER "Emma Hewitt"
FLAGS DCP
INDEX 01 00:00:00
FILE "02. Emma Hewitt - Carry Me Away (live acoustic).flac" WAVE
TRACK 02 AUDIO
TITLE "Carry Me Away (live acoustic)"
PERFORMER "Emma Hewitt"
FLAGS DCP
INDEX 01 00:00:00
FILE "03. Emma Hewitt - Circles (live acoustic).flac" WAVE
TRACK 03 AUDIO
TITLE "Circles (live acoustic)"
PERFORMER "Emma Hewitt"
FLAGS DCP
INDEX 01 00:00:00
FILE "04. Cosmic Gate - Be Your Sound (ft. Emma Hewitt) (live acoustic).flac" WAVE
TRACK 04 AUDIO
TITLE "Be Your Sound (ft. Emma Hewitt) (live acoustic)"
PERFORMER "Cosmic Gate"
FLAGS DCP
INDEX 01 00:00:00
FILE "05. Emma Hewitt - Adeline (acoustic demo).flac" WAVE
TRACK 05 AUDIO
TITLE "Adeline (acoustic demo)"
PERFORMER "Emma Hewitt"
FLAGS DCP
INDEX 01 00:00:00
FILE "06. Emma Hewitt - It All Began With You (acoustic demo).flac" WAVE
TRACK 06 AUDIO
TITLE "It All Began With You (acoustic demo)"
PERFORMER "Emma Hewitt"
FLAGS DCP
INDEX 01 00:00:00
FILE "07. Dash Berlin - Waiting (ft. Emma Hewitt) (strings & vocals mix).flac" WAVE
TRACK 07 AUDIO
TITLE "Waiting (ft. Emma Hewitt) (strings & vocals mix)"
PERFORMER "Dash Berlin"
FLAGS DCP
INDEX 01 00:00:00
FILE "08. Emma Hewitt - Colours (strings & vocals mix).flac" WAVE
TRACK 08 AUDIO
TITLE "Colours (strings & vocals mix)"
PERFORMER "Emma Hewitt"
FLAGS DCP
INDEX 01 00:00:00
FILE "09. Emma Hewitt - Miss You Paradise (strings & acoustic).flac" WAVE
TRACK 09 AUDIO
TITLE "Miss You Paradise (strings & acoustic)"
PERFORMER "Emma Hewitt"
FLAGS DCP
INDEX 01 00:00:00
info [Профиль]  [ЛС] 

Meka dj

Стаж: 9 лет 2 месяца

Сообщений: 4

Рейтинг

post 27-Окт-2013 17:13 (спустя 10 месяцев 20 дней) [-]1[+]

[Цитировать] 

Сиды??
info [Профиль]  [ЛС] 
Показать сообщения:    
Ответить на тему

Текущее время: 19-Май 23:12

Часовой пояс: GMT + 4



Вы не можете начинать темы
Вы не можете отвечать на сообщения
Вы не можете редактировать свои сообщения
Вы не можете удалять свои сообщения
Вы не можете голосовать в опросах
Вы не можете прикреплять файлы к сообщениям
Вы не можете скачивать файлы