Ошибка

(Electronic, Synthpop) Depeche Mode - The Singles 81>98 (3CD) - 2001, FLAC (image+.cue), lossless

Ответить на тему
 
Автор Сообщение

TillL

Пол: Пол:Муж

Стаж: 12 лет

Сообщений: 16

Россия
Рейтинг

post 20-Авг-2013 20:15 0[+]

[Цитировать] 

Depeche Mode - The Singles 81>98 (3CD)

Жанр: Electronic, Synthpop
Происхождение исполнителя: Великобритания
Год выпуска диска: 2001
Лейбл: Venusnote Limited
Каталоговый номер бокс-сета: LCDMUTEL5
Источник: Собственный CD


The Singles 81>85

Тип релиза: image+.cue
Аудио кодек: FLAC
Битрейт аудио: lossless
Каталоговый номер диска: LCMUTEL1
Продолжительность: 69:23
Дополнительно: Данный релиз является ремастером оригинального диска 1985г. и включает в себя бонус-треки.

Треклист:
01 - Dreaming Of Me [3:46]
02 - New Life [3:45]
03 - Just Can't Get Enough [3:44]
04 - See You [3:57]
05 - The Meaning Of Love [3:05]
06 - Leave In Silence [4:02]
07 - Get The Balance Right [3:15]
08 - Everything Counts [3:59]
09 - Love In Itself [4:00]
10 - People Are People [3:46]
11 - Master And Servant [3:47]
12 - Blasphemous Rumours [5:09]
13 - Somebody [4:22]
14 - Shake The Disease [4:49]
15 - It's Called A Heart [3:51]
Бонус-треки:
16 - Photographic (Some Bizzare Version) [3:13]
17 - Just Can't Get Enough (Schizo Mix) [6:46]


 
AUDIOCHECKER v1.2 - by Dester - opdester@freemail.hu
~~~~~~~~~~~~~~~~~

1 -===- D:\Depeche Mode - The Singles 81-98\The Singles 81-85\Depeche Mode - The Singles 81-85.flac
Extracted successfully
Conclusion: This track looks like CDDA with probability 100%
 
Exact Audio Copy V1.0 beta 3 from 29. August 2011

EAC extraction logfile from 21. August 2013, 16:22

Depeche Mode / The Singles 81-85

Used drive : HP DVD Writer 1070d Adapter: 2 ID: 0

Read mode : Secure
Utilize accurate stream : Yes
Defeat audio cache : Yes
Make use of C2 pointers : No

Read offset correction : 6
Overread into Lead-In and Lead-Out : No
Fill up missing offset samples with silence : Yes
Delete leading and trailing silent blocks : No
Null samples used in CRC calculations : Yes
Used interface : Native Win32 interface for Win NT & 2000

Used output format : User Defined Encoder
Selected bitrate : 768 kBit/s
Quality : High
Add ID3 tag : No
Command line compressor : C:\Program Files (x86)\Exact Audio Copy\FLAC\FLAC.EXE
Additional command line options : -V -8 -T "Date=%year%" -T "Genre=%genre%" %source% %dest%

TOC of the extracted CD

Track | Start | Length | Start sector | End sector
---------------------------------------------------------
1 | 0:00.00 | 3:46.67 | 0 | 17016
2 | 3:46.67 | 3:45.70 | 17017 | 33961
3 | 7:32.62 | 3:44.23 | 33962 | 50784
4 | 11:17.10 | 3:57.05 | 50785 | 68564
5 | 15:14.15 | 3:05.12 | 68565 | 82451
6 | 18:19.27 | 4:02.33 | 82452 | 100634
7 | 22:21.60 | 3:15.05 | 100635 | 115264
8 | 25:36.65 | 3:59.52 | 115265 | 133241
9 | 29:36.42 | 4:00.30 | 133242 | 151271
10 | 33:36.72 | 3:46.08 | 151272 | 168229
11 | 37:23.05 | 3:47.62 | 168230 | 185316
12 | 41:10.67 | 5:09.08 | 185317 | 208499
13 | 46:20.00 | 4:22.47 | 208500 | 228196
14 | 50:42.47 | 4:49.50 | 228197 | 249921
15 | 55:32.22 | 3:51.55 | 249922 | 267301
16 | 59:24.02 | 3:13.50 | 267302 | 281826
17 | 62:37.52 | 6:46.13 | 281827 | 312289

Range status and errors

Selected range

Filename D:\Depeche Mode - The Singles 81-98\The Singles 81-85\Depeche Mode - The Singles 81-85.wav

Peak level 100.0 %
Extraction speed 3.2 X
Range quality 100.0 %
Test CRC 68EADEA1
Copy CRC 68EADEA1
Copy OK

No errors occurred

AccurateRip summary
Track 1 accurately ripped (confidence 76) [B9D822B2] (AR v2)
Track 2 accurately ripped (confidence 76) [F1524C32] (AR v2)
Track 3 accurately ripped (confidence 76) [E2F3FC5D] (AR v2)
Track 4 accurately ripped (confidence 75) [6FDC5774] (AR v2)
Track 5 accurately ripped (confidence 74) [16F22A49] (AR v2)
Track 6 accurately ripped (confidence 74) [7FB260CE] (AR v2)
Track 7 accurately ripped (confidence 74) [2EDD7B60] (AR v2)
Track 8 accurately ripped (confidence 75) [26184A04] (AR v2)
Track 9 accurately ripped (confidence 75) [821463F9] (AR v2)
Track 10 accurately ripped (confidence 75) [5D672888] (AR v2)
Track 11 accurately ripped (confidence 76) [C1B2A52E] (AR v2)
Track 12 accurately ripped (confidence 75) [6A4B829A] (AR v2)
Track 13 accurately ripped (confidence 75) [FE7B76A4] (AR v2)
Track 14 accurately ripped (confidence 75) [28A22AE7] (AR v2)
Track 15 accurately ripped (confidence 75) [64141774] (AR v2)
Track 16 accurately ripped (confidence 74) [8A2B976A] (AR v2)
Track 17 accurately ripped (confidence 76) [3643C16E] (AR v2)
All tracks accurately ripped

End of status report

==== Log checksum 48EA2A2D75640E4778CB1FD351B27A3124709E76295C2D0509599529355A6259 ====
 
REM GENRE Synthpop
REM DATE 1998
REM DISCID F5104311
REM COMMENT "ExactAudioCopy v1.0b3"
PERFORMER "Depeche Mode"
TITLE "The Singles 81-85"
FILE "Depeche Mode - The Singles 81-85.flac" WAVE
TRACK 01 AUDIO
TITLE "Dreaming Of Me"
PERFORMER "Depeche Mode"
INDEX 01 00:00:00
TRACK 02 AUDIO
TITLE "New Life"
PERFORMER "Depeche Mode"
INDEX 00 03:44:47
INDEX 01 03:46:67
TRACK 03 AUDIO
TITLE "Just Can't Get Enough"
PERFORMER "Depeche Mode"
INDEX 00 07:30:72
INDEX 01 07:32:62
TRACK 04 AUDIO
TITLE "See You"
PERFORMER "Depeche Mode"
INDEX 00 11:14:35
INDEX 01 11:17:10
TRACK 05 AUDIO
TITLE "The Meaning Of Love"
PERFORMER "Depeche Mode"
INDEX 00 15:13:10
INDEX 01 15:14:15
TRACK 06 AUDIO
TITLE "Leave In Silence"
PERFORMER "Depeche Mode"
INDEX 01 18:19:27
TRACK 07 AUDIO
TITLE "Get The Balance Right"
PERFORMER "Depeche Mode"
INDEX 00 22:19:70
INDEX 01 22:21:60
TRACK 08 AUDIO
TITLE "Everything Counts"
PERFORMER "Depeche Mode"
INDEX 00 25:35:32
INDEX 01 25:36:65
TRACK 09 AUDIO
TITLE "Love In Itself"
PERFORMER "Depeche Mode"
INDEX 00 29:34:42
INDEX 01 29:36:42
TRACK 10 AUDIO
TITLE "People Are People"
PERFORMER "Depeche Mode"
INDEX 01 33:36:72
TRACK 11 AUDIO
TITLE "Master And Servant"
PERFORMER "Depeche Mode"
INDEX 00 37:21:07
INDEX 01 37:23:05
TRACK 12 AUDIO
TITLE "Blasphemous Rumours"
PERFORMER "Depeche Mode"
INDEX 00 41:09:27
INDEX 01 41:10:67
TRACK 13 AUDIO
TITLE "Somebody"
PERFORMER "Depeche Mode"
INDEX 01 46:20:00
TRACK 14 AUDIO
TITLE "Shake The Disease"
PERFORMER "Depeche Mode"
INDEX 00 50:41:00
INDEX 01 50:42:47
TRACK 15 AUDIO
TITLE "It's Called A Heart"
PERFORMER "Depeche Mode"
INDEX 00 55:30:50
INDEX 01 55:32:22
TRACK 16 AUDIO
TITLE "Photographic (Some Bizzare Version)"
PERFORMER "Depeche Mode"
INDEX 00 59:21:07
INDEX 01 59:24:02
TRACK 17 AUDIO
TITLE "Just Can't Get Enough (Schizo Mix)"
PERFORMER "Depeche Mode"
INDEX 00 62:35:50
INDEX 01 62:37:52

The Singles 86>98

Тип релиза: image+.cue
Аудио кодек: FLAC
Битрейт аудио: lossless
Каталоговый номер диска:CDMUTEL5
Продолжительность CD1: 41:50
Продолжительность CD2: 55:37

Треклист CD1:
01 - Stripped [3:51]
02 - A Question Of Lust [4:30]
03 - A Question Of Time [4:00]
04 - Strangelove [3:47]
05 - Never Let Me Down Again [4:22]
06 - Behind The Wheel [4:02]
07 - Personal Jesus [3:46]
08 - Enjoy The Silence [4:16]
09 - Policy Of Truth [5:14]
10 - World In My Eyes [3:57]

Треклист CD2:
01 - I Feel You [4:35]
02 - Walking In My Shoes [5:02]
03 - Condemnation [3:23]
04 - In Your Room [4:50]
05 - Barrel Of A Gun [5:27]
06 - It's No Good [5:59]
07 - Home [5:46]
08 - Useless [4:53]
09 - Only When I Lose Myself [4:41]
10 - Little 15 [4:13]
11 - Everything Counts (Live) [6:38]
 
AUDIOCHECKER v1.2 - by Dester - opdester@freemail.hu
~~~~~~~~~~~~~~~~~

1 -===- D:\Depeche Mode - The Singles 81-98\The Singles 86-98\CD1\Depeche Mode - The Singles 86-98 - (CD1).flac
Extracted successfully
Conclusion: This track looks like CDDA with probability 100%
 
Exact Audio Copy V1.0 beta 3 from 29. August 2011

EAC extraction logfile from 21. August 2013, 16:59

Depeche Mode / The Singles 86-98 - (CD1)

Used drive : HP DVD Writer 1070d Adapter: 2 ID: 0

Read mode : Secure
Utilize accurate stream : Yes
Defeat audio cache : Yes
Make use of C2 pointers : No

Read offset correction : 6
Overread into Lead-In and Lead-Out : No
Fill up missing offset samples with silence : Yes
Delete leading and trailing silent blocks : No
Null samples used in CRC calculations : Yes
Used interface : Native Win32 interface for Win NT & 2000

Used output format : User Defined Encoder
Selected bitrate : 768 kBit/s
Quality : High
Add ID3 tag : No
Command line compressor : C:\Program Files (x86)\Exact Audio Copy\FLAC\FLAC.EXE
Additional command line options : -V -8 -T "Date=%year%" -T "Genre=%genre%" %source% %dest%

TOC of the extracted CD

Track | Start | Length | Start sector | End sector
---------------------------------------------------------
1 | 0:00.00 | 3:51.50 | 0 | 17374
2 | 3:51.50 | 4:30.10 | 17375 | 37634
3 | 8:21.60 | 4:00.57 | 37635 | 55691
4 | 12:22.42 | 3:47.53 | 55692 | 72769
5 | 16:10.20 | 4:22.00 | 72770 | 92419
6 | 20:32.20 | 4:02.67 | 92420 | 110636
7 | 24:35.12 | 3:46.28 | 110637 | 127614
8 | 28:21.40 | 4:16.57 | 127615 | 146871
9 | 32:38.22 | 5:14.38 | 146872 | 170459
10 | 37:52.60 | 3:57.62 | 170460 | 188296

Range status and errors

Selected range

Filename D:\Depeche Mode - The Singles 81-98\The Singles 86-98\CD1\Depeche Mode - The Singles 86-98 - (CD1).wav

Peak level 100.0 %
Extraction speed 2.8 X
Range quality 100.0 %
Test CRC 26DD92DA
Copy CRC 26DD92DA
Copy OK

No errors occurred

AccurateRip summary
Track 1 accurately ripped (confidence 82) [E5BEAC38] (AR v2)
Track 2 accurately ripped (confidence 82) [FD373F51] (AR v2)
Track 3 accurately ripped (confidence 82) [A2D84052] (AR v2)
Track 4 accurately ripped (confidence 82) [21B0D7D0] (AR v2)
Track 5 accurately ripped (confidence 82) [27C01579] (AR v2)
Track 6 accurately ripped (confidence 82) [805637C8] (AR v2)
Track 7 accurately ripped (confidence 82) [82950696] (AR v2)
Track 8 accurately ripped (confidence 82) [A3B6DEA5] (AR v2)
Track 9 accurately ripped (confidence 83) [3120122D] (AR v2)
Track 10 accurately ripped (confidence 83) [762740A5] (AR v2)
All tracks accurately ripped

End of status report

==== Log checksum ED8E161D25B9A4F9EE40600AD87CAB8A39478ABCA3D9D95C6B057A421BA94CB2 ====
 
REM GENRE Synthpop
REM DATE 1998
REM DISCID 7A09CE0A
REM COMMENT "ExactAudioCopy v1.0b3"
PERFORMER "Depeche Mode"
TITLE "The Singles 86-98 - (CD1)"
FILE "Depeche Mode - The Singles 86-98 - (CD1).flac" WAVE
TRACK 01 AUDIO
TITLE "Stripped"
PERFORMER "Depeche Mode"
INDEX 01 00:00:00
TRACK 02 AUDIO
TITLE "A Question Of Lust"
PERFORMER "Depeche Mode"
INDEX 01 03:51:50
TRACK 03 AUDIO
TITLE "A Question Of Time"
PERFORMER "Depeche Mode"
INDEX 00 08:19:72
INDEX 01 08:21:60
TRACK 04 AUDIO
TITLE "Strangelove"
PERFORMER "Depeche Mode"
INDEX 00 12:20:25
INDEX 01 12:22:42
TRACK 05 AUDIO
TITLE "Never Let Me Down Again"
PERFORMER "Depeche Mode"
INDEX 00 16:07:37
INDEX 01 16:10:20
TRACK 06 AUDIO
TITLE "Behind The Wheel"
PERFORMER "Depeche Mode"
INDEX 00 20:31:02
INDEX 01 20:32:20
TRACK 07 AUDIO
TITLE "Personal Jesus"
PERFORMER "Depeche Mode"
INDEX 00 24:32:55
INDEX 01 24:35:12
TRACK 08 AUDIO
TITLE "Enjoy The Silence"
PERFORMER "Depeche Mode"
INDEX 01 28:21:40
TRACK 09 AUDIO
TITLE "Policy Of Truth"
PERFORMER "Depeche Mode"
INDEX 00 32:36:20
INDEX 01 32:38:22
TRACK 10 AUDIO
TITLE "World In My Eyes"
PERFORMER "Depeche Mode"
INDEX 00 37:51:15
INDEX 01 37:52:60
 
AUDIOCHECKER v1.2 - by Dester - opdester@freemail.hu
~~~~~~~~~~~~~~~~~

1 -===- D:\Depeche Mode - The Singles 81-98\The Singles 86-98\CD2\Depeche Mode - The Singles 86-98 - (CD2).flac
Extracted successfully
Conclusion: This track looks like CDDA with probability 100%
 
Exact Audio Copy V1.0 beta 3 from 29. August 2011

EAC extraction logfile from 21. August 2013, 18:08

Depeche Mode / The Singles 86-98 - (CD2)

Used drive : HP DVD Writer 1070d Adapter: 2 ID: 0

Read mode : Secure
Utilize accurate stream : Yes
Defeat audio cache : Yes
Make use of C2 pointers : No

Read offset correction : 6
Overread into Lead-In and Lead-Out : No
Fill up missing offset samples with silence : Yes
Delete leading and trailing silent blocks : No
Null samples used in CRC calculations : Yes
Used interface : Native Win32 interface for Win NT & 2000

Used output format : User Defined Encoder
Selected bitrate : 768 kBit/s
Quality : High
Add ID3 tag : No
Command line compressor : C:\Program Files (x86)\Exact Audio Copy\FLAC\FLAC.EXE
Additional command line options : -V -8 -T "Date=%year%" -T "Genre=%genre%" %source% %dest%

TOC of the extracted CD

Track | Start | Length | Start sector | End sector
---------------------------------------------------------
1 | 0:00.42 | 4:35.48 | 42 | 20714
2 | 4:36.15 | 5:02.00 | 20715 | 43364
3 | 9:38.15 | 3:23.25 | 43365 | 58614
4 | 13:01.40 | 4:50.17 | 58615 | 80381
5 | 17:51.57 | 5:27.03 | 80382 | 104909
6 | 23:18.60 | 5:59.20 | 104910 | 131854
7 | 29:18.05 | 5:46.10 | 131855 | 157814
8 | 35:04.15 | 4:53.25 | 157815 | 179814
9 | 39:57.40 | 4:41.32 | 179815 | 200921
10 | 44:38.72 | 4:13.73 | 200922 | 219969
11 | 48:52.70 | 6:38.25 | 219970 | 249844

Range status and errors

Selected range

Filename D:\Depeche Mode - The Singles 81-98\The Singles 86-98\CD2\Depeche Mode - The Singles 86-98 - (CD2).wav

Peak level 100.0 %
Extraction speed 3.0 X
Range quality 99.9 %
Test CRC 9F0A81FB
Copy CRC 9F0A81FB
Copy OK

No errors occurred

AccurateRip summary
Track 1 accurately ripped (confidence 79) [0C3EB78F] (AR v2)
Track 2 accurately ripped (confidence 79) [C9DAF3EE] (AR v2)
Track 3 accurately ripped (confidence 79) [CE8578E0] (AR v2)
Track 4 accurately ripped (confidence 79) [F8EF1F88] (AR v2)
Track 5 accurately ripped (confidence 79) [99F72CC5] (AR v2)
Track 6 accurately ripped (confidence 79) [181E23C6] (AR v2)
Track 7 accurately ripped (confidence 78) [45AEE38E] (AR v2)
Track 8 accurately ripped (confidence 78) [B7C45827] (AR v2)
Track 9 accurately ripped (confidence 78) [21B4B3F6] (AR v2)
Track 10 accurately ripped (confidence 78) [448B20D9] (AR v2)
Track 11 accurately ripped (confidence 79) [2344D808] (AR v2)
All tracks accurately ripped

End of status report

==== Log checksum 71F94E9B1B619829DD26C582A05F9B9FD266C87CE570CCDA239AF900C0D35754 ====
 
REM GENRE Synthpop
REM DATE 1998
REM DISCID 920D030B
REM COMMENT "ExactAudioCopy v1.0b3"
PERFORMER "Depeche Mode"
TITLE "The Singles 86-98 - (CD2)"
FILE "Depeche Mode - The Singles 86-98 - (CD2).flac" WAVE
TRACK 01 AUDIO
TITLE "I Feel You"
PERFORMER "Depeche Mode"
INDEX 00 00:00:00
INDEX 01 00:00:42
TRACK 02 AUDIO
TITLE "Walking In My Shoes"
PERFORMER "Depeche Mode"
INDEX 01 04:36:15
TRACK 03 AUDIO
TITLE "Condemnation"
PERFORMER "Depeche Mode"
INDEX 00 09:36:07
INDEX 01 09:38:15
TRACK 04 AUDIO
TITLE "In Your Room"
PERFORMER "Depeche Mode"
INDEX 01 13:01:40
TRACK 05 AUDIO
TITLE "Barrel Of A Gun"
PERFORMER "Depeche Mode"
INDEX 01 17:51:57
TRACK 06 AUDIO
TITLE "It's No Good"
PERFORMER "Depeche Mode"
INDEX 01 23:18:60
TRACK 07 AUDIO
TITLE "Home"
PERFORMER "Depeche Mode"
INDEX 01 29:18:05
TRACK 08 AUDIO
TITLE "Useless"
PERFORMER "Depeche Mode"
INDEX 01 35:04:15
TRACK 09 AUDIO
TITLE "Only When I Lose Myself"
PERFORMER "Depeche Mode"
INDEX 00 39:55:70
INDEX 01 39:57:40
TRACK 10 AUDIO
TITLE "Little 15"
PERFORMER "Depeche Mode"
INDEX 00 44:31:37
INDEX 01 44:38:72
TRACK 11 AUDIO
TITLE "Everything Counts (Live)"
PERFORMER "Depeche Mode"
INDEX 00 48:51:22
INDEX 01 48:52:70

info [Профиль]  [ЛС] 
Показать сообщения:    
Ответить на тему

Текущее время: 23-Май 23:45

Часовой пояс: GMT + 4



Вы не можете начинать темы
Вы не можете отвечать на сообщения
Вы не можете редактировать свои сообщения
Вы не можете удалять свои сообщения
Вы не можете голосовать в опросах
Вы не можете прикреплять файлы к сообщениям
Вы не можете скачивать файлы