Ошибка

(Industrial) Synapscape ‎– Synapscape - 1995, FLAC (tracks+.cue)+cover, lossless

Ответить на тему
 
Автор Сообщение

Fobosov

Пол: Пол:Муж

Стаж: 9 лет 6 месяцев

Сообщений: 73

Предупреждений: 1

Украина
Рейтинг

post 04-Июл-2013 20:44 0[+]

[Цитировать] 

Synapscape ‎– Synapscape


pic="http://s001.youpic.su/pictures/1372881600/21e7c1688f1cea39a8e68b34688dcd39.jpeg"


Жанр: Industrial
Год издания данного носителя: 1995
Страна-производитель носителя: Germany
Лейбл: Ant-Zen
Каталоговый номер: act 27
Аудио кодек: FLAC
Тип рипа: tracks+.cue
Битрейт аудио: lossless
Продолжительность: 01:06:03
Полиграфия: Присутствует
Треклист:
01. Dream (Subliminal) (6:52)
02. Media Minded (4:18)
03. Fiendish (5:21)
04. My Race (8:02)
05. Set Smiled (3:35)
06. No Fright (4:43)
07. Inner Strategy (4:49)
08. Schutz (5:03)
09. My Turn (7:05)
10. Situation Two (3:38)
11. Drastic Significance (4:17)
12. Oblivion (8:20)
Exact Audio Copy V0.99 prebeta 4 from 23. January 2008 

EAC extraction logfile from 17. August 2008, 19:47

Synapscape / Synapscape

Used drive : PHILIPS DVD+-RW DVD8701 Adapter: 0 ID: 1

Read mode : Secure
Utilize accurate stream : Yes
Defeat audio cache : Yes
Make use of C2 pointers : No

Read offset correction : 618
Overread into Lead-In and Lead-Out : No
Fill up missing offset samples with silence : Yes
Delete leading and trailing silent blocks : No
Null samples used in CRC calculations : Yes
Used interface : Installed external ASPI interface
Gap handling : Appended to previous track

Used output format : User Defined Encoder
Selected bitrate : 192 kBit/s
Quality : High
Add ID3 tag : No
Command line compressor : C:Program FilesExact Audio CopyFlacflac.exe
Additional command line options : -V -8 -T "artist=%a" -T "title=%t" -T "album=%g" -T "date=%y" -T "tracknumber=%n" -T "genre=%m" %s

TOC of the extracted CD

Track | Start | Length | Start sector | End sector
---------------------------------------------------------
1 | 0:00.00 | 6:52.35 | 0 | 30934
2 | 6:52.35 | 4:17.63 | 30935 | 50272
3 | 11:10.23 | 5:21.15 | 50273 | 74362
4 | 16:31.38 | 8:02.37 | 74363 | 110549
5 | 24:34.00 | 3:35.05 | 110550 | 126679
6 | 28:09.05 | 4:42.55 | 126680 | 147884
7 | 32:51.60 | 4:49.25 | 147885 | 169584
8 | 37:41.10 | 5:02.60 | 169585 | 192294
9 | 42:43.70 | 7:04.40 | 192295 | 224134
10 | 49:48.35 | 3:38.00 | 224135 | 240484
11 | 53:26.35 | 4:17.10 | 240485 | 259769
12 | 57:43.45 | 8:20.13 | 259770 | 297282

Track 1

Filename C:AFSynapscape - Synapscape [flac]�1 - Dream (Subliminal).wav

Pre-gap length 0:00:02.00

Peak level 98.0 %
Track quality 100.0 %
Test CRC 93DB8BB3
Copy CRC 93DB8BB3
Track not present in AccurateRip database
Copy OK

Track 2

Filename C:AFSynapscape - Synapscape [flac]�2 - Media Minded.wav

Pre-gap length 0:00:03.12

Peak level 97.9 %
Track quality 100.0 %
Test CRC A0BB2D7A
Copy CRC A0BB2D7A
Track not present in AccurateRip database
Copy OK

Track 3

Filename C:AFSynapscape - Synapscape [flac]�3 - Fiendish.wav

Pre-gap length 0:00:03.16

Peak level 98.0 %
Track quality 100.0 %
Test CRC C85285E7
Copy CRC C85285E7
Track not present in AccurateRip database
Copy OK

Track 4

Filename C:AFSynapscape - Synapscape [flac]�4 - My Race.wav

Pre-gap length 0:00:02.82

Peak level 98.0 %
Track quality 99.9 %
Test CRC F189AF98
Copy CRC F189AF98
Track not present in AccurateRip database
Copy OK

Track 5

Filename C:AFSynapscape - Synapscape [flac]�5 - Set Smiled.wav

Pre-gap length 0:00:02.92

Peak level 98.0 %
Track quality 100.0 %
Test CRC 2D71739C
Copy CRC 2D71739C
Track not present in AccurateRip database
Copy OK

Track 6

Filename C:AFSynapscape - Synapscape [flac]�6 - No Fright.wav

Pre-gap length 0:00:03.09

Peak level 98.0 %
Track quality 100.0 %
Test CRC 68F5E7BE
Copy CRC 68F5E7BE
Track not present in AccurateRip database
Copy OK

Track 7

Filename C:AFSynapscape - Synapscape [flac]�7 - Inner Strategy.wav

Pre-gap length 0:00:02.98

Peak level 98.0 %
Track quality 100.0 %
Test CRC 7150ABE6
Copy CRC 7150ABE6
Track not present in AccurateRip database
Copy OK

Track 8

Filename C:AFSynapscape - Synapscape [flac]�8 - Schutz.wav

Pre-gap length 0:00:04.05

Peak level 98.0 %
Track quality 100.0 %
Test CRC FA77934B
Copy CRC FA77934B
Track not present in AccurateRip database
Copy OK

Track 9

Filename C:AFSynapscape - Synapscape [flac]�9 - My Turn.wav

Pre-gap length 0:00:02.96

Peak level 98.0 %
Track quality 100.0 %
Test CRC 8A684DD5
Copy CRC 8A684DD5
Track not present in AccurateRip database
Copy OK

Track 10

Filename C:AFSynapscape - Synapscape [flac]10 - Situation Two.wav

Pre-gap length 0:00:04.42

Peak level 98.0 %
Track quality 100.0 %
Test CRC BBC3F9FB
Copy CRC BBC3F9FB
Track not present in AccurateRip database
Copy OK

Track 11

Filename C:AFSynapscape - Synapscape [flac]11 - Drastic Significance.wav

Pre-gap length 0:00:04.10

Peak level 98.0 %
Track quality 100.0 %
Test CRC 288512FA
Copy CRC 288512FA
Track not present in AccurateRip database
Copy OK

Track 12

Filename C:AFSynapscape - Synapscape [flac]12 - Oblivion.wav

Pre-gap length 0:00:02.92

Peak level 98.0 %
Track quality 100.0 %
Test CRC 00E8327C
Copy CRC 00E8327C
Track not present in AccurateRip database
Copy OK

None of the tracks are present in the AccurateRip database

No errors occurred

End of status report
REM GENRE Industrial 
REM DATE 1995
REM DISCID B80F7B0C
REM COMMENT "ExactAudioCopy v0.99pb4"
PERFORMER "Synapscape"
TITLE "Synapscape"
FILE "01 - Dream (Subliminal).wav" WAVE
TRACK 01 AUDIO
TITLE "Dream (Subliminal)"
PERFORMER "Synapscape"
FLAGS DCP
INDEX 01 00:00:00
TRACK 02 AUDIO
TITLE "Media Minded"
PERFORMER "Synapscape"
FLAGS DCP
INDEX 00 06:49:26
FILE "02 - Media Minded.wav" WAVE
INDEX 01 00:00:00
TRACK 03 AUDIO
TITLE "Fiendish"
PERFORMER "Synapscape"
FLAGS DCP
INDEX 00 04:14:51
FILE "03 - Fiendish.wav" WAVE
INDEX 01 00:00:00
TRACK 04 AUDIO
TITLE "My Race"
PERFORMER "Synapscape"
FLAGS DCP
INDEX 00 05:18:28
FILE "04 - My Race.wav" WAVE
INDEX 01 00:00:00
TRACK 05 AUDIO
TITLE "Set Smiled"
PERFORMER "Synapscape"
FLAGS DCP
INDEX 00 07:59:43
FILE "05 - Set Smiled.wav" WAVE
INDEX 01 00:00:00
TRACK 06 AUDIO
TITLE "No Fright"
PERFORMER "Synapscape"
FLAGS DCP
INDEX 00 03:31:73
FILE "06 - No Fright.wav" WAVE
INDEX 01 00:00:00
TRACK 07 AUDIO
TITLE "Inner Strategy"
PERFORMER "Synapscape"
FLAGS DCP
INDEX 00 04:39:56
FILE "07 - Inner Strategy.wav" WAVE
INDEX 01 00:00:00
TRACK 08 AUDIO
TITLE "Schutz"
PERFORMER "Synapscape"
FLAGS DCP
INDEX 00 04:45:21
FILE "08 - Schutz.wav" WAVE
INDEX 01 00:00:00
TRACK 09 AUDIO
TITLE "My Turn"
PERFORMER "Synapscape"
FLAGS DCP
INDEX 00 04:59:63
FILE "09 - My Turn.wav" WAVE
INDEX 01 00:00:00
TRACK 10 AUDIO
TITLE "Situation Two"
PERFORMER "Synapscape"
FLAGS DCP
INDEX 00 07:00:08
FILE "10 - Situation Two.wav" WAVE
INDEX 01 00:00:00
TRACK 11 AUDIO
TITLE "Drastic Significance"
PERFORMER "Synapscape"
FLAGS DCP
INDEX 00 03:33:67
FILE "11 - Drastic Significance.wav" WAVE
INDEX 01 00:00:00
TRACK 12 AUDIO
TITLE "Oblivion"
PERFORMER "Synapscape"
FLAGS DCP
INDEX 00 04:14:16
FILE "12 - Oblivion.wav" WAVE
INDEX 01 00:00:00

info [Профиль]  [ЛС] 

ВасяСержо

Пол: Пол:Муж

Стаж: 10 лет

Сообщений: 55

Россия
Рейтинг

post 05-Июл-2013 20:09 (спустя 23 часа) [-]0[+]

[Цитировать] 

Посмотрел Клип. Дур-дом полный ))) http://www.youtube.com/watch?v=vCnAUGu9pN4
info [Профиль]  [ЛС] 
Показать сообщения:    
Ответить на тему

Текущее время: 16-Май 20:15

Часовой пояс: GMT + 4



Вы не можете начинать темы
Вы не можете отвечать на сообщения
Вы не можете редактировать свои сообщения
Вы не можете удалять свои сообщения
Вы не можете голосовать в опросах
Вы не можете прикреплять файлы к сообщениям
Вы не можете скачивать файлы