Ошибка

(Country) Johnny Cash - American Recordings - 1994-2010, FLAC (tracks+.cue)+cover, lossless

Ответить на тему
 
Автор Сообщение

The Royal

Пол: Пол:Муж

Стаж: 10 лет

Сообщений: 673

Россия
Рейтинг

post 19-Сен-2012 15:08 2[+]

[Цитировать] 

pic="http://4.bp.blogspot.com/_mfMRTBDpgkM/S4fl59S7GdI/AAAAAAAAKzI/_D-NM2ZOpmo/s400/johnny-cash-finger.jpg"
Johnny Cash - American Recordings

Жанр: Country
Год издания данного носителя: 1994 - 2010
Страна-производитель носителя: USA
Аудио кодек: FLAC
Тип рипа: tracks+.cue
Битрейт аудио: lossless
Продолжительность: 04:15:04
Полиграфия: Присутствует

01 Delia's Gone 2:18
02 Let The Train Blow The Whistle 2:16
03 The Beast In Me 2:46
04 Drive On 2:24
05 Why Me Lord 2:20
06 Thirteen 2:30
07 Oh Bury Me Not 3:53
08 Bird On A Wire 4:02
09 Tennessee Stud 2:55
10 Down There By The Train 5:35
11 Redemption 3:04
12 Like A Soldier 2:50
13 The Man Who Couldn't Cry 5:02
Exact Audio Copy V0.99 prebeta 4 from 23. January 2008 

EAC extraction logfile from 5. April 2009, 21:22

Johnny Cash / American Recordings

Used drive : HL-DT-STDVDRAM GSA-4163B Adapter: 0 ID: 1

Read mode : Secure
Utilize accurate stream : Yes
Defeat audio cache : Yes
Make use of C2 pointers : No

Read offset correction : 667
Overread into Lead-In and Lead-Out : No
Fill up missing offset samples with silence : Yes
Delete leading and trailing silent blocks : No
Null samples used in CRC calculations : Yes
Used interface : Native Win32 interface for Win NT & 2000
Gap handling : Appended to previous track

Used output format : User Defined Encoder
Selected bitrate : 128 kBit/s
Quality : High
Add ID3 tag : No
Command line compressor : C:\Program Files\FLAC\flac.exe
Additional command line options : -V -8 -T "artist=%a" -T "title=%t" -T "album=%g" -T "date=%y" -T "tracknumber=%n" -T "genre=%m" %s

TOC of the extracted CD

Track | Start | Length | Start sector | End sector
---------------------------------------------------------
1 | 0:00.32 | 2:18.33 | 32 | 10414
2 | 2:18.65 | 2:15.65 | 10415 | 20604
3 | 4:34.55 | 2:45.52 | 20605 | 33031
4 | 7:20.32 | 2:23.53 | 33032 | 43809
5 | 9:44.10 | 2:20.37 | 43810 | 54346
6 | 12:04.47 | 2:29.60 | 54347 | 65581
7 | 14:34.32 | 3:52.48 | 65582 | 83029
8 | 18:27.05 | 4:01.52 | 83030 | 101156
9 | 22:28.57 | 2:54.48 | 101157 | 114254
10 | 25:23.30 | 5:34.55 | 114255 | 139359
11 | 30:58.10 | 3:03.47 | 139360 | 153131
12 | 34:01.57 | 2:50.25 | 153132 | 165906
13 | 36:52.07 | 5:02.03 | 165907 | 188559

Track 1

Filename e:\rips\Johnny Cash - 1994 - American Recordings\01 - Delia's Gone.wav

Pre-gap length 0:00:02.42

Peak level 89.1 %
Track quality 100.0 %
Test CRC B8E4958B
Copy CRC B8E4958B
Accurately ripped (confidence 11) [D1AC8B8B]
Copy OK

Track 2

Filename e:\rips\Johnny Cash - 1994 - American Recordings\02 - Let The Train Blow The Whistle.wav

Peak level 97.0 %
Track quality 100.0 %
Test CRC A07F77A1
Copy CRC A07F77A1
Accurately ripped (confidence 11) [DC75C6A9]
Copy OK

Track 3

Filename e:\rips\Johnny Cash - 1994 - American Recordings\03 - The Beast In Me.wav

Peak level 84.4 %
Track quality 99.9 %
Test CRC 75CFC159
Copy CRC 75CFC159
Accurately ripped (confidence 11) [C429C3D5]
Copy OK

Track 4

Filename e:\rips\Johnny Cash - 1994 - American Recordings\04 - Drive On.wav

Peak level 75.5 %
Track quality 100.0 %
Test CRC C1218C4E
Copy CRC C1218C4E
Accurately ripped (confidence 11) [C79BBC8D]
Copy OK

Track 5

Filename e:\rips\Johnny Cash - 1994 - American Recordings\05 - Why Me Lord.wav

Pre-gap length 0:00:00.30

Peak level 85.5 %
Track quality 100.0 %
Test CRC 156899EC
Copy CRC 156899EC
Accurately ripped (confidence 11) [3C3F1A5B]
Copy OK

Track 6

Filename e:\rips\Johnny Cash - 1994 - American Recordings\06 - Thirteen.wav

Peak level 77.2 %
Track quality 100.0 %
Test CRC 131B3D3B
Copy CRC 131B3D3B
Accurately ripped (confidence 11) [713A7F56]
Copy OK

Track 7

Filename e:\rips\Johnny Cash - 1994 - American Recordings\07 - Oh Bury Me Not.wav

Peak level 60.4 %
Track quality 100.0 %
Test CRC FF18CD4A
Copy CRC FF18CD4A
Accurately ripped (confidence 11) [A283F35E]
Copy OK

Track 8

Filename e:\rips\Johnny Cash - 1994 - American Recordings\08 - Bird On A Wire.wav

Pre-gap length 0:00:00.66

Peak level 90.2 %
Track quality 100.0 %
Test CRC 3A5CBFEF
Copy CRC 3A5CBFEF
Accurately ripped (confidence 11) [F7EAECAD]
Copy OK

Track 9

Filename e:\rips\Johnny Cash - 1994 - American Recordings\09 - Tennessee Stud.wav

Peak level 68.3 %
Track quality 100.0 %
Test CRC 7035415C
Copy CRC 7035415C
Accurately ripped (confidence 11) [F76D105B]
Copy OK

Track 10

Filename e:\rips\Johnny Cash - 1994 - American Recordings\10 - Down There By The Train.wav

Peak level 91.3 %
Track quality 99.9 %
Test CRC 29ACBE06
Copy CRC 29ACBE06
Accurately ripped (confidence 11) [83449FC0]
Copy OK

Track 11

Filename e:\rips\Johnny Cash - 1994 - American Recordings\11 - Redemption.wav

Peak level 76.5 %
Track quality 99.9 %
Test CRC 22C067B9
Copy CRC 22C067B9
Accurately ripped (confidence 11) [D8EE94B2]
Copy OK

Track 12

Filename e:\rips\Johnny Cash - 1994 - American Recordings\12 - Like A Soldier.wav

Peak level 63.8 %
Track quality 99.9 %
Test CRC 6BFD9862
Copy CRC 6BFD9862
Accurately ripped (confidence 11) [6D911B53]
Copy OK

Track 13

Filename e:\rips\Johnny Cash - 1994 - American Recordings\13 - The Man Who Couldn't Cry.wav

Peak level 96.0 %
Track quality 100.0 %
Test CRC DCECC551
Copy CRC DCECC551
Accurately ripped (confidence 11) [C7BEB1FF]
Copy OK

All tracks accurately ripped

No errors occurred

End of status report
REM GENRE Country 
REM DATE 1994
REM DISCID 9909D20D
REM COMMENT "ExactAudioCopy v0.99pb4"
FILE "01 - Delia's Gone.flac" WAVE
TRACK 01 AUDIO
PREGAP 00:00:32
INDEX 01 00:00:00
FILE "02 - Let The Train Blow The Whistle.flac" WAVE
TRACK 02 AUDIO
INDEX 01 00:00:00
FILE "03 - The Beast In Me.flac" WAVE
TRACK 03 AUDIO
INDEX 01 00:00:00
FILE "04 - Drive On.flac" WAVE
TRACK 04 AUDIO
INDEX 01 00:00:00
FILE "05 - Why Me Lord.flac" WAVE
TRACK 05 AUDIO
INDEX 01 00:00:00
FILE "06 - Thirteen.flac" WAVE
TRACK 06 AUDIO
INDEX 01 00:00:00
FILE "07 - Oh Bury Me Not.flac" WAVE
TRACK 07 AUDIO
INDEX 01 00:00:00
FILE "08 - Bird On A Wire.flac" WAVE
TRACK 08 AUDIO
INDEX 01 00:00:00
FILE "09 - Tennessee Stud.flac" WAVE
TRACK 09 AUDIO
INDEX 01 00:00:00
FILE "10 - Down There By The Train.flac" WAVE
TRACK 10 AUDIO
INDEX 01 00:00:00
FILE "11 - Redemption.flac" WAVE
TRACK 11 AUDIO
INDEX 01 00:00:00
FILE "12 - Like A Soldier.flac" WAVE
TRACK 12 AUDIO
INDEX 01 00:00:00
FILE "13 - The Man Who Couldn't Cry.flac" WAVE
TRACK 13 AUDIO
INDEX 01 00:00:00
01 Rowboat 3:44
02 Sea Of Heartbreak 2:43
03 Rusty Cage 2:50
04 The One Rose (That's Left In My Heart) 2:26
05 Country Boy 2:31
06 Memories Are Made Of This 2:19
07 Spiritual 5:07
08 The Kneeling Drunkard's Plea 2:33
09 Southern Accents 4:41
10 Mean Eyed Cat 2:34
11 Meet Me In Heaven 3:22
12 I Never Picked Cotton 2:39
13 Unchained 2:52
14 I've Been Everywhere 3:18
EAC extraction logfile from 25. March 2007, 22:20 for CD 
Johnny Cash / Unchained

Used drive : PHILIPS DVD+-RW DVD8701 Adapter: 1 ID: 1
Read mode : Secure with NO C2, accurate stream, disable cache
Read offset correction : 618
Overread into Lead-In and Lead-Out : No

Used output format : C:\Program Files\Exact Audio Copy\flac-1.1.4-win\bin\flac.exe (User Defined Encoder)
192 kBit/s
Additional command line options : -8 -A tukey(0.25) -A gauss(0.1875) -b 4096 -V -T "artist=%a" -T "title=%t" -T "album=%g" -T "date=%y" -T "tracknumber=%n" -T "genre=%m" %s --sector-align

Other options :
Fill up missing offset samples with silence : Yes
Delete leading and trailing silent blocks : No
Installed external ASPI interface

Track 1
Filename V:\Uploads\Johnny Cash - American II Unchained [FLAC] [Log]\01 - Johnny Cash - Rowboat.wav

Pre-gap length 0:00:02.00

Peak level 100.0 %
Track quality 99.9 %
Test CRC F1868F9E
Copy CRC F1868F9E
Copy OK

Track 2
Filename V:\Uploads\Johnny Cash - American II Unchained [FLAC] [Log]\02 - Johnny Cash - Sea Of Heartbreak.wav

Peak level 100.0 %
Track quality 100.0 %
Test CRC 8E5B0359
Copy CRC 8E5B0359
Copy OK

Track 3
Filename V:\Uploads\Johnny Cash - American II Unchained [FLAC] [Log]\03 - Johnny Cash - Rusty Cage.wav

Peak level 97.7 %
Track quality 100.0 %
Test CRC 50B445AF
Copy CRC 50B445AF
Copy OK

Track 4
Filename V:\Uploads\Johnny Cash - American II Unchained [FLAC] [Log]\04 - Johnny Cash - The One Rose (That's Left In My Heart).wav

Pre-gap length 0:00:01.06

Peak level 82.2 %
Track quality 100.0 %
Test CRC 48AA43CC
Copy CRC 48AA43CC
Copy OK

Track 5
Filename V:\Uploads\Johnny Cash - American II Unchained [FLAC] [Log]\05 - Johnny Cash - Country Boy.wav

Peak level 97.7 %
Track quality 100.0 %
Test CRC B27063D3
Copy CRC B27063D3
Copy OK

Track 6
Filename V:\Uploads\Johnny Cash - American II Unchained [FLAC] [Log]\06 - Johnny Cash - Memories Are Made Of This.wav

Peak level 98.8 %
Track quality 99.9 %
Test CRC 46E899DB
Copy CRC 46E899DB
Copy OK

Track 7
Filename V:\Uploads\Johnny Cash - American II Unchained [FLAC] [Log]\07 - Johnny Cash - Spiritual.wav

Peak level 99.5 %
Track quality 100.0 %
Test CRC F763D7B4
Copy CRC F763D7B4
Copy OK

Track 8
Filename V:\Uploads\Johnny Cash - American II Unchained [FLAC] [Log]\08 - Johnny Cash - The Kneeling Drunkard's Plea.wav

Peak level 100.0 %
Track quality 100.0 %
Test CRC 2AF4C294
Copy CRC 2AF4C294
Copy OK

Track 9
Filename V:\Uploads\Johnny Cash - American II Unchained [FLAC] [Log]\09 - Johnny Cash - Southern Accents.wav

Pre-gap length 0:00:01.14

Peak level 97.7 %
Track quality 100.0 %
Test CRC BF03CE1D
Copy CRC BF03CE1D
Copy OK

Track 10
Filename V:\Uploads\Johnny Cash - American II Unchained [FLAC] [Log]\10 - Johnny Cash - Mean Eyed Cat.wav

Peak level 98.6 %
Track quality 100.0 %
Test CRC C838DA95
Copy CRC C838DA95
Copy OK

Track 11
Filename V:\Uploads\Johnny Cash - American II Unchained [FLAC] [Log]\11 - Johnny Cash - Meet Me In Heaven.wav

Pre-gap length 0:00:01.10

Peak level 98.5 %
Track quality 99.9 %
Test CRC EFFAD0E8
Copy CRC EFFAD0E8
Copy OK

Track 12
Filename V:\Uploads\Johnny Cash - American II Unchained [FLAC] [Log]\12 - Johnny Cash - I Never Picked Cotton.wav

Peak level 99.2 %
Track quality 99.9 %
Test CRC CF9C2469
Copy CRC CF9C2469
Copy OK

Track 13
Filename V:\Uploads\Johnny Cash - American II Unchained [FLAC] [Log]\13 - Johnny Cash - Unchained.wav

Peak level 97.7 %
Track quality 100.0 %
Test CRC 02856ED1
Copy CRC 02856ED1
Copy OK

Track 14
Filename V:\Uploads\Johnny Cash - American II Unchained [FLAC] [Log]\14 - Johnny Cash - I've Been Everywhere.wav

Peak level 99.1 %
Track quality 100.0 %
Test CRC E50966D5
Copy CRC E50966D5
Copy OK

No errors occured

End of status report
REM GENRE Country 
REM DATE 1996
REM DISCID C30A390E
REM COMMENT "ExactAudioCopy v0.95b3"
PERFORMER "Johnny Cash"
TITLE "Unchained"
FILE "01 - Johnny Cash - Rowboat.wav" WAVE
TRACK 01 AUDIO
TITLE "Rowboat"
PERFORMER "Johnny Cash"
INDEX 01 00:00:00
FILE "02 - Johnny Cash - Sea Of Heartbreak.wav" WAVE
TRACK 02 AUDIO
TITLE "Sea Of Heartbreak"
PERFORMER "Johnny Cash"
FLAGS DCP
INDEX 01 00:00:00
FILE "03 - Johnny Cash - Rusty Cage.wav" WAVE
TRACK 03 AUDIO
TITLE "Rusty Cage"
PERFORMER "Johnny Cash"
FLAGS DCP
INDEX 01 00:00:00
FILE "04 - Johnny Cash - The One Rose (That's Left In My Heart).wav" WAVE
TRACK 04 AUDIO
TITLE "The One Rose (That's Left In My Heart)"
PERFORMER "Johnny Cash"
FLAGS DCP
INDEX 01 00:00:00
FILE "05 - Johnny Cash - Country Boy.wav" WAVE
TRACK 05 AUDIO
TITLE "Country Boy"
PERFORMER "Johnny Cash"
FLAGS DCP
INDEX 01 00:00:00
FILE "06 - Johnny Cash - Memories Are Made Of This.wav" WAVE
TRACK 06 AUDIO
TITLE "Memories Are Made Of This"
PERFORMER "Johnny Cash"
FLAGS DCP
INDEX 01 00:00:00
FILE "07 - Johnny Cash - Spiritual.wav" WAVE
TRACK 07 AUDIO
TITLE "Spiritual"
PERFORMER "Johnny Cash"
FLAGS DCP
INDEX 01 00:00:00
FILE "08 - Johnny Cash - The Kneeling Drunkard's Plea.wav" WAVE
TRACK 08 AUDIO
TITLE "The Kneeling Drunkard's Plea"
PERFORMER "Johnny Cash"
FLAGS DCP
INDEX 01 00:00:00
FILE "09 - Johnny Cash - Southern Accents.wav" WAVE
TRACK 09 AUDIO
TITLE "Southern Accents"
PERFORMER "Johnny Cash"
FLAGS DCP
INDEX 01 00:00:00
FILE "10 - Johnny Cash - Mean Eyed Cat.wav" WAVE
TRACK 10 AUDIO
TITLE "Mean Eyed Cat"
PERFORMER "Johnny Cash"
FLAGS DCP
INDEX 01 00:00:00
FILE "11 - Johnny Cash - Meet Me In Heaven.wav" WAVE
TRACK 11 AUDIO
TITLE "Meet Me In Heaven"
PERFORMER "Johnny Cash"
FLAGS DCP
INDEX 01 00:00:00
FILE "12 - Johnny Cash - I Never Picked Cotton.wav" WAVE
TRACK 12 AUDIO
TITLE "I Never Picked Cotton"
PERFORMER "Johnny Cash"
FLAGS DCP
INDEX 01 00:00:00
FILE "13 - Johnny Cash - Unchained.wav" WAVE
TRACK 13 AUDIO
TITLE "Unchained"
PERFORMER "Johnny Cash"
FLAGS DCP
INDEX 01 00:00:00
FILE "14 - Johnny Cash - I've Been Everywhere.wav" WAVE
TRACK 14 AUDIO
TITLE "I've Been Everywhere"
PERFORMER "Johnny Cash"
FLAGS DCP
INDEX 01 00:00:00
01 I Won't Back Down 2:09
02 Solitary Man 2:25
03 That Lucky Old Sun (Just Rolls Around Heaven All Day) 2:36
04 One 3:53
05 Nobody 3:14
06 I See a Darkness 3:43
07 The Mercy Seat 4:35
08 Would You Lay With Me (In A Field Of Stone) 2:41
09 Field Of Diamonds 3:16
10 Before My Time 2:55
11 Country Trash 1:48
12 Mary Of The Wild Moor 2:33
13 I'm Leavin' Now 3:07
14 Wayfaring Stranger 3:20
EAC extraction logfile from 3. July 2006, 21:41 for CD 
Johnny Cash / American Recordings - Vol. 3 - Solitary Man

Used drive : HL-DT-STDVDRAM GSA-4163B Adapter: 1 ID: 0
Read mode : Secure with NO C2, accurate stream, disable cache
Read offset correction : 667
Overread into Lead-In and Lead-Out : No

Used output format : C:\Program Files\FLAC\flac.exe (User Defined Encoder)
128 kBit/s
Additional command line options : -V -8 -T "artist=%a" -T "title=%t" -T "album=%g" -T "date=%y" -T "tracknumber=%n" -T "genre=%m" %s

Other options :
Fill up missing offset samples with silence : Yes
Delete leading and trailing silent blocks : No
Native Win32 interface for Win NT & 2000

Track 1
Filename C:\Documents and Settings\lars\Desktop\convert\cash americanIII\01 - I Won't Back Down.wav

Pre-gap length 0:00:02.00

Peak level 98.8 %
Track quality 100.0 %
Test CRC 264E2502
Copy CRC 264E2502
Copy OK

Track 2
Filename C:\Documents and Settings\lars\Desktop\convert\cash americanIII\02 - Solitary Man.wav

Pre-gap length 0:00:01.10

Peak level 98.8 %
Track quality 100.0 %
Test CRC F12E549F
Copy CRC F12E549F
Copy OK

Track 3
Filename C:\Documents and Settings\lars\Desktop\convert\cash americanIII\03 - That Lucky Old Sun (Just Rolls Around Heaven All Day).wav

Pre-gap length 0:00:01.61

Peak level 97.7 %
Track quality 100.0 %
Test CRC D0466188
Copy CRC D0466188
Copy OK

Track 4
Filename C:\Documents and Settings\lars\Desktop\convert\cash americanIII\04 - One.wav

Pre-gap length 0:00:01.41

Peak level 97.7 %
Track quality 99.9 %
Test CRC 71349381
Copy CRC 71349381
Copy OK

Track 5
Filename C:\Documents and Settings\lars\Desktop\convert\cash americanIII\05 - Nobody.wav

Pre-gap length 0:00:01.20

Peak level 98.8 %
Track quality 100.0 %
Test CRC 5EF39473
Copy CRC 5EF39473
Copy OK

Track 6
Filename C:\Documents and Settings\lars\Desktop\convert\cash americanIII\06 - I See a Darkness.wav

Pre-gap length 0:00:01.13

Peak level 97.7 %
Track quality 100.0 %
Test CRC 616C16F0
Copy CRC 616C16F0
Copy OK

Track 7
Filename C:\Documents and Settings\lars\Desktop\convert\cash americanIII\07 - The Mercy Seat.wav

Pre-gap length 0:00:01.06

Peak level 98.8 %
Track quality 100.0 %
Test CRC 5A728908
Copy CRC 5A728908
Copy OK

Track 8
Filename C:\Documents and Settings\lars\Desktop\convert\cash americanIII\08 - Would You Lay With Me (In A Field Of Stone).wav

Pre-gap length 0:00:01.13

Peak level 98.8 %
Track quality 100.0 %
Test CRC 64C3F79F
Copy CRC 64C3F79F
Copy OK

Track 9
Filename C:\Documents and Settings\lars\Desktop\convert\cash americanIII\09 - Field Of Diamonds.wav

Pre-gap length 0:00:01.44

Peak level 97.7 %
Track quality 100.0 %
Test CRC C6967CE5
Copy CRC C6967CE5
Copy OK

Track 10
Filename C:\Documents and Settings\lars\Desktop\convert\cash americanIII\10 - Before My Time.wav

Pre-gap length 0:00:01.20

Peak level 98.8 %
Track quality 100.0 %
Test CRC 1E21FC28
Copy CRC 1E21FC28
Copy OK

Track 11
Filename C:\Documents and Settings\lars\Desktop\convert\cash americanIII\11 - Country Trash.wav

Pre-gap length 0:00:01.37

Peak level 98.8 %
Track quality 99.9 %
Test CRC 69E68AED
Copy CRC 69E68AED
Copy OK

Track 12
Filename C:\Documents and Settings\lars\Desktop\convert\cash americanIII\12 - Mary Of The Wild Moor.wav

Pre-gap length 0:00:01.00

Peak level 93.0 %
Track quality 100.0 %
Test CRC 5561F8A8
Copy CRC 5561F8A8
Copy OK

Track 13
Filename C:\Documents and Settings\lars\Desktop\convert\cash americanIII\13 - I'm Leavin' Now.wav

Pre-gap length 0:00:01.04

Peak level 98.8 %
Track quality 99.9 %
Test CRC 5F13F61D
Copy CRC 5F13F61D
Copy OK

Track 14
Filename C:\Documents and Settings\lars\Desktop\convert\cash americanIII\14 - Wayfaring Stranger.wav

Pre-gap length 0:00:01.33

Peak level 98.8 %
Track quality 100.0 %
Test CRC 36115AC8
Copy CRC 36115AC8
Copy OK

No errors occured

End of status report
REM GENRE Country 
REM DATE 2000
REM DISCID C309E70E
REM COMMENT "ExactAudioCopy v0.95b4"
PERFORMER "Johnny Cash"
TITLE "American Recordings - Vol. 3 - Solitary Man"
FILE "01 - I Won't Back Down.wav" WAVE
TRACK 01 AUDIO
TITLE "I Won't Back Down"
PERFORMER "Johnny Cash"
INDEX 01 00:00:00
FILE "02 - Solitary Man.wav" WAVE
TRACK 02 AUDIO
TITLE "Solitary Man"
PERFORMER "Johnny Cash"
INDEX 01 00:00:00
FILE "03 - That Lucky Old Sun (Just Rolls Around Heaven All Day).wav" WAVE
TRACK 03 AUDIO
TITLE "That Lucky Old Sun (Just Rolls Around Heaven All Day)"
PERFORMER "Johnny Cash"
INDEX 01 00:00:00
FILE "04 - One.wav" WAVE
TRACK 04 AUDIO
TITLE "One"
PERFORMER "Johnny Cash"
INDEX 01 00:00:00
FILE "05 - Nobody.wav" WAVE
TRACK 05 AUDIO
TITLE "Nobody"
PERFORMER "Johnny Cash"
INDEX 01 00:00:00
FILE "06 - I See a Darkness.wav" WAVE
TRACK 06 AUDIO
TITLE "I See a Darkness"
PERFORMER "Johnny Cash"
INDEX 01 00:00:00
FILE "07 - The Mercy Seat.wav" WAVE
TRACK 07 AUDIO
TITLE "The Mercy Seat"
PERFORMER "Johnny Cash"
INDEX 01 00:00:00
FILE "08 - Would You Lay With Me (In A Field Of Stone).wav" WAVE
TRACK 08 AUDIO
TITLE "Would You Lay With Me (In A Field Of Stone)"
PERFORMER "Johnny Cash"
INDEX 01 00:00:00
FILE "09 - Field Of Diamonds.wav" WAVE
TRACK 09 AUDIO
TITLE "Field Of Diamonds"
PERFORMER "Johnny Cash"
INDEX 01 00:00:00
FILE "10 - Before My Time.wav" WAVE
TRACK 10 AUDIO
TITLE "Before My Time"
PERFORMER "Johnny Cash"
INDEX 01 00:00:00
FILE "11 - Country Trash.wav" WAVE
TRACK 11 AUDIO
TITLE "Country Trash"
PERFORMER "Johnny Cash"
INDEX 01 00:00:00
FILE "12 - Mary Of The Wild Moor.wav" WAVE
TRACK 12 AUDIO
TITLE "Mary Of The Wild Moor"
PERFORMER "Johnny Cash"
INDEX 01 00:00:00
FILE "13 - I'm Leavin' Now.wav" WAVE
TRACK 13 AUDIO
TITLE "I'm Leavin' Now"
PERFORMER "Johnny Cash"
INDEX 01 00:00:00
FILE "14 - Wayfaring Stranger.wav" WAVE
TRACK 14 AUDIO
TITLE "Wayfaring Stranger"
PERFORMER "Johnny Cash"
INDEX 01 00:00:00
01 The Man Comes Around 4:27
02 Hurt 3:39
03 Give My Love To Rose 3:29
04 Bridge Over Troubled Water (feat. Fiona Apple) 3:55
05 I Hung My Head 3:54
06 First Time Ever I Saw Your Face 3:52
07 Personal Jesus 3:20
08 In My Life 2:58
09 Sam Hall 2:40
10 Danny Boy 3:20
11 Desperado (feat. Don Henley) 3:13
12 I'm So Lonesome I Could Cry (Feat. Nick Cave) 3:03
13 Tear Stained Letter 3:41
14 Streets of Laredo 3:33
15 We'll Meet Again 2:59
Exact Audio Copy V0.99 prebeta 4 from 23. January 2008 

EAC extraction logfile from 17. May 2008, 23:00

Johnny Cash / American IV: The Man Comes Around

Used drive : TOSHIBA ODD-DVD SD-R6372 Adapter: 1 ID: 0

Read mode : Secure
Utilize accurate stream : Yes
Defeat audio cache : Yes
Make use of C2 pointers : No

Read offset correction : 116
Overread into Lead-In and Lead-Out : No
Fill up missing offset samples with silence : Yes
Delete leading and trailing silent blocks : No
Null samples used in CRC calculations : Yes
Used interface : Native Win32 interface for Win NT & 2000
Gap handling : Appended to previous track

Used output format : User Defined Encoder
Selected bitrate : 768 kBit/s
Quality : High
Add ID3 tag : No
Command line compressor : C:\Program Files\FLAC\flac.exe
Additional command line options : -V -8 -T "artist=%a" -T "title=%t" -T "album=%g" -T "date=%y" -T "tracknumber=%n" %s

TOC of the extracted CD

Track | Start | Length | Start sector | End sector
---------------------------------------------------------
1 | 0:00.00 | 4:26.55 | 0 | 20004
2 | 4:26.55 | 3:38.40 | 20005 | 36394
3 | 8:05.20 | 3:28.58 | 36395 | 52052
4 | 11:34.03 | 3:55.02 | 52053 | 69679
5 | 15:29.05 | 3:53.60 | 69680 | 87214
6 | 19:22.65 | 3:52.30 | 87215 | 104644
7 | 23:15.20 | 3:20.20 | 104645 | 119664
8 | 26:35.40 | 2:57.70 | 119665 | 133009
9 | 29:33.35 | 2:40.10 | 133010 | 145019
10 | 32:13.45 | 3:19.60 | 145020 | 160004
11 | 35:33.30 | 3:13.35 | 160005 | 174514
12 | 38:46.65 | 3:03.28 | 174515 | 188267
13 | 41:50.18 | 3:41.32 | 188268 | 204874
14 | 45:31.50 | 3:33.18 | 204875 | 220867
15 | 49:04.68 | 2:58.47 | 220868 | 234264

Track 1

Filename C:\Hi there RIAA, What's up IFPI\Johnny Cash - American IV; The Man Comes Around\01 - The Man Comes Around.wav

Pre-gap length 0:00:02.00

Peak level 96.1 %
Track quality 100.0 %
Test CRC F21B63B6
Copy CRC F21B63B6
Accurately ripped (confidence 116) [6934E475]
Copy OK

Track 2

Filename C:\Hi there RIAA, What's up IFPI\Johnny Cash - American IV; The Man Comes Around\02 - Hurt.wav

Peak level 100.0 %
Track quality 100.0 %
Test CRC A5F4EAF8
Copy CRC A5F4EAF8
Accurately ripped (confidence 120) [7FDDA0A4]
Copy OK

Track 3

Filename C:\Hi there RIAA, What's up IFPI\Johnny Cash - American IV; The Man Comes Around\03 - Give My Love To Rose.wav

Pre-gap length 0:00:02.00

Peak level 86.7 %
Track quality 100.0 %
Test CRC 39B11E53
Copy CRC 39B11E53
Accurately ripped (confidence 118) [C7D7E14A]
Copy OK

Track 4

Filename C:\Hi there RIAA, What's up IFPI\Johnny Cash - American IV; The Man Comes Around\04 - Bridge Over Troubled Water (Featuring Fiona Apple).wav

Pre-gap length 0:00:01.41

Peak level 98.3 %
Track quality 100.0 %
Test CRC CB0301F6
Copy CRC CB0301F6
Accurately ripped (confidence 120) [75AA85FE]
Copy OK

Track 5

Filename C:\Hi there RIAA, What's up IFPI\Johnny Cash - American IV; The Man Comes Around\05 - I Hung My Head.wav

Pre-gap length 0:00:00.14

Peak level 83.7 %
Track quality 100.0 %
Test CRC 5E7FD55B
Copy CRC 5E7FD55B
Accurately ripped (confidence 117) [C21D8F0F]
Copy OK

Track 6

Filename C:\Hi there RIAA, What's up IFPI\Johnny Cash - American IV; The Man Comes Around\06 - First Time Ever I Saw Your Face.wav

Pre-gap length 0:00:00.26

Peak level 91.5 %
Track quality 100.0 %
Test CRC 3A4EC438
Copy CRC 3A4EC438
Accurately ripped (confidence 119) [2ECDA21B]
Copy OK

Track 7

Filename C:\Hi there RIAA, What's up IFPI\Johnny Cash - American IV; The Man Comes Around\07 - Personal Jesus.wav

Pre-gap length 0:00:00.06

Peak level 83.6 %
Track quality 100.0 %
Test CRC 039D76AA
Copy CRC 039D76AA
Accurately ripped (confidence 119) [D407A6EB]
Copy OK

Track 8

Filename C:\Hi there RIAA, What's up IFPI\Johnny Cash - American IV; The Man Comes Around\08 - In My Life.wav

Pre-gap length 0:00:01.02

Peak level 86.9 %
Track quality 100.0 %
Test CRC 9320D107
Copy CRC 9320D107
Accurately ripped (confidence 119) [E1DC9900]
Copy OK

Track 9

Filename C:\Hi there RIAA, What's up IFPI\Johnny Cash - American IV; The Man Comes Around\09 - Sam Hall.wav

Pre-gap length 0:00:00.48

Peak level 87.7 %
Track quality 100.0 %
Test CRC 1568F4A6
Copy CRC 1568F4A6
Accurately ripped (confidence 118) [7E47ED64]
Copy OK

Track 10

Filename C:\Hi there RIAA, What's up IFPI\Johnny Cash - American IV; The Man Comes Around\10 - Danny Boy.wav

Pre-gap length 0:00:01.05

Peak level 89.6 %
Track quality 100.0 %
Test CRC 8DB9383B
Copy CRC 8DB9383B
Accurately ripped (confidence 116) [45BCA9E2]
Copy OK

Track 11

Filename C:\Hi there RIAA, What's up IFPI\Johnny Cash - American IV; The Man Comes Around\11 - Desperado (Featuring Don Henley).wav

Pre-gap length 0:00:01.22

Peak level 82.3 %
Track quality 100.0 %
Test CRC 92EF87FA
Copy CRC 92EF87FA
Accurately ripped (confidence 118) [AE2D1EAF]
Copy OK

Track 12

Filename C:\Hi there RIAA, What's up IFPI\Johnny Cash - American IV; The Man Comes Around\12 - I'm So Lonesome I Could Cry (Featuring Nick Cave).wav

Pre-gap length 0:00:00.50

Peak level 89.3 %
Track quality 100.0 %
Test CRC 7945E27F
Copy CRC 7945E27F
Accurately ripped (confidence 118) [86168B17]
Copy OK

Track 13

Filename C:\Hi there RIAA, What's up IFPI\Johnny Cash - American IV; The Man Comes Around\13 - Tear Stained Letter.wav

Pre-gap length 0:00:00.45

Peak level 84.1 %
Track quality 100.0 %
Test CRC 938D212F
Copy CRC 938D212F
Accurately ripped (confidence 118) [6F830DB4]
Copy OK

Track 14

Filename C:\Hi there RIAA, What's up IFPI\Johnny Cash - American IV; The Man Comes Around\14 - Streets Of Laredo.wav

Pre-gap length 0:00:02.14

Peak level 86.0 %
Track quality 100.0 %
Test CRC DE028F80
Copy CRC DE028F80
Accurately ripped (confidence 118) [CB0B02AF]
Copy OK

Track 15

Filename C:\Hi there RIAA, What's up IFPI\Johnny Cash - American IV; The Man Comes Around\15 - We'll Meet Again.wav

Peak level 88.9 %
Track quality 100.0 %
Test CRC 837AE0ED
Copy CRC 837AE0ED
Accurately ripped (confidence 117) [E749AD93]
Copy OK

All tracks accurately ripped

No errors occurred

End of status report
REM DATE 2002 
REM DISCID EB0C330F
REM COMMENT "ExactAudioCopy v0.99pb4"
PERFORMER "Johnny Cash"
TITLE "American IV: The Man Comes Around"
FILE "01 - The Man Comes Around.flac" WAVE
TRACK 01 AUDIO
TITLE "The Man Comes Around"
PERFORMER "Johnny Cash"
INDEX 01 00:00:00
FILE "02 - Hurt.flac" WAVE
TRACK 02 AUDIO
TITLE "Hurt"
PERFORMER "Johnny Cash"
INDEX 01 00:00:00
FILE "03 - Give My Love To Rose.flac" WAVE
TRACK 03 AUDIO
TITLE "Give My Love To Rose"
PERFORMER "Johnny Cash"
INDEX 01 00:00:00
FILE "04 - Bridge Over Troubled Water (Featuring Fiona Apple).flac" WAVE
TRACK 04 AUDIO
TITLE "Bridge Over Troubled Water (Featuring Fiona Apple)"
PERFORMER "Johnny Cash"
INDEX 01 00:00:00
FILE "05 - I Hung My Head.flac" WAVE
TRACK 05 AUDIO
TITLE "I Hung My Head"
PERFORMER "Johnny Cash"
INDEX 01 00:00:00
FILE "06 - First Time Ever I Saw Your Face.flac" WAVE
TRACK 06 AUDIO
TITLE "First Time Ever I Saw Your Face"
PERFORMER "Johnny Cash"
INDEX 01 00:00:00
FILE "07 - Personal Jesus.flac" WAVE
TRACK 07 AUDIO
TITLE "Personal Jesus"
PERFORMER "Johnny Cash"
INDEX 01 00:00:00
FILE "08 - In My Life.flac" WAVE
TRACK 08 AUDIO
TITLE "In My Life"
PERFORMER "Johnny Cash"
INDEX 01 00:00:00
FILE "09 - Sam Hall.flac" WAVE
TRACK 09 AUDIO
TITLE "Sam Hall"
PERFORMER "Johnny Cash"
INDEX 01 00:00:00
FILE "10 - Danny Boy.flac" WAVE
TRACK 10 AUDIO
TITLE "Danny Boy"
PERFORMER "Johnny Cash"
INDEX 01 00:00:00
FILE "11 - Desperado (Featuring Don Henley).flac" WAVE
TRACK 11 AUDIO
TITLE "Desperado (Featuring Don Henley)"
PERFORMER "Johnny Cash"
INDEX 01 00:00:00
FILE "12 - I'm So Lonesome I Could Cry (Featuring Nick Cave).flac" WAVE
TRACK 12 AUDIO
TITLE "I'm So Lonesome I Could Cry (Featuring Nick Cave)"
PERFORMER "Johnny Cash"
INDEX 01 00:00:00
FILE "13 - Tear Stained Letter.flac" WAVE
TRACK 13 AUDIO
TITLE "Tear Stained Letter"
PERFORMER "Johnny Cash"
INDEX 01 00:00:00
FILE "14 - Streets Of Laredo.flac" WAVE
TRACK 14 AUDIO
TITLE "Streets Of Laredo"
PERFORMER "Johnny Cash"
INDEX 01 00:00:00
FILE "15 - We'll Meet Again.flac" WAVE
TRACK 15 AUDIO
TITLE "We'll Meet Again"
PERFORMER "Johnny Cash"
INDEX 01 00:00:00
01 Help Me 2:52
02 God's Gonna Cut You Down 2:39
03 Like the 309 4:35
04 If You Could Read My Mind 4:30
05 Further On Up the Road 3:25
06 On the Evening Train 4:18
07 I Came To Believe 3:45
08 Love's Been Good To Me 3:18
09 A Legend In My Own time 2:37
10 Rose of My Heart 3:18
11 Four Strong Winds 4:35
12 I'm Free From the Chain Gang N 3:01
EAC extraction logfile from 2. July 2006, 10:23 for CD 
Johnny Cash / American V A Hundred Highways

Used drive : HP DVD Writer 640c Adapter: 0 ID: 1
Read mode : Secure with NO C2, accurate stream, disable cache
Read offset correction : 618
Overread into Lead-In and Lead-Out : No

Used output format : C:\Program Files\Exact Audio Copy\bin\flac.exe (User Defined Encoder)
192 kBit/s
Additional command line options : -V -8 -T "artist=%a" -T "title=%t" -T "album=%g" -T "date=%y" -T "tracknumber=%n" -T "genre=%m" %s

Other options :
Fill up missing offset samples with silence : Yes
Delete leading and trailing silent blocks : No
Installed external ASPI interface

Track 1
Filename D:\my stuff\johnny cash - american v-a hundred highways\Johnny Cash-American V A Hundred Highways-01-Help Me.wav

Pre-gap length 0:00:02.00

Peak level 98.8 %
Track quality 100.0 %
Test CRC 34FF3695
Copy CRC 34FF3695
Copy OK

Track 2
Filename D:\my stuff\johnny cash - american v-a hundred highways\Johnny Cash-American V A Hundred Highways-02-God's Gonna Cut You Down.wav

Pre-gap length 0:00:00.69

Peak level 100.0 %
Track quality 100.0 %
Test CRC F4A39532
Copy CRC F4A39532
Copy OK

Track 3
Filename D:\my stuff\johnny cash - american v-a hundred highways\Johnny Cash-American V A Hundred Highways-03-Like the 309.wav

Pre-gap length 0:00:00.09

Peak level 100.0 %
Track quality 100.0 %
Test CRC E4E90EAC
Copy CRC E4E90EAC
Copy OK

Track 4
Filename D:\my stuff\johnny cash - american v-a hundred highways\Johnny Cash-American V A Hundred Highways-04-If You Could Read My Mind.wav

Pre-gap length 0:00:00.53

Peak level 100.0 %
Track quality 100.0 %
Test CRC A52695D1
Copy CRC A52695D1
Copy OK

Track 5
Filename D:\my stuff\johnny cash - american v-a hundred highways\Johnny Cash-American V A Hundred Highways-05-Further On Up the Road.wav

Pre-gap length 0:00:00.40

Peak level 100.0 %
Track quality 100.0 %
Test CRC 6C76113E
Copy CRC 6C76113E
Copy OK

Track 6
Filename D:\my stuff\johnny cash - american v-a hundred highways\Johnny Cash-American V A Hundred Highways-06-On the Evening Train.wav

Pre-gap length 0:00:00.18

Peak level 96.6 %
Track quality 100.0 %
Test CRC BC7D27A1
Copy CRC BC7D27A1
Copy OK

Track 7
Filename D:\my stuff\johnny cash - american v-a hundred highways\Johnny Cash-American V A Hundred Highways-07-I Came To Believe.wav

Pre-gap length 0:00:00.12

Peak level 99.8 %
Track quality 100.0 %
Test CRC 360FD264
Copy CRC 360FD264
Copy OK

Track 8
Filename D:\my stuff\johnny cash - american v-a hundred highways\Johnny Cash-American V A Hundred Highways-08-Love's Been Good To Me.wav

Peak level 100.0 %
Track quality 100.0 %
Test CRC CC722141
Copy CRC CC722141
Copy OK

Track 9
Filename D:\my stuff\johnny cash - american v-a hundred highways\Johnny Cash-American V A Hundred Highways-09-A Legend In My Own time.wav

Peak level 100.0 %
Track quality 99.9 %
Test CRC CAB1FBAA
Copy CRC CAB1FBAA
Copy OK

Track 10
Filename D:\my stuff\johnny cash - american v-a hundred highways\Johnny Cash-American V A Hundred Highways-10-Rose of My Heart.wav

Pre-gap length 0:00:00.26

Peak level 90.0 %
Track quality 100.0 %
Test CRC 8572AACB
Copy CRC 8572AACB
Copy OK

Track 11
Filename D:\my stuff\johnny cash - american v-a hundred highways\Johnny Cash-American V A Hundred Highways-11-Four Strong Winds.wav

Pre-gap length 0:00:00.37

Peak level 100.0 %
Track quality 100.0 %
Test CRC 60641FAC
Copy CRC 60641FAC
Copy OK

Track 12
Filename D:\my stuff\johnny cash - american v-a hundred highways\Johnny Cash-American V A Hundred Highways-12-I'm Free From the Chain Gang N.wav

Pre-gap length 0:00:00.29

Peak level 100.0 %
Track quality 100.0 %
Test CRC E106D65E
Copy CRC E106D65E
Copy OK

No errors occured

End of status report
REM GENRE Country 
REM DATE 2006
REM DISCID 9D0A0B0C
REM COMMENT "ExactAudioCopy v0.95b3"
PERFORMER "Johnny Cash"
TITLE "American V A Hundred Highways"
FILE "Johnny Cash - Help Me.flac" WAVE
TRACK 01 AUDIO
TITLE "Help Me"
PERFORMER "Johnny Cash"
INDEX 01 00:00:00
FILE "Johnny Cash - God's Gonna Cut You Down.flac" WAVE
TRACK 02 AUDIO
TITLE "God's Gonna Cut You Down"
PERFORMER "Johnny Cash"
FLAGS DCP
INDEX 01 00:00:00
FILE "Johnny Cash - Like the 309.flac" WAVE
TRACK 03 AUDIO
TITLE "Like the 309"
PERFORMER "Johnny Cash"
FLAGS DCP
INDEX 01 00:00:00
FILE "Johnny Cash - If You Could Read My Mind.flac" WAVE
TRACK 04 AUDIO
TITLE "If You Could Read My Mind"
PERFORMER "Johnny Cash"
FLAGS DCP
INDEX 01 00:00:00
FILE "Johnny Cash - Further On Up the Road.flac" WAVE
TRACK 05 AUDIO
TITLE "Further On Up the Road"
PERFORMER "Johnny Cash"
FLAGS DCP
INDEX 01 00:00:00
FILE "Johnny Cash - On the Evening Train.flac" WAVE
TRACK 06 AUDIO
TITLE "On the Evening Train"
PERFORMER "Johnny Cash"
FLAGS DCP
INDEX 01 00:00:00
FILE "Johnny Cash - I Came To Believe.flac" WAVE
TRACK 07 AUDIO
TITLE "I Came To Believe"
PERFORMER "Johnny Cash"
FLAGS DCP
INDEX 01 00:00:00
FILE "Johnny Cash - Love's Been Good To Me.flac" WAVE
TRACK 08 AUDIO
TITLE "Love's Been Good To Me"
PERFORMER "Johnny Cash"
FLAGS DCP
INDEX 01 00:00:00
FILE "Johnny Cash - A Legend In My Own time.flac" WAVE
TRACK 09 AUDIO
TITLE "A Legend In My Own time"
PERFORMER "Johnny Cash"
FLAGS DCP
INDEX 01 00:00:00
FILE "Johnny Cash - Rose of My Heart.flac" WAVE
TRACK 10 AUDIO
TITLE "Rose of My Heart"
PERFORMER "Johnny Cash"
FLAGS DCP
INDEX 01 00:00:00
FILE "Johnny Cash - Four Strong Winds.flac" WAVE
TRACK 11 AUDIO
TITLE "Four Strong Winds"
PERFORMER "Johnny Cash"
FLAGS DCP
INDEX 01 00:00:00
FILE "Johnny Cash - I'm Free From the Chain Gang N.flac" WAVE
TRACK 12 AUDIO
TITLE "I'm Free From the Chain Gang N"
PERFORMER "Johnny Cash"
FLAGS DCP
INDEX 01 00:00:00
1 Ain't No Grave 2:53
2 Redemption Day 4:22
3 For the Good Times 3:21
4 I Corinthians 15:55 3:37
5 Can't Help But Wonder Where I'm Bound 3:26
6 Satisfied Mind 2:48
7 I Don't Hurt Anymore 2:45
8 Cool Water 2:53
9 Last Night I Had the Strangest Dream 3:14
10 Aloha Oe 2:59
Exact Audio Copy V0.99 prebeta 5 from 4. May 2009 

EAC extraction logfile from 16. February 2010, 12:18

Johnny Cash / American VI: Ain't No Grave

Used drive : TSSTcorpCDDVDW SH-S222A Adapter: 0 ID: 0

Read mode : Secure
Utilize accurate stream : Yes
Defeat audio cache : Yes
Make use of C2 pointers : No

Read offset correction : 6
Overread into Lead-In and Lead-Out : No
Fill up missing offset samples with silence : Yes
Delete leading and trailing silent blocks : No
Null samples used in CRC calculations : Yes
Used interface : Native Win32 interface for Win NT & 2000
Gap handling : Appended to previous track

Used output format : User Defined Encoder
Selected bitrate : 128 kBit/s
Quality : High
Add ID3 tag : No
Command line compressor : C:\Program Files (x86)\Exact Audio Copy\Flac\flac.exe
Additional command line options : -V -8 -T "artist=%a" -T "title=%t" -T "album=%g" -T "date=%y" -T "tracknumber=%n" -T "genre=%m" %s

TOC of the extracted CD

Track | Start | Length | Start sector | End sector
---------------------------------------------------------
1 | 0:00.00 | 2:53.20 | 0 | 12994
2 | 2:53.20 | 4:22.10 | 12995 | 32654
3 | 7:15.30 | 3:21.62 | 32655 | 47791
4 | 10:37.17 | 3:37.55 | 47792 | 64121
5 | 14:14.72 | 3:26.23 | 64122 | 79594
6 | 17:41.20 | 2:48.05 | 79595 | 92199
7 | 20:29.25 | 2:45.22 | 92200 | 104596
8 | 23:14.47 | 2:53.13 | 104597 | 117584
9 | 26:07.60 | 3:14.05 | 117585 | 132139
10 | 29:21.65 | 2:59.60 | 132140 | 145624

Track 1

Filename E:\Other\EAC.Rips\Johnny Cash - 2010 - American VI- Ain't No Grave\01 - Ain't No Grave.wav

Pre-gap length 0:00:02.00

Peak level 99.0 %
Track quality 100.0 %
Test CRC 599B0F37
Copy CRC 599B0F37
Track not present in AccurateRip database
Copy OK

Track 2

Filename E:\Other\EAC.Rips\Johnny Cash - 2010 - American VI- Ain't No Grave\02 - Redemption Day.wav

Peak level 99.8 %
Track quality 100.0 %
Test CRC 83C4EA45
Copy CRC 83C4EA45
Track not present in AccurateRip database
Copy OK

Track 3

Filename E:\Other\EAC.Rips\Johnny Cash - 2010 - American VI- Ain't No Grave\03 - For The Good Times.wav

Peak level 98.7 %
Track quality 100.0 %
Test CRC AB3B8034
Copy CRC AB3B8034
Track not present in AccurateRip database
Copy OK

Track 4

Filename E:\Other\EAC.Rips\Johnny Cash - 2010 - American VI- Ain't No Grave\04 - I Corinthians 15-55.wav

Peak level 97.6 %
Track quality 100.0 %
Test CRC 9F6065DB
Copy CRC 9F6065DB
Track not present in AccurateRip database
Copy OK

Track 5

Filename E:\Other\EAC.Rips\Johnny Cash - 2010 - American VI- Ain't No Grave\05 - Can't Help But Wonder Where I'm Bound.wav

Peak level 96.5 %
Track quality 100.0 %
Test CRC 1830696C
Copy CRC 1830696C
Track not present in AccurateRip database
Copy OK

Track 6

Filename E:\Other\EAC.Rips\Johnny Cash - 2010 - American VI- Ain't No Grave\06 - Satisfied Mind.wav

Peak level 94.3 %
Track quality 100.0 %
Test CRC 880547B2
Copy CRC 880547B2
Track not present in AccurateRip database
Copy OK

Track 7

Filename E:\Other\EAC.Rips\Johnny Cash - 2010 - American VI- Ain't No Grave\07 - I Don't Hurt Anymore.wav

Peak level 93.2 %
Track quality 100.0 %
Test CRC 89E30563
Copy CRC 89E30563
Track not present in AccurateRip database
Copy OK

Track 8

Filename E:\Other\EAC.Rips\Johnny Cash - 2010 - American VI- Ain't No Grave\08 - Cool Water.wav

Peak level 97.6 %
Track quality 100.0 %
Test CRC D72D9297
Copy CRC D72D9297
Track not present in AccurateRip database
Copy OK

Track 9

Filename E:\Other\EAC.Rips\Johnny Cash - 2010 - American VI- Ain't No Grave\09 - Last Night I Had The Strangest Dream.wav

Peak level 98.7 %
Track quality 100.0 %
Test CRC 99D5417D
Copy CRC 99D5417D
Track not present in AccurateRip database
Copy OK

Track 10

Filename E:\Other\EAC.Rips\Johnny Cash - 2010 - American VI- Ain't No Grave\10 - Aloha Oe.wav

Peak level 98.7 %
Track quality 100.0 %
Test CRC B3165F67
Copy CRC B3165F67
Track not present in AccurateRip database
Copy OK

None of the tracks are present in the AccurateRip database

No errors occurred

End of status report
REM GENRE Americana 
REM DATE 2010
REM DISCID 8C07950A
REM COMMENT "ExactAudioCopy v0.99pb5"
FILE "01 - Ain't No Grave.wav" WAVE
TRACK 01 AUDIO
INDEX 01 00:00:00
FILE "02 - Redemption Day.wav" WAVE
TRACK 02 AUDIO
INDEX 01 00:00:00
FILE "03 - For The Good Times.wav" WAVE
TRACK 03 AUDIO
INDEX 01 00:00:00
FILE "04 - I Corinthians 15-55.wav" WAVE
TRACK 04 AUDIO
INDEX 01 00:00:00
FILE "05 - Can't Help But Wonder Where I'm Bound.wav" WAVE
TRACK 05 AUDIO
INDEX 01 00:00:00
FILE "06 - Satisfied Mind.wav" WAVE
TRACK 06 AUDIO
INDEX 01 00:00:00
FILE "07 - I Don't Hurt Anymore.wav" WAVE
TRACK 07 AUDIO
INDEX 01 00:00:00
FILE "08 - Cool Water.wav" WAVE
TRACK 08 AUDIO
INDEX 01 00:00:00
FILE "09 - Last Night I Had The Strangest Dream.wav" WAVE
TRACK 09 AUDIO
INDEX 01 00:00:00
FILE "10 - Aloha Oe.wav" WAVE
TRACK 10 AUDIO
INDEX 01 00:00:00

Цитата:

В начале 90-х состоялась встреча Джонни Кэша с Риком Рубином и последний предложил музыканту контракт с American Recordings, лейблом, более известным по работе с хеви-метал и рэп исполнителями, нежели с исполнителями кантри. Тем не менее Кэш согласился, отчасти из-за того, что Рубин хотел сделать звук альбома наиболее минималистическим и как раз подобный эксперимент интересовал самого Джонни. Под руководством Рубина музыкант записал одиннадцать песен сидя в своей комнате, в сопровождении лишь своей гитары. Ещё две были записаны в ночном клубе Viper Room в Западном Голливуде, который в то время принадлежал американскому актёру Джонни Деппу. Песни «Down There by the Train» и «Thirteen» специально для Джонни сочинили Том Уэйтс и Гленн Данзиг («Thirteen» и вовсе была написана за двадцать минут), именно эти песни помогли Кэшу завоевать более молодую аудиторию. Обложка American Recordings была сделана во время путешествия музыканта по Австралии, в городе Верриби, недалеко от Мельбурна. Альбом был очень положительно принят критиками, многие сошлись на том, что это лучший альбом Кэша со времён 60-х.
info [Профиль]  [ЛС] 

DiegoAlvarez

Пол: Пол:Муж

Стаж: 10 лет

Сообщений: 36

Алжир
Рейтинг

post 21-Сен-2012 14:55 (спустя 1 день 23 часа) [-]0[+]

[Цитировать] 

info [Профиль]  [ЛС] 

gh0st

Пол: Пол:Муж

Стаж: 10 лет

Сообщений: 935

Россия
Рейтинг

post 21-Сен-2012 19:47 (спустя 4 часа) [-]1[+]

[Цитировать] 

обожаю Кэша
info [Профиль]  [ЛС] 

KorniGO

Пол: Пол:Муж

Стаж: 10 лет

Сообщений: 410

Предупреждений: 1

СССР
Рейтинг

post 21-Сен-2012 20:43 (спустя 56 минут) [-]1[+]

[Цитировать] 

Настоящее кантри, хорошее.
info [Профиль]  [ЛС] 

62dmytriv5

Пол: Пол:Муж

Стаж: 10 лет

Сообщений: 2

Украина
Рейтинг

post 10-Июн-2013 00:42 (спустя 8 месяцев 18 дней) [-]0[+]

[Цитировать] 

Вернитесь на раздачу, пожалуйста, хоть кто-нибудь.
info [Профиль]  [ЛС] 

The Royal

Пол: Пол:Муж

Стаж: 10 лет

Сообщений: 673

Россия
Рейтинг

post 10-Июн-2013 01:01 (спустя 19 минут) [-]0[+]

[Цитировать] 

На раздаче 2 сида. Ждите и скорость пойдет
info [Профиль]  [ЛС] 
Показать сообщения:    
Ответить на тему

Текущее время: 12-Июл 23:00

Часовой пояс: GMT + 4



Вы не можете начинать темы
Вы не можете отвечать на сообщения
Вы не можете редактировать свои сообщения
Вы не можете удалять свои сообщения
Вы не можете голосовать в опросах
Вы не можете прикреплять файлы к сообщениям
Вы не можете скачивать файлы