Ошибка

(8-bit, Electro-Punk, Synthpop) Bondage Fairies - Cheap Italian Wine - 2009, FLAC (tracks+.cue)+cover, lossless

Ответить на тему
 
Автор Сообщение

Fobosov

Пол: Пол:Муж

Стаж: 9 лет 6 месяцев

Сообщений: 73

Предупреждений: 1

Украина
Рейтинг

post 26-Май-2013 14:40 1[+]

[Цитировать] 

Bondage Fairies - Cheap Italian Wine


pic="http://s001.youpic.su/pictures/1369512000/fa6e3935387b5afab0d183dd8ed41f3d.jpg"


Жанр: 8-bit, Electro-Punk, Synthpop
Год издания данного носителя: 2009
Страна-производитель носителя: Sweden
Лейбл: Lobotom Records
Каталоговый номер: SHO-LOBOTOM-26
Аудио кодек: FLAC
Тип рипа: tracks+.cue
Битрейт аудио: lossless
Продолжительность: 00:33:22
Полиграфия: Присутствует
Треклист:
01.Rymd (1:42)
02.Zeta Reticuli (2:35)
03.Action Figures (2:26)
04.Skå-Edeby (1:55)
05.Garbage Indie Bands (2:49)
06.Why I Didn't Like August 93 (2:02)
07.I Eat Children (0:51)
08.Forget The Image, I Got A Heart (2:43)
09.Girls Are Sick (2:25)
10.Monolith (0:40)
11.Her Disease (1:58)
12.Jens And The Magician (2:30)
13.NV4.dll (2:42)
14.Tsunami Surfers (2:14)
15.Bee Bee Prime Vs Bee Bee Ferocious (0:37)
16.Russian White (3:13)
Exact Audio Copy V0.99 prebeta 4 from 23. January 2008 

EAC extraction logfile from 1. June 2009, 12:17

Bondage Fairies / Cheap Italian Wine

Used drive : TSSTcorpCDDVDW SH-S223Q Adapter: 2 ID: 1

Read mode : Secure
Utilize accurate stream : Yes
Defeat audio cache : Yes
Make use of C2 pointers : No

Read offset correction : 6
Overread into Lead-In and Lead-Out : No
Fill up missing offset samples with silence : Yes
Delete leading and trailing silent blocks : No
Null samples used in CRC calculations : Yes
Used interface : Native Win32 interface for Win NT & 2000
Gap handling : Appended to previous track

Used output format : User Defined Encoder
Selected bitrate : 768 kBit/s
Quality : High
Add ID3 tag : No
Command line compressor : C:Program FilesFLACflac.exe
Additional command line options : -V -8 -T "artist=%a" -T "title=%t" -T "album=%g" -T "date=%y" -T "tracknumber=%n" %s

TOC of the extracted CD

Track | Start | Length | Start sector | End sector
---------------------------------------------------------
1 | 0:00.00 | 1:41.59 | 0 | 7633
2 | 1:41.59 | 2:34.40 | 7634 | 19223
3 | 4:16.24 | 2:25.45 | 19224 | 30143
4 | 6:41.69 | 1:55.03 | 30144 | 38771
5 | 8:36.72 | 2:49.29 | 38772 | 51475
6 | 11:26.26 | 2:02.18 | 51476 | 60643
7 | 13:28.44 | 0:51.33 | 60644 | 64501
8 | 14:20.02 | 2:42.52 | 64502 | 76703
9 | 17:02.54 | 2:25.17 | 76704 | 87595
10 | 19:27.71 | 0:39.49 | 87596 | 90569
11 | 20:07.45 | 1:58.28 | 90570 | 99447
12 | 22:05.73 | 2:30.04 | 99448 | 110701
13 | 24:36.02 | 2:41.60 | 110702 | 122836
14 | 27:17.62 | 2:14.06 | 122837 | 132892
15 | 29:31.68 | 0:37.18 | 132893 | 135685
16 | 30:09.11 | 3:12.65 | 135686 | 150150

Track 1

Filename C:Hi there RIAA, What's up IFPIBondage Fairies - Cheap Italian Wine�1 - Rymd.wav

Pre-gap length 0:00:02.00

Peak level 98.8 %
Track quality 100.0 %
Test CRC E99643B9
Copy CRC E99643B9
Track not present in AccurateRip database
Copy OK

Track 2

Filename C:Hi there RIAA, What's up IFPIBondage Fairies - Cheap Italian Wine�2 - Zeta Reticuli.wav

Peak level 98.8 %
Track quality 100.0 %
Test CRC DE80F84B
Copy CRC DE80F84B
Track not present in AccurateRip database
Copy OK

Track 3

Filename C:Hi there RIAA, What's up IFPIBondage Fairies - Cheap Italian Wine�3 - Action Figures.wav

Peak level 98.8 %
Track quality 100.0 %
Test CRC 0634F7F4
Copy CRC 0634F7F4
Track not present in AccurateRip database
Copy OK

Track 4

Filename C:Hi there RIAA, What's up IFPIBondage Fairies - Cheap Italian Wine�4 - Skе-Edeby.wav

Peak level 98.8 %
Track quality 100.0 %
Test CRC 4E18283C
Copy CRC 4E18283C
Track not present in AccurateRip database
Copy OK

Track 5

Filename C:Hi there RIAA, What's up IFPIBondage Fairies - Cheap Italian Wine�5 - Garbage Indie Bands.wav

Peak level 98.9 %
Track quality 100.0 %
Test CRC D08CE2AF
Copy CRC D08CE2AF
Track not present in AccurateRip database
Copy OK

Track 6

Filename C:Hi there RIAA, What's up IFPIBondage Fairies - Cheap Italian Wine�6 - Why I Didn't Like August 93.wav

Peak level 98.8 %
Track quality 100.0 %
Test CRC 8EAA96E8
Copy CRC 8EAA96E8
Track not present in AccurateRip database
Copy OK

Track 7

Filename C:Hi there RIAA, What's up IFPIBondage Fairies - Cheap Italian Wine�7 - I Eat Children.wav

Peak level 98.8 %
Track quality 99.7 %
Test CRC 621D953E
Copy CRC 621D953E
Track not present in AccurateRip database
Copy OK

Track 8

Filename C:Hi there RIAA, What's up IFPIBondage Fairies - Cheap Italian Wine�8 - Forget The Image, I Got A Heart.wav

Peak level 98.8 %
Track quality 99.9 %
Test CRC B06AE525
Copy CRC B06AE525
Track not present in AccurateRip database
Copy OK

Track 9

Filename C:Hi there RIAA, What's up IFPIBondage Fairies - Cheap Italian Wine�9 - Girls Are Sick.wav

Peak level 98.8 %
Track quality 100.0 %
Test CRC FD0D92A5
Copy CRC FD0D92A5
Track not present in AccurateRip database
Copy OK

Track 10

Filename C:Hi there RIAA, What's up IFPIBondage Fairies - Cheap Italian Wine10 - Monolith.wav

Peak level 98.8 %
Track quality 100.0 %
Test CRC BDF77355
Copy CRC BDF77355
Track not present in AccurateRip database
Copy OK

Track 11

Filename C:Hi there RIAA, What's up IFPIBondage Fairies - Cheap Italian Wine11 - Her Disease.wav

Peak level 98.8 %
Track quality 100.0 %
Test CRC E5ADCF0B
Copy CRC E5ADCF0B
Track not present in AccurateRip database
Copy OK

Track 12

Filename C:Hi there RIAA, What's up IFPIBondage Fairies - Cheap Italian Wine12 - Jens And The Magician.wav

Peak level 98.8 %
Track quality 100.0 %
Test CRC E1C4BBCE
Copy CRC E1C4BBCE
Track not present in AccurateRip database
Copy OK

Track 13

Filename C:Hi there RIAA, What's up IFPIBondage Fairies - Cheap Italian Wine13 - NV4.dll.wav

Peak level 98.8 %
Track quality 100.0 %
Test CRC B3AE60E0
Copy CRC B3AE60E0
Track not present in AccurateRip database
Copy OK

Track 14

Filename C:Hi there RIAA, What's up IFPIBondage Fairies - Cheap Italian Wine14 - Tsunami Surfers.wav

Peak level 98.8 %
Track quality 100.0 %
Test CRC DF0410E9
Copy CRC DF0410E9
Track not present in AccurateRip database
Copy OK

Track 15

Filename C:Hi there RIAA, What's up IFPIBondage Fairies - Cheap Italian Wine15 - Bee Bee Prime Vs Bee Bee Ferocious.wav

Peak level 89.3 %
Track quality 100.0 %
Test CRC 3152FF50
Copy CRC 3152FF50
Track not present in AccurateRip database
Copy OK

Track 16

Filename C:Hi there RIAA, What's up IFPIBondage Fairies - Cheap Italian Wine16 - Russian White.wav

Peak level 98.8 %
Track quality 100.0 %
Test CRC 5144634D
Copy CRC 5144634D
Track not present in AccurateRip database
Copy OK

None of the tracks are present in the AccurateRip database

No errors occurred

End of status report
REM DATE 2009 
PERFORMER "Bondage Fairies"
TITLE "Cheap Italian Wine"
FILE "01 - Rymd.flac" WAVE
TRACK 01 AUDIO
TITLE "Rymd"
INDEX 01 00:00:00
FILE "02 - Zeta Reticuli.flac" WAVE
TRACK 02 AUDIO
TITLE "Zeta Reticuli"
INDEX 01 00:00:00
FILE "03 - Action Figures.flac" WAVE
TRACK 03 AUDIO
TITLE "Action Figures"
INDEX 01 00:00:00
FILE "04 - Ska-Edeby.flac" WAVE
TRACK 04 AUDIO
TITLE "Skå-Edeby"
INDEX 01 00:00:00
FILE "05 - Garbage Indie Bands.flac" WAVE
TRACK 05 AUDIO
TITLE "Garbage Indie Bands"
INDEX 01 00:00:00
FILE "06 - Why I Didn't Like August 93.flac" WAVE
TRACK 06 AUDIO
TITLE "Why I Didn't Like August 93"
INDEX 01 00:00:00
FILE "07 - I Eat Children.flac" WAVE
TRACK 07 AUDIO
TITLE "I Eat Children"
INDEX 01 00:00:00
FILE "08 - Forget The Image, I Got A Heart.flac" WAVE
TRACK 08 AUDIO
TITLE "Forget The Image, I Got A Heart"
INDEX 01 00:00:00
FILE "09 - Girls Are Sick.flac" WAVE
TRACK 09 AUDIO
TITLE "Girls Are Sick"
INDEX 01 00:00:00
FILE "10 - Monolith.flac" WAVE
TRACK 10 AUDIO
TITLE "Monolith"
INDEX 01 00:00:00
FILE "11 - Her Disease.flac" WAVE
TRACK 11 AUDIO
TITLE "Her Disease"
INDEX 01 00:00:00
FILE "12 - Jens And The Magician.flac" WAVE
TRACK 12 AUDIO
TITLE "Jens And The Magician"
INDEX 01 00:00:00
FILE "13 - NV4.dll.flac" WAVE
TRACK 13 AUDIO
TITLE "NV4.dll"
INDEX 01 00:00:00
FILE "14 - Tsunami Surfers.flac" WAVE
TRACK 14 AUDIO
TITLE "Tsunami Surfers"
INDEX 01 00:00:00
FILE "15 - Bee Bee Prime Vs Bee Bee Ferocious.flac" WAVE
TRACK 15 AUDIO
TITLE "Bee Bee Prime Vs Bee Bee Ferocious"
INDEX 01 00:00:00
FILE "16 - Russian White.flac" WAVE
TRACK 16 AUDIO
TITLE "Russian White"
INDEX 01 00:00:00

info [Профиль]  [ЛС] 
Показать сообщения:    
Ответить на тему

Текущее время: 24-Май 01:11

Часовой пояс: GMT + 4



Вы не можете начинать темы
Вы не можете отвечать на сообщения
Вы не можете редактировать свои сообщения
Вы не можете удалять свои сообщения
Вы не можете голосовать в опросах
Вы не можете прикреплять файлы к сообщениям
Вы не можете скачивать файлы