Ошибка

(Trip-Hop\Experimental\Electronic\Indie) PHANTOGRAM - Eyelid Movies - 2009, FLAC (tracks+.cue), lossless

Ответить на тему
 
Автор Сообщение

nemesises

Пол: Пол:Муж

Стаж: 9 лет 2 месяца

Сообщений: 24

Украина
Рейтинг

post 17-Май-2013 19:19 0[+]

[Цитировать] 


PHANTOGRAM - Eyelid Movies
Жанр: Trip-Hop\Experimental\Electronic\Indie
Год выпуска диска: 2009
Лейбл: Barely Breaking Even
Аудио кодек: FLAC
Тип рипа: tracks+.cue
Битрейт аудио: lossless
Продолжительность: 43:30
Источник: собственные диски

Трэклист:
01. Mouthful Of Diamonds - 4:07
02. When I'm Small - 4:03
03. Turn It Off - 3:56
04. Running From The Cops - 3:51
05. All Dried Up - 3:38
06. As Far As I Can See - 3:22
07. You Are The Ocean - 5:46
08. Bloody Palms - 3:26
09. Futuristic Casket - 3:33
10. Let Me Go - 4:21
11. 10,000 Claps - 3:27

Код:

Exact Audio Copy V0.99 prebeta 4 from 23. January 2008

EAC extraction logfile from 27. January 2010, 14:23

Phantogram / Eyelid Movies

Used drive  : PIONEER DVD-RW  DVR-212D   Adapter: 3  ID: 0

Read mode               : Secure
Utilize accurate stream : Yes
Defeat audio cache      : Yes
Make use of C2 pointers : No

Read offset correction                      : 48
Overread into Lead-In and Lead-Out          : No
Fill up missing offset samples with silence : Yes
Delete leading and trailing silent blocks   : No
Null samples used in CRC calculations       : Yes
Used interface                              : Native Win32 interface for Win NT & 2000
Gap handling                                : Appended to previous track

Used output format              : User Defined Encoder
Selected bitrate                : 320 kBit/s
Quality                         : High
Add ID3 tag                     : No
Command line compressor         : C:\Program Files\Exact Audio Copy\Flac\flac.exe
Additional command line options : -V -8 -T "artist=%a" -T "title=%t" -T "album=%g" -T "date=%y" -T "tracknumber=%n" -T "genre=%m" %s

TOC of the extracted CD

     Track |   Start  |  Length  | Start sector | End sector
    ---------------------------------------------------------
        1  |  0:00.00 |  4:13.32 |         0    |    19006
        2  |  4:13.32 |  4:09.05 |     19007    |    37686
        3  |  8:22.37 |  4:01.31 |     37687    |    55792
        4  | 12:23.68 |  3:57.59 |     55793    |    73626
        5  | 16:21.52 |  3:46.21 |     73627    |    90597
        6  | 20:07.73 |  3:29.39 |     90598    |   106311
        7  | 23:37.37 |  5:49.02 |    106312    |   132488
        8  | 29:26.39 |  3:31.40 |    132489    |   148353
        9  | 32:58.04 |  3:37.51 |    148354    |   164679
       10  | 36:35.55 |  4:25.60 |    164680    |   184614
       11  | 41:01.40 |  3:30.01 |    184615    |   200365

Track  1

     Filename C:\Users\Andrew\Desktop\EAC Rips\Phantogram - Eyelid Movies - 2009 [FLAC]\01. Mouthful Of Diamonds.wav

     Pre-gap length  0:00:02.00

     Peak level 99.9 %
     Track quality 100.0 %
     Test CRC CE0B3270
     Copy CRC CE0B3270
     Accurately ripped (confidence 1)  [9FD689C9]
     Copy OK

Track  2

     Filename C:\Users\Andrew\Desktop\EAC Rips\Phantogram - Eyelid Movies - 2009 [FLAC]\02. When I'm Small.wav

     Pre-gap length  0:00:03.80

     Peak level 99.9 %
     Track quality 99.9 %
     Test CRC F991768E
     Copy CRC F991768E
     Accurately ripped (confidence 1)  [95240DB7]
     Copy OK

Track  3

     Filename C:\Users\Andrew\Desktop\EAC Rips\Phantogram - Eyelid Movies - 2009 [FLAC]\03. Turn It Off.wav

     Pre-gap length  0:00:03.80

     Peak level 99.9 %
     Track quality 99.9 %
     Test CRC DE4E0B5C
     Copy CRC DE4E0B5C
     Accurately ripped (confidence 1)  [23FDC59C]
     Copy OK

Track  4

     Filename C:\Users\Andrew\Desktop\EAC Rips\Phantogram - Eyelid Movies - 2009 [FLAC]\04. Running From The Cops.wav

     Pre-gap length  0:00:02.80

     Peak level 99.9 %
     Track quality 100.0 %
     Test CRC 84CC90BD
     Copy CRC 84CC90BD
     Accurately ripped (confidence 1)  [8FF19B92]
     Copy OK

Track  5

     Filename C:\Users\Andrew\Desktop\EAC Rips\Phantogram - Eyelid Movies - 2009 [FLAC]\05. All Dried Up.wav

     Pre-gap length  0:00:05.33

     Peak level 99.9 %
     Track quality 100.0 %
     Test CRC 0AFCB901
     Copy CRC 0AFCB901
     Accurately ripped (confidence 1)  [D26891A0]
     Copy OK

Track  6

     Filename C:\Users\Andrew\Desktop\EAC Rips\Phantogram - Eyelid Movies - 2009 [FLAC]\06. As Far As I Can See.wav

     Pre-gap length  0:00:03.80

     Peak level 99.9 %
     Track quality 99.9 %
     Test CRC 448CADAC
     Copy CRC 448CADAC
     Accurately ripped (confidence 1)  [9E314712]
     Copy OK

Track  7

     Filename C:\Users\Andrew\Desktop\EAC Rips\Phantogram - Eyelid Movies - 2009 [FLAC]\07. You Are The Ocean And I'm Good At Drowning.wav

     Pre-gap length  0:00:03.80

     Peak level 99.9 %
     Track quality 99.9 %
     Test CRC 4E2F4EA3
     Copy CRC 4E2F4EA3
     Accurately ripped (confidence 1)  [70654289]
     Copy OK

Track  8

     Filename C:\Users\Andrew\Desktop\EAC Rips\Phantogram - Eyelid Movies - 2009 [FLAC]\08. Bloody Palms.wav

     Pre-gap length  0:00:02.80

     Peak level 99.9 %
     Track quality 99.9 %
     Test CRC 0571D838
     Copy CRC 0571D838
     Accurately ripped (confidence 1)  [3026C91B]
     Copy OK

Track  9

     Filename C:\Users\Andrew\Desktop\EAC Rips\Phantogram - Eyelid Movies - 2009 [FLAC]\09. Futuristic Casket.wav

     Pre-gap length  0:00:02.80

     Peak level 99.9 %
     Track quality 100.0 %
     Test CRC 666B3BE9
     Copy CRC 666B3BE9
     Accurately ripped (confidence 1)  [BACAB622]
     Copy OK

Track 10

     Filename C:\Users\Andrew\Desktop\EAC Rips\Phantogram - Eyelid Movies - 2009 [FLAC]\10. Let Me Go.wav

     Pre-gap length  0:00:02.80

     Peak level 99.9 %
     Track quality 100.0 %
     Test CRC 059EEE48
     Copy CRC 059EEE48
     Accurately ripped (confidence 1)  [8AB47093]
     Copy OK

Track 11

     Filename C:\Users\Andrew\Desktop\EAC Rips\Phantogram - Eyelid Movies - 2009 [FLAC]\11. 10,000 Claps.wav

     Pre-gap length  0:00:02.80

     Peak level 99.9 %
     Track quality 100.0 %
     Test CRC 332B5CB0
     Copy CRC 332B5CB0
     Accurately ripped (confidence 1)  [49B86C34]
     Copy OK

All tracks accurately ripped

No errors occurred

End of status report



Код:

REM GENRE Electronic
REM DATE 2009
REM DISCID A00A6F0B
REM COMMENT "ExactAudioCopy v0.99pb4"
FILE "Phantogram - Eyelid Movies - 2009 [FLAC]\01. Mouthful Of Diamonds.wav" WAVE
  TRACK 01 AUDIO
    INDEX 01 00:00:00
  TRACK 02 AUDIO
    INDEX 00 04:09:47
FILE "Phantogram - Eyelid Movies - 2009 [FLAC]\02. When I'm Small.wav" WAVE
    INDEX 01 00:00:00
  TRACK 03 AUDIO
    INDEX 00 04:05:20
FILE "Phantogram - Eyelid Movies - 2009 [FLAC]\03. Turn It Off.wav" WAVE
    INDEX 01 00:00:00
  TRACK 04 AUDIO
    INDEX 00 03:58:46
FILE "Phantogram - Eyelid Movies - 2009 [FLAC]\04. Running From The Cops.wav" WAVE
    INDEX 01 00:00:00
  TRACK 05 AUDIO
    INDEX 00 03:52:34
FILE "Phantogram - Eyelid Movies - 2009 [FLAC]\05. All Dried Up.wav" WAVE
    INDEX 01 00:00:00
  TRACK 06 AUDIO
    INDEX 00 03:42:36
FILE "Phantogram - Eyelid Movies - 2009 [FLAC]\06. As Far As I Can See.wav" WAVE
    INDEX 01 00:00:00
  TRACK 07 AUDIO
    INDEX 00 03:25:54
FILE "Phantogram - Eyelid Movies - 2009 [FLAC]\07. You Are The Ocean And I'm Good At Drowning.wav" WAVE
    INDEX 01 00:00:00
  TRACK 08 AUDIO
    INDEX 00 05:46:17
FILE "Phantogram - Eyelid Movies - 2009 [FLAC]\08. Bloody Palms.wav" WAVE
    INDEX 01 00:00:00
  TRACK 09 AUDIO
    INDEX 00 03:28:55
FILE "Phantogram - Eyelid Movies - 2009 [FLAC]\09. Futuristic Casket.wav" WAVE
    INDEX 01 00:00:00
  TRACK 10 AUDIO
    INDEX 00 03:34:66
FILE "Phantogram - Eyelid Movies - 2009 [FLAC]\10. Let Me Go.wav" WAVE
    INDEX 01 00:00:00
  TRACK 11 AUDIO
    INDEX 00 04:23:00
FILE "Phantogram - Eyelid Movies - 2009 [FLAC]\11. 10,000 Claps.wav" WAVE
    INDEX 01 00:00:00

info [Профиль]  [ЛС] 

post 17-Май-2013 19:24 (спустя 5 минут) [-]0[+]

Топик был перенесен из форума Анонсы в форум Traditional Electronic, Ambient, Experimental (lossless)

The Buzzhorn
 

thunder65

Пол: Пол:Муж

Стаж: 12 лет

Сообщений: 118

Норвегия
Рейтинг

post 17-Май-2013 21:58 (спустя 2 часа 38 минут) [-]0[+]

[Цитировать] 

2 трек - бомба

_________________
info [Профиль]  [ЛС] 

nemesises

Пол: Пол:Муж

Стаж: 9 лет 2 месяца

Сообщений: 24

Украина
Рейтинг

post 18-Май-2013 15:34 (спустя 17 часов) [-]0[+]

[Цитировать] 

да впринципе и весь альбом хорош)

добавлено спустя 15 часов 40 минут 55 секунд:

если нужно я еще пару их альбомов во флаке залью
info [Профиль]  [ЛС] 
Показать сообщения:    
Ответить на тему

Текущее время: 06-Июл 14:39

Часовой пояс: GMT + 4



Вы не можете начинать темы
Вы не можете отвечать на сообщения
Вы не можете редактировать свои сообщения
Вы не можете удалять свои сообщения
Вы не можете голосовать в опросах
Вы не можете прикреплять файлы к сообщениям
Вы не можете скачивать файлы