Ошибка

(Ambient) Jean Michel Jarre - Images - 1997, FLAC (tracks+.cue), lossless

Ответить на тему
 
Автор Сообщение

Fobosov

Пол: Пол:Муж

Стаж: 9 лет 6 месяцев

Сообщений: 73

Предупреждений: 1

Украина
Рейтинг

post 24-Апр-2013 00:02 0[+]

[Цитировать] 

Jean Michel Jarre - Images


pic="http://s001.youpic.su/pictures/1366660800/8bb1219064486659fe8dd6581bd63172.jpg"


Жанр: Ambient
Год издания данного носителя: 1997
Страна-производитель носителя: France
Лейбл: Dreyfus
Каталоговый номер: 361512 2
Аудио кодек: FLAC
Тип рипа: tracks+.cue
Битрейт аудио: 24-bit lossless
Продолжительность: 01:12:22
Полиграфия: Отсутствует
Треклист:
01. Oxygene (Part 4) (3:09)
02. Equinoxe (Part 5) (3:22)
03. Chants Magnetiques/Magnetic Fields (Part 2) (3:57)
04. Oxygene (Part 2) (3:12)
05. Computer Week End (3:34)
06. Equinoxe (Part 4) (3:13)
07. Ethnicolor 1 (3:42)
08. L'Orchestre Sous La Pluie/Band In The Rain (1:26)
09. Orient Express (3:20)
10. Calypso 1 (3:06)
11. Calypso 3 (Fin de Siecle) (3:43)
12. Fourth Rendez-Vous (3:23)
13. Moon Machine (3:00)
14. Eldorado (3:40)
15. Globe Trotter (3:30)
16. Wooloomooloo (3:17)
17. Blah Blah Caf (3:26)
18. London Kid (3:48)
19. Zoolookologie (3:48)
20. Second Rendez-Vous (8:48)
Exact Audio Copy V1.0 beta 3 from 29. August 2011 

EAC extraction logfile from 22. February 2012, 15:25

Jean Michel Jarre / Images

Used drive : HL-DT-STDVD-RAM GSA-H22N Adapter: 1 ID: 0

Read mode : Secure
Utilize accurate stream : Yes
Defeat audio cache : Yes
Make use of C2 pointers : No

Read offset correction : 102
Overread into Lead-In and Lead-Out : No
Fill up missing offset samples with silence : Yes
Delete leading and trailing silent blocks : No
Null samples used in CRC calculations : Yes
Used interface : Native Win32 interface for Win NT & 2000
Gap handling : Appended to previous track

Used output format : User Defined Encoder
Selected bitrate : 1024 kBit/s
Quality : High
Add ID3 tag : No
Command line compressor : C:Program FilesExact Audio CopyFLACFLAC.EXE
Additional command line options : -8 -V -T "ARTIST=%artist%" -T "TITLE=%title%" -T "ALBUM=%albumtitle%" -T "DATE=%year%" -T "TRACKNUMBER=%tracknr%" -T "GENRE=%genre%" -T "PERFORMER=%albuminterpret%" -T "COMPOSER=%composer%" %haslyrics%--tag-from-file=LYRICS="%lyricsfile%"%haslyrics% -T "ALBUMARTIST=%albumartist%" -T "DISCNUMBER=%cdnumber%" -T "TOTALDISCS=%totalcds%" -T "TOTALTRACKS=%numtracks%" -T "COMMENT=%comment%" %source% -o %dest%

TOC of the extracted CD

Track | Start | Length | Start sector | End sector
---------------------------------------------------------
1 | 0:00.00 | 3:09.20 | 0 | 14194
2 | 3:09.20 | 3:21.49 | 14195 | 29318
3 | 6:30.69 | 3:57.23 | 29319 | 47116
4 | 10:28.17 | 3:11.73 | 47117 | 61514
5 | 13:40.15 | 3:34.20 | 61515 | 77584
6 | 17:14.35 | 3:12.65 | 77585 | 92049
7 | 20:27.25 | 3:41.52 | 92050 | 108676
8 | 24:09.02 | 1:26.28 | 108677 | 115154
9 | 25:35.30 | 3:19.42 | 115155 | 130121
10 | 28:54.72 | 3:05.60 | 130122 | 144056
11 | 32:00.57 | 3:42.45 | 144057 | 160751
12 | 35:43.27 | 3:22.55 | 160752 | 175956
13 | 39:06.07 | 3:00.13 | 175957 | 189469
14 | 42:06.20 | 3:39.62 | 189470 | 205956
15 | 45:46.07 | 3:29.40 | 205957 | 221671
16 | 49:15.47 | 3:16.70 | 221672 | 236441
17 | 52:32.42 | 3:26.08 | 236442 | 251899
18 | 55:58.50 | 3:47.62 | 251900 | 268986
19 | 59:46.37 | 3:47.40 | 268987 | 286051
20 | 63:34.02 | 8:48.03 | 286052 | 325654

Track 1

Filename F:Jean-Michel Jarre - Images (24Bit Digital Remaster) (CD-FLAC-Lossless) - 1997�1 - Oxygene (Part 4).wav

Pre-gap length 0:00:02.00

Peak level 100.0 %
Extraction speed 1.7 X
Track quality 100.0 %
Test CRC 037B879A
Copy CRC 037B879A
Accurately ripped (confidence 2) [853158E4] (AR v2)
Copy OK

Track 2

Filename F:Jean-Michel Jarre - Images (24Bit Digital Remaster) (CD-FLAC-Lossless) - 1997�2 - Equinoxe (Part 5).wav

Peak level 100.0 %
Extraction speed 1.8 X
Track quality 100.0 %
Test CRC D9204B5C
Copy CRC D9204B5C
Accurately ripped (confidence 2) [B7FC5C77] (AR v2)
Copy OK

Track 3

Filename F:Jean-Michel Jarre - Images (24Bit Digital Remaster) (CD-FLAC-Lossless) - 1997�3 - Chants Magnetiques,Magnetic Fields (Part 2).wav

Peak level 100.0 %
Extraction speed 2.0 X
Track quality 100.0 %
Test CRC 3DA09C7B
Copy CRC 3DA09C7B
Accurately ripped (confidence 2) [1F9D8122] (AR v2)
Copy OK

Track 4

Filename F:Jean-Michel Jarre - Images (24Bit Digital Remaster) (CD-FLAC-Lossless) - 1997�4 - Oxygene (Part 2).wav

Peak level 100.0 %
Extraction speed 2.0 X
Track quality 100.0 %
Test CRC 7129E95E
Copy CRC 7129E95E
Accurately ripped (confidence 2) [AC7E73BB] (AR v2)
Copy OK

Track 5

Filename F:Jean-Michel Jarre - Images (24Bit Digital Remaster) (CD-FLAC-Lossless) - 1997�5 - Computer Week End.wav

Peak level 100.0 %
Extraction speed 2.1 X
Track quality 100.0 %
Test CRC BA49EE4A
Copy CRC BA49EE4A
Accurately ripped (confidence 2) [71500D1A] (AR v2)
Copy OK

Track 6

Filename F:Jean-Michel Jarre - Images (24Bit Digital Remaster) (CD-FLAC-Lossless) - 1997�6 - Equinoxe (Part 4).wav

Peak level 100.0 %
Extraction speed 1.9 X
Track quality 99.9 %
Test CRC 6244EB24
Copy CRC 6244EB24
Accurately ripped (confidence 2) [7AF3B1B1] (AR v2)
Copy OK

Track 7

Filename F:Jean-Michel Jarre - Images (24Bit Digital Remaster) (CD-FLAC-Lossless) - 1997�7 - Ethnicolor 1.wav

Peak level 100.0 %
Extraction speed 2.4 X
Track quality 100.0 %
Test CRC FC751EC0
Copy CRC FC751EC0
Accurately ripped (confidence 2) [67E59FAE] (AR v2)
Copy OK

Track 8

Filename F:Jean-Michel Jarre - Images (24Bit Digital Remaster) (CD-FLAC-Lossless) - 1997�8 - L'Orchestre Sous La Pluie,Band In The Rain.wav

Peak level 100.0 %
Extraction speed 2.0 X
Track quality 100.0 %
Test CRC 2D4BA11B
Copy CRC 2D4BA11B
Accurately ripped (confidence 2) [52AD26F1] (AR v2)
Copy OK

Track 9

Filename F:Jean-Michel Jarre - Images (24Bit Digital Remaster) (CD-FLAC-Lossless) - 1997�9 - Orient Express.wav

Peak level 100.0 %
Extraction speed 2.1 X
Track quality 99.9 %
Test CRC 76023047
Copy CRC 76023047
Accurately ripped (confidence 2) [4EAE917C] (AR v2)
Copy OK

Track 10

Filename F:Jean-Michel Jarre - Images (24Bit Digital Remaster) (CD-FLAC-Lossless) - 199710 - Calypso 1.wav

Peak level 100.0 %
Extraction speed 2.5 X
Track quality 100.0 %
Test CRC 2B306066
Copy CRC 2B306066
Accurately ripped (confidence 2) [4E76E057] (AR v2)
Copy OK

Track 11

Filename F:Jean-Michel Jarre - Images (24Bit Digital Remaster) (CD-FLAC-Lossless) - 199711 - Calypso 3 (Fin de Siecle).wav

Peak level 100.0 %
Extraction speed 2.7 X
Track quality 100.0 %
Test CRC 19B9268B
Copy CRC 19B9268B
Accurately ripped (confidence 2) [A6165B7B] (AR v2)
Copy OK

Track 12

Filename F:Jean-Michel Jarre - Images (24Bit Digital Remaster) (CD-FLAC-Lossless) - 199712 - Fourth Rendez-Vous.wav

Peak level 100.0 %
Extraction speed 2.8 X
Track quality 100.0 %
Test CRC A213AA41
Copy CRC A213AA41
Accurately ripped (confidence 2) [93A7C05C] (AR v2)
Copy OK

Track 13

Filename F:Jean-Michel Jarre - Images (24Bit Digital Remaster) (CD-FLAC-Lossless) - 199713 - Moon Machine.wav

Peak level 100.0 %
Extraction speed 2.7 X
Track quality 100.0 %
Test CRC 7104367B
Copy CRC 7104367B
Accurately ripped (confidence 2) [8284FE44] (AR v2)
Copy OK

Track 14

Filename F:Jean-Michel Jarre - Images (24Bit Digital Remaster) (CD-FLAC-Lossless) - 199714 - Eldorado.wav

Peak level 100.0 %
Extraction speed 2.8 X
Track quality 100.0 %
Test CRC 9B4CA6FD
Copy CRC 9B4CA6FD
Accurately ripped (confidence 2) [6F9D958C] (AR v2)
Copy OK

Track 15

Filename F:Jean-Michel Jarre - Images (24Bit Digital Remaster) (CD-FLAC-Lossless) - 199715 - Globe Trotter.wav

Peak level 100.0 %
Extraction speed 3.0 X
Track quality 100.0 %
Test CRC F6F0732A
Copy CRC F6F0732A
Accurately ripped (confidence 2) [51085173] (AR v2)
Copy OK

Track 16

Filename F:Jean-Michel Jarre - Images (24Bit Digital Remaster) (CD-FLAC-Lossless) - 199716 - Wooloomooloo.wav

Peak level 100.0 %
Extraction speed 3.0 X
Track quality 100.0 %
Test CRC 8CDFB9DB
Copy CRC 8CDFB9DB
Accurately ripped (confidence 2) [E80E4393] (AR v2)
Copy OK

Track 17

Filename F:Jean-Michel Jarre - Images (24Bit Digital Remaster) (CD-FLAC-Lossless) - 199717 - Blah Blah Caf.wav

Peak level 100.0 %
Extraction speed 3.1 X
Track quality 100.0 %
Test CRC 6B25B06D
Copy CRC 6B25B06D
Accurately ripped (confidence 2) [3189150E] (AR v2)
Copy OK

Track 18

Filename F:Jean-Michel Jarre - Images (24Bit Digital Remaster) (CD-FLAC-Lossless) - 199718 - London Kid.wav

Peak level 100.0 %
Extraction speed 3.2 X
Track quality 100.0 %
Test CRC 8C16988D
Copy CRC 8C16988D
Accurately ripped (confidence 2) [EB01A440] (AR v2)
Copy OK

Track 19

Filename F:Jean-Michel Jarre - Images (24Bit Digital Remaster) (CD-FLAC-Lossless) - 199719 - Zoolookologie.wav

Peak level 100.0 %
Extraction speed 3.3 X
Track quality 100.0 %
Test CRC D79E64E1
Copy CRC D79E64E1
Accurately ripped (confidence 2) [BF32BD63] (AR v2)
Copy OK

Track 20

Filename F:Jean-Michel Jarre - Images (24Bit Digital Remaster) (CD-FLAC-Lossless) - 199720 - Second Rendez-Vous.wav

Peak level 100.0 %
Extraction speed 3.7 X
Track quality 100.0 %
Test CRC 97EB21E0
Copy CRC 97EB21E0
Accurately ripped (confidence 2) [00C7AE53] (AR v2)
Copy OK

All tracks accurately ripped

No errors occurred

End of status report

---- CUETools DB Plugin V2.1.3

[CTDB TOCID: SyqCyFlTbdeDuSVOEdNEBfYZkis-] found, Submit result: SyqCyFlTbdeDuSVOEdNEBfYZkis- has been confirmed
[aabd988d] (59/60) Accurately ripped
[e56e1aab] (01/60) No match

==== Log checksum 77907C1944D187139D9A56FD1ECB4A85051281EEF46FDF38B380AB0D04F4E4AE ====
REM GENRE Electronic 
REM DATE 1997
REM DISCID 2010F614
REM COMMENT "ExactAudioCopy v1.0b3"
CATALOG 5099748737823
PERFORMER "Jean Michel Jarre"
TITLE "Images"
FILE "01 - Oxygene (Part 4).wav" WAVE
TRACK 01 AUDIO
TITLE "Oxygene (Part 4)"
PERFORMER "Jean Michel Jarre"
ISRC FR14F7600010
INDEX 01 00:00:00
FILE "02 - Equinoxe (Part 5).wav" WAVE
TRACK 02 AUDIO
TITLE "Equinoxe (Part 5)"
PERFORMER "Jean Michel Jarre"
ISRC FR14F7800270
INDEX 01 00:00:00
FILE "03 - Chants Magnetiques,Magnetic Fields (Part 2).wav" WAVE
TRACK 03 AUDIO
TITLE "Chants Magnetiques/Magnetic Fields (Part 2)"
PERFORMER "Jean Michel Jarre"
ISRC FR14F8100190
INDEX 01 00:00:00
FILE "04 - Oxygene (Part 2).wav" WAVE
TRACK 04 AUDIO
TITLE "Oxygene (Part 2)"
PERFORMER "Jean Michel Jarre"
ISRC FR45F7600170
INDEX 01 00:00:00
FILE "05 - Computer Week End.wav" WAVE
TRACK 05 AUDIO
TITLE "Computer Week End"
PERFORMER "Jean Michel Jarre"
ISRC FR14F8800270
INDEX 01 00:00:00
FILE "06 - Equinoxe (Part 4).wav" WAVE
TRACK 06 AUDIO
TITLE "Equinoxe (Part 4)"
PERFORMER "Jean Michel Jarre"
ISRC FR14F7800280
INDEX 01 00:00:00
FILE "07 - Ethnicolor 1.wav" WAVE
TRACK 07 AUDIO
TITLE "Ethnicolor 1"
PERFORMER "Jean Michel Jarre"
ISRC FR14F8400280
INDEX 01 00:00:00
FILE "08 - L'Orchestre Sous La Pluie,Band In The Rain.wav" WAVE
TRACK 08 AUDIO
TITLE "L'Orchestre Sous La Pluie/Band In The Rain"
PERFORMER "Jean Michel Jarre"
ISRC FR14F8200120
INDEX 01 00:00:00
FILE "09 - Orient Express.wav" WAVE
TRACK 09 AUDIO
TITLE "Orient Express"
PERFORMER "Jean Michel Jarre"
ISRC FR14F8200330
INDEX 01 00:00:00
FILE "10 - Calypso 1.wav" WAVE
TRACK 10 AUDIO
TITLE "Calypso 1"
PERFORMER "Jean Michel Jarre"
ISRC FR14F9000250
INDEX 01 00:00:00
FILE "11 - Calypso 3 (Fin de Siecle).wav" WAVE
TRACK 11 AUDIO
TITLE "Calypso 3 (Fin de Siecle)"
PERFORMER "Jean Michel Jarre"
ISRC FR14F9000230
INDEX 01 00:00:00
FILE "12 - Fourth Rendez-Vous.wav" WAVE
TRACK 12 AUDIO
TITLE "Fourth Rendez-Vous"
PERFORMER "Jean Michel Jarre"
ISRC FR14F8600200
INDEX 01 00:00:00
FILE "13 - Moon Machine.wav" WAVE
TRACK 13 AUDIO
TITLE "Moon Machine"
PERFORMER "Jean Michel Jarre"
ISRC FR14F8600220
INDEX 01 00:00:00
FILE "14 - Eldorado.wav" WAVE
TRACK 14 AUDIO
TITLE "Eldorado"
PERFORMER "Jean Michel Jarre"
ISRC FR14F9100200
INDEX 01 00:00:00
FILE "15 - Globe Trotter.wav" WAVE
TRACK 15 AUDIO
TITLE "Globe Trotter"
PERFORMER "Jean Michel Jarre"
ISRC FR14F9100210
INDEX 01 00:00:00
FILE "16 - Wooloomooloo.wav" WAVE
TRACK 16 AUDIO
TITLE "Wooloomooloo"
PERFORMER "Jean Michel Jarre"
ISRC FR14F8400230
INDEX 01 00:00:00
FILE "17 - Blah Blah Caf.wav" WAVE
TRACK 17 AUDIO
TITLE "Blah Blah Caf"
PERFORMER "Jean Michel Jarre"
ISRC FR14F8400210
INDEX 01 00:00:00
FILE "18 - London Kid.wav" WAVE
TRACK 18 AUDIO
TITLE "London Kid"
PERFORMER "Jean Michel Jarre"
ISRC FR14F8800230
INDEX 01 00:00:00
FILE "19 - Zoolookologie.wav" WAVE
TRACK 19 AUDIO
TITLE "Zoolookologie"
PERFORMER "Jean Michel Jarre"
ISRC FR14F8800230
INDEX 01 00:00:00
FILE "20 - Second Rendez-Vous.wav" WAVE
TRACK 20 AUDIO
TITLE "Second Rendez-Vous"
PERFORMER "Jean Michel Jarre"
ISRC FR14F8600450
INDEX 01 00:00:00

info [Профиль]  [ЛС] 
Показать сообщения:    
Ответить на тему

Текущее время: 22-Май 23:41

Часовой пояс: GMT + 4



Вы не можете начинать темы
Вы не можете отвечать на сообщения
Вы не можете редактировать свои сообщения
Вы не можете удалять свои сообщения
Вы не можете голосовать в опросах
Вы не можете прикреплять файлы к сообщениям
Вы не можете скачивать файлы