Ошибка

(Experimental) The Kniφe ‎– Shaking The Habitual - 2013, FLAC (tracks+.cue), lossless

Ответить на тему
 
Автор Сообщение

Fobosov

Пол: Пол:Муж

Стаж: 9 лет 6 месяцев

Сообщений: 73

Предупреждений: 1

Украина
Рейтинг

post 19-Апр-2013 18:12 0[+]

[Цитировать] 

The Kniφe ‎– Shaking The Habitual


pic="http://i46.fastpic.ru/big/2013/0419/f0/1a49d6bd75aa2fd834d4816917a3b8f0.jpeg"


Жанр: Experimental
Год издания данного носителя: 2013
Страна-производитель носителя: Sweden
Лейбл: Rabid Records
Каталоговый номер: RABID048
Аудио кодек: FLAC
Тип рипа: tracks+.cue
Битрейт аудио: lossless
Продолжительность: 01:36:19
Источник (релизер): what.cd (DarkMagus)
Полиграфия: Отсутствует
Треклист:
CD 1
01. A Tooth For An Eye (6:04)
02. Full Of Fire (9:17)
03. A Cherry On Top (8:43)
04. Without You My Life Would Be Boring (5:14)
05. Wrap Your Arms Around Me (4:36)
06. Crake (0:55)
07. Old Dreams Waiting To Be Realized (19:02)
CD 2
01. Raging Lung (9:58)
02. Networking (6:42)
03. Oryx (0:37)
04. Stay Out Of Here (10:42)
05. Fracking Fluid Injection (9:54)
06. Ready To Lose (4:36)
 
X Lossless Decoder version 20130127 (142.3)

XLD extraction logfile from 2013-04-05 13:22:40 +0200

The Knife / Shaking The Habitual (CD 1)

Used drive : HL-DT-ST DVDRW GX40N (revision RQ00)
Media type : Pressed CD

Ripper mode : XLD Secure Ripper
Disable audio cache : OK for the drive with a cache less than 1375KiB
Make use of C2 pointers : NO
Read offset correction : 6
Max retry count : 100
Gap status : Analyzed, Appended

TOC of the extracted CD
Track | Start | Length | Start sector | End sector
---------------------------------------------------------
1 | 00:00:00 | 06:04:23 | 0 | 27322
2 | 06:04:23 | 09:16:38 | 27323 | 69060
3 | 15:20:61 | 08:43:17 | 69061 | 108302
4 | 24:04:03 | 05:14:15 | 108303 | 131867
5 | 29:18:18 | 04:35:74 | 131868 | 152566
6 | 33:54:17 | 00:54:55 | 152567 | 156671
7 | 34:48:72 | 19:02:06 | 156672 | 242327

AccurateRip Summary
Disc not found in AccurateRip DB.

All Tracks
Album gain : -8.41 dB
Peak : 1.000000
Statistics
Read error : 0
Jitter error (maybe fixed) : 0
Retry sector count : 0
Damaged sector count : 0

Track 01
Filename : /XLD/The Knife - Shaking The Habitual (2013) [FLAC] {2 CD}/CD 1/01 - A Tooth For An Eye.flac
Pre-gap length : 00:02:00

Track gain : -7.35 dB
Peak : 0.988617
CRC32 hash (test run) : E7A20445
CRC32 hash : E7A20445
CRC32 hash (skip zero) : 8A4C85FE
AccurateRip v1 signature : 48C6F284
AccurateRip v2 signature : 94C76042
->Track not present in AccurateRip database.
Statistics
Read error : 0
Jitter error (maybe fixed) : 0
Retry sector count : 0
Damaged sector count : 0

Track 02
Filename : /XLD/The Knife - Shaking The Habitual (2013) [FLAC] {2 CD}/CD 1/02 - Full Of Fire.flac

Track gain : -8.84 dB
Peak : 0.988617
CRC32 hash (test run) : E9F49CCC
CRC32 hash : E9F49CCC
CRC32 hash (skip zero) : 9535654F
AccurateRip v1 signature : C3F3FC06
AccurateRip v2 signature : 52E77AEF
->Track not present in AccurateRip database.
Statistics
Read error : 0
Jitter error (maybe fixed) : 0
Retry sector count : 0
Damaged sector count : 0

Track 03
Filename : /XLD/The Knife - Shaking The Habitual (2013) [FLAC] {2 CD}/CD 1/03 - A Cherry On Top.flac

Track gain : -4.39 dB
Peak : 0.988617
CRC32 hash (test run) : 08167489
CRC32 hash : 08167489
CRC32 hash (skip zero) : 984BE430
AccurateRip v1 signature : 340542DD
AccurateRip v2 signature : B21CD89D
->Track not present in AccurateRip database.
Statistics
Read error : 0
Jitter error (maybe fixed) : 0
Retry sector count : 0
Damaged sector count : 0

Track 04
Filename : /XLD/The Knife - Shaking The Habitual (2013) [FLAC] {2 CD}/CD 1/04 - Without You My Life Would Be Boring.flac

Track gain : -8.53 dB
Peak : 0.988617
CRC32 hash (test run) : D55C12A2
CRC32 hash : D55C12A2
CRC32 hash (skip zero) : 927789A1
AccurateRip v1 signature : F4F14115
AccurateRip v2 signature : 21E3DEDE
->Track not present in AccurateRip database.
Statistics
Read error : 0
Jitter error (maybe fixed) : 0
Retry sector count : 0
Damaged sector count : 0

Track 05
Filename : /XLD/The Knife - Shaking The Habitual (2013) [FLAC] {2 CD}/CD 1/05 - Wrap Your Arms Around Me.flac

Track gain : -10.39 dB
Peak : 0.988586
CRC32 hash (test run) : C6C34916
CRC32 hash : C6C34916
CRC32 hash (skip zero) : 977A1C8D
AccurateRip v1 signature : 19B0EC04
AccurateRip v2 signature : 63BEEF40
->Track not present in AccurateRip database.
Statistics
Read error : 0
Jitter error (maybe fixed) : 0
Retry sector count : 0
Damaged sector count : 0

Track 06
Filename : /XLD/The Knife - Shaking The Habitual (2013) [FLAC] {2 CD}/CD 1/06 - Crake.flac

Track gain : -9.74 dB
Peak : 1.000000
CRC32 hash (test run) : B7E06912
CRC32 hash : B7E06912
CRC32 hash (skip zero) : 74A109A4
AccurateRip v1 signature : 98DC9FC9
AccurateRip v2 signature : 3E101F10
->Track not present in AccurateRip database.
Statistics
Read error : 0
Jitter error (maybe fixed) : 0
Retry sector count : 0
Damaged sector count : 0

Track 07
Filename : /XLD/The Knife - Shaking The Habitual (2013) [FLAC] {2 CD}/CD 1/07 - Old Dreams Waiting To Be Realized.flac

Track gain : -4.40 dB
Peak : 1.000000
CRC32 hash (test run) : 2CE11279
CRC32 hash : 2CE11279
CRC32 hash (skip zero) : 290E793F
AccurateRip v1 signature : 3702DE72
AccurateRip v2 signature : F702F11B
->Track not present in AccurateRip database.
Statistics
Read error : 0
Jitter error (maybe fixed) : 0
Retry sector count : 0
Damaged sector count : 0

No errors occurred

End of status report
 
TITLE "Shaking The Habitual (CD 1)"
PERFORMER "The Knife"
REM GENRE "Alternative"
REM DATE "2013"
REM DISCNUMBER 1
REM TOTALDISCS 2
REM DISCID 510C9F07
FILE "01 - A Tooth For An Eye.wav" WAVE
TRACK 01 AUDIO
TITLE "A Tooth For An Eye"
SONGWRITER "The Knife"
ISRC SEWCE1300101
INDEX 01 00:00:00
FILE "02 - Full Of Fire.wav" WAVE
TRACK 02 AUDIO
TITLE "Full Of Fire"
SONGWRITER "The Knife"
ISRC SEWCE1300102
INDEX 01 00:00:00
FILE "03 - A Cherry On Top.wav" WAVE
TRACK 03 AUDIO
TITLE "A Cherry On Top"
SONGWRITER "The Knife"
ISRC SEWCE1300103
INDEX 01 00:00:00
FILE "04 - Without You My Life Would Be Boring.wav" WAVE
TRACK 04 AUDIO
TITLE "Without You My Life Would Be Boring"
SONGWRITER "The Knife"
ISRC SEWCE1300104
INDEX 01 00:00:00
FILE "05 - Wrap Your Arms Around Me.wav" WAVE
TRACK 05 AUDIO
TITLE "Wrap Your Arms Around Me"
SONGWRITER "The Knife"
ISRC SEWCE1300105
INDEX 01 00:00:00
FILE "06 - Crake.wav" WAVE
TRACK 06 AUDIO
TITLE "Crake"
SONGWRITER "The Knife"
ISRC SEWCE1300106
INDEX 01 00:00:00
FILE "07 - Old Dreams Waiting To Be Realized.wav" WAVE
TRACK 07 AUDIO
TITLE "Old Dreams Waiting To Be Realized"
SONGWRITER "The Knife"
ISRC SEWCE1300107
INDEX 01 00:00:00
 
X Lossless Decoder version 20130127 (142.3)

XLD extraction logfile from 2013-04-05 14:09:33 +0200

The Knife / Shaking The Habitual (CD 2)

Used drive : HL-DT-ST DVDRW GX40N (revision RQ00)
Media type : Pressed CD

Ripper mode : XLD Secure Ripper
Disable audio cache : OK for the drive with a cache less than 1375KiB
Make use of C2 pointers : NO
Read offset correction : 6
Max retry count : 100
Gap status : Analyzed, Appended

TOC of the extracted CD
Track | Start | Length | Start sector | End sector
---------------------------------------------------------
1 | 00:00:00 | 09:58:00 | 0 | 44849
2 | 09:58:00 | 06:41:44 | 44850 | 74968
3 | 16:39:44 | 00:36:45 | 74969 | 77713
4 | 17:16:14 | 10:42:29 | 77714 | 125892
5 | 27:58:43 | 09:54:04 | 125893 | 170446
6 | 37:52:47 | 04:35:54 | 170447 | 191125

AccurateRip Summary
Disc not found in AccurateRip DB.

All Tracks
Album gain : -7.01 dB
Peak : 1.000000
Statistics
Read error : 0
Jitter error (maybe fixed) : 0
Retry sector count : 0
Damaged sector count : 0

Track 01
Filename : /XLD/The Knife - Shaking The Habitual (2013) [FLAC] {2 CD}/CD 2/01 - Raging Lung.flac
Pre-gap length : 00:02:00

Track gain : -6.96 dB
Peak : 1.000000
CRC32 hash (test run) : F78E1F51
CRC32 hash : F78E1F51
CRC32 hash (skip zero) : DB5C278B
AccurateRip v1 signature : 6A2A3230
AccurateRip v2 signature : 397A35F4
->Track not present in AccurateRip database.
Statistics
Read error : 0
Jitter error (maybe fixed) : 0
Retry sector count : 0
Damaged sector count : 0

Track 02
Filename : /XLD/The Knife - Shaking The Habitual (2013) [FLAC] {2 CD}/CD 2/02 - Networking.flac

Track gain : -6.45 dB
Peak : 0.988617
CRC32 hash (test run) : 8CB480FD
CRC32 hash : 8CB480FD
CRC32 hash (skip zero) : 7E871D2D
AccurateRip v1 signature : CA0BDB94
AccurateRip v2 signature : 620C0A3E
->Track not present in AccurateRip database.
Statistics
Read error : 0
Jitter error (maybe fixed) : 0
Retry sector count : 0
Damaged sector count : 0

Track 03
Filename : /XLD/The Knife - Shaking The Habitual (2013) [FLAC] {2 CD}/CD 2/03 - Oryx.flac

Track gain : -8.30 dB
Peak : 0.865692
CRC32 hash (test run) : FD34C55E
CRC32 hash : FD34C55E
CRC32 hash (skip zero) : 276F2BE2
AccurateRip v1 signature : 6F384BF5
AccurateRip v2 signature : 61245206
->Track not present in AccurateRip database.
Statistics
Read error : 0
Jitter error (maybe fixed) : 0
Retry sector count : 0
Damaged sector count : 0

Track 04
Filename : /XLD/The Knife - Shaking The Habitual (2013) [FLAC] {2 CD}/CD 2/04 - Stay Out Of Here.flac

Track gain : -7.41 dB
Peak : 0.988617
CRC32 hash (test run) : 9FB06AD6
CRC32 hash : 9FB06AD6
CRC32 hash (skip zero) : 130451C7
AccurateRip v1 signature : 94E0C1CF
AccurateRip v2 signature : 2630177D
->Track not present in AccurateRip database.
Statistics
Read error : 0
Jitter error (maybe fixed) : 0
Retry sector count : 0
Damaged sector count : 0

Track 05
Filename : /XLD/The Knife - Shaking The Habitual (2013) [FLAC] {2 CD}/CD 2/05 - Fracking Fluid Injection.flac

Track gain : -6.11 dB
Peak : 0.988617
CRC32 hash (test run) : 808BE8BC
CRC32 hash : 808BE8BC
CRC32 hash (skip zero) : 960CC334
AccurateRip v1 signature : 318F4DDD
AccurateRip v2 signature : 75B09F5B
->Track not present in AccurateRip database.
Statistics
Read error : 0
Jitter error (maybe fixed) : 0
Retry sector count : 0
Damaged sector count : 0

Track 06
Filename : /XLD/The Knife - Shaking The Habitual (2013) [FLAC] {2 CD}/CD 2/06 - Ready To Lose.flac

Track gain : -6.35 dB
Peak : 0.988617
CRC32 hash (test run) : 7662190C
CRC32 hash : 7662190C
CRC32 hash (skip zero) : 5E8A477E
AccurateRip v1 signature : 3D5DC3DA
AccurateRip v2 signature : 395FC44C
->Track not present in AccurateRip database.
Statistics
Read error : 0
Jitter error (maybe fixed) : 0
Retry sector count : 0
Damaged sector count : 0

No errors occurred

End of status report
 
TITLE "Shaking The Habitual (CD 2)"
PERFORMER "The Knife"
REM GENRE "Alternative"
REM DATE "2013"
REM DISCNUMBER 2
REM TOTALDISCS 2
REM DISCID 3409F406
FILE "01 - Raging Lung.wav" WAVE
TRACK 01 AUDIO
TITLE "Raging Lung"
SONGWRITER "The Knife"
ISRC SEWCE1300108
INDEX 01 00:00:00
FILE "02 - Networking.wav" WAVE
TRACK 02 AUDIO
TITLE "Networking"
SONGWRITER "The Knife"
ISRC SEWCE1300109
INDEX 01 00:00:00
FILE "03 - Oryx.wav" WAVE
TRACK 03 AUDIO
TITLE "Oryx"
SONGWRITER "The Knife"
ISRC SEWCE1300110
INDEX 01 00:00:00
FILE "04 - Stay Out Of Here.wav" WAVE
TRACK 04 AUDIO
TITLE "Stay Out Of Here"
SONGWRITER "The Knife"
ISRC SEWCE1300111
INDEX 01 00:00:00
FILE "05 - Fracking Fluid Injection.wav" WAVE
TRACK 05 AUDIO
TITLE "Fracking Fluid Injection"
SONGWRITER "The Knife"
ISRC SEWCE1300112
INDEX 01 00:00:00
FILE "06 - Ready To Lose.wav" WAVE
TRACK 06 AUDIO
TITLE "Ready To Lose"
SONGWRITER "The Knife"
ISRC SEWCE1300113
INDEX 01 00:00:00

info [Профиль]  [ЛС] 
Показать сообщения:    
Ответить на тему

Текущее время: 23-Май 01:06

Часовой пояс: GMT + 4



Вы не можете начинать темы
Вы не можете отвечать на сообщения
Вы не можете редактировать свои сообщения
Вы не можете удалять свои сообщения
Вы не можете голосовать в опросах
Вы не можете прикреплять файлы к сообщениям
Вы не можете скачивать файлы