Ошибка

(Classic Rock) Eagles - The Complete Greatest Hits (2xCD) (2003) - 2003, FLAC (tracks+.cue)+cover, lossless

Ответить на тему
 
Автор Сообщение

bi0skin

Пол: Пол:Муж

Стаж: 7 лет 8 месяцев

Сообщений: 38

Рейтинг

post 07-Янв-2013 03:55 1[+]

[Цитировать] 

Eagles - The Complete Greatest Hits (2xCD) (2003)


pic="http://s55.radikal.ru/i149/1301/1d/aa21385a1d1f.jpg"


Жанр: Classic Rock
Год издания данного носителя: 2003
Страна-производитель носителя: Germany
Лейбл: Warner Music Group.
Каталоговый номер: 8122 73731 2
Аудио кодек: FLAC
Тип рипа: tracks+.cue
Битрейт аудио: lossless
Продолжительность: 01:13:28 + 01:11:36
Полиграфия: Присутствует
Треклист:
01. Take It Easy (3:31)
02. Witchy Woman (4:11)
03. Peaceful Easy Feeling (4:16)
04. Desperado (3:33)
05. Tequila Sunrise (2:52)
06. Doolin-Dalton (3:27)
07. Already Gone (4:16)
08. The Best Of My Love (4:34)
09. Jasmes Dean (3:38)
10. Ol' 55 (4:22)
11. Midnight Flyer (3:58)
12. On The Border (4:23)
13. Lyin' Eyes (6:21)
14. One Of These Nights (4:50)
15. Take It To The Limit (4:47)
16. After The Thrill Is Gone (3:57)
17. Hotel California (6:30)
Exact Audio Copy V1.0 beta 3 from 29. August 2011 

Отчёт EAC об извлечении, выполненном 3. января 2013, 20:40

Eagles / The Complete Greatest Hits (CD 2)

Дисковод: PIONEER DVD-RW DVR-218L Adapter: 0 ID: 0

Режим чтения : Достоверность
Использование точного потока : Да
Отключение кэша аудио : Да
Использование указателей C2 : Нет

Коррекция смещения при чтении : 6
Способность читать области Lead-in и Lead-out : Нет
Заполнение пропущенных сэмплов тишиной : Да
Удаление блоков с тишиной в начале и конце : Нет
При вычислениях CRC использовались нулевые сэмплы : Да
Интерфейс : Встроенный Win32-интерфейс для Win NT/2000
Обработка зазоров : Добавлено к предыдущему треку

Выходной формат : Пользовательский кодировщик
Выбранный битрейт : 128 kBit/s
Качество : Высокий
Добавление ID3-тега : Нет
Утилита сжатия : C:\Program Files (x86)\Exact Audio Copy\Flac\flac.exe
Дополнительные параметры : -V -7 -T "Genre=%genre%" -T "Artist=%artist%" -T "Title=%title%" -T "Album=%albumtitle%" -T "Date=%year%" -T "Tracknumber=%tracknr%" -T "Comment=%comment%" %source%

TOC извлечённого CD

Трек | Старт | Длительность | Начальный сектор | Конечный сектор
---------------------------------------------------------------------
1 | 0:00.00 | 4:45.08 | 0 | 21382
2 | 4:45.08 | 4:54.30 | 21383 | 43462
3 | 9:39.38 | 4:10.23 | 43463 | 62235
4 | 13:49.61 | 7:28.41 | 62236 | 95876
5 | 21:18.27 | 5:05.63 | 95877 | 118814
6 | 26:24.15 | 2:58.60 | 118815 | 132224
7 | 29:23.00 | 4:25.39 | 132225 | 152138
8 | 33:48.39 | 5:33.60 | 152139 | 177173
9 | 39:22.24 | 4:53.25 | 177174 | 199173
10 | 44:15.49 | 3:41.40 | 199174 | 215788
11 | 47:57.14 | 3:44.71 | 215789 | 232659
12 | 51:42.10 | 4:56.27 | 232660 | 254886
13 | 56:38.37 | 3:04.48 | 254887 | 268734
14 | 59:43.10 | 4:02.41 | 268735 | 286925
15 | 63:45.51 | 3:30.53 | 286926 | 302728
16 | 67:16.29 | 4:19.57 | 302729 | 322210

Трек 1

Имя файла F:\_МУЗЫКА\Eagles - The Very Best Of Eagles - 2003\2003 The Very Best Of Eagles (CD 2)\01 Life In The Fast Lane.wav

Длина предзазора 0:00:02.00

Пиковый уровень 99.8 %
Скорость извлечения 1.2 X
Качество трека 100.0 %
CRC теста 26FE53B5
CRC копии 26FE53B5
Точное извлечение (достоверность 32) [19E724A7] (AR v2)
Копирование... OK

Трек 2

Имя файла F:\_МУЗЫКА\Eagles - The Very Best Of Eagles - 2003\2003 The Very Best Of Eagles (CD 2)\02 Wasted Time.wav

Пиковый уровень 99.8 %
Скорость извлечения 1.3 X
Качество трека 100.0 %
CRC теста 4E6B927E
CRC копии 4E6B927E
Точное извлечение (достоверность 32) [99DEEDEA] (AR v2)
Копирование... OK

Трек 3

Имя файла F:\_МУЗЫКА\Eagles - The Very Best Of Eagles - 2003\2003 The Very Best Of Eagles (CD 2)\03 Victim Of Love.wav

Пиковый уровень 96.6 %
Скорость извлечения 1.3 X
Качество трека 99.9 %
CRC теста B00C65DE
CRC копии B00C65DE
Точное извлечение (достоверность 32) [37616B15] (AR v2)
Копирование... OK

Трек 4

Имя файла F:\_МУЗЫКА\Eagles - The Very Best Of Eagles - 2003\2003 The Very Best Of Eagles (CD 2)\04 The Last Resort.wav

Пиковый уровень 99.8 %
Скорость извлечения 1.6 X
Качество трека 99.9 %
CRC теста 5DA7F8EF
CRC копии 5DA7F8EF
Точное извлечение (достоверность 32) [FBF11309] (AR v2)
Копирование... OK

Трек 5

Имя файла F:\_МУЗЫКА\Eagles - The Very Best Of Eagles - 2003\2003 The Very Best Of Eagles (CD 2)\05 New Kid In Town.wav

Пиковый уровень 99.8 %
Скорость извлечения 1.8 X
Качество трека 100.0 %
CRC теста 352E4399
CRC копии 352E4399
Точное извлечение (достоверность 33) [51FD7E3F] (AR v2)
Копирование... OK

Трек 6

Имя файла F:\_МУЗЫКА\Eagles - The Very Best Of Eagles - 2003\2003 The Very Best Of Eagles (CD 2)\06 Please Come Home For Christmas.wav

Длина предзазора 0:00:01.65

Пиковый уровень 96.5 %
Скорость извлечения 1.7 X
Качество трека 100.0 %
CRC теста D717E149
CRC копии D717E149
Точное извлечение (достоверность 31) [93F4500C] (AR v2)
Копирование... OK

Трек 7

Имя файла F:\_МУЗЫКА\Eagles - The Very Best Of Eagles - 2003\2003 The Very Best Of Eagles (CD 2)\07 Heartache Tonight.wav

Пиковый уровень 99.8 %
Скорость извлечения 1.9 X
Качество трека 100.0 %
CRC теста 2825BA3D
CRC копии 2825BA3D
Точное извлечение (достоверность 31) [38BF20A9] (AR v2)
Копирование... OK

Трек 8

Имя файла F:\_МУЗЫКА\Eagles - The Very Best Of Eagles - 2003\2003 The Very Best Of Eagles (CD 2)\08 The Sad Cafe.wav

Пиковый уровень 99.8 %
Скорость извлечения 2.0 X
Качество трека 100.0 %
CRC теста 49293A04
CRC копии 49293A04
Точное извлечение (достоверность 30) [AC11DCC4] (AR v2)
Копирование... OK

Трек 9

Имя файла F:\_МУЗЫКА\Eagles - The Very Best Of Eagles - 2003\2003 The Very Best Of Eagles (CD 2)\09 I Can't Tell You Why.wav

Пиковый уровень 99.8 %
Скорость извлечения 2.1 X
Качество трека 100.0 %
CRC теста DAFA43A6
CRC копии DAFA43A6
Точное извлечение (достоверность 30) [5F19D044] (AR v2)
Копирование... OK

Трек 10

Имя файла F:\_МУЗЫКА\Eagles - The Very Best Of Eagles - 2003\2003 The Very Best Of Eagles (CD 2)\10 The Long Run.wav

Пиковый уровень 99.8 %
Скорость извлечения 2.1 X
Качество трека 100.0 %
CRC теста 04FD2D5E
CRC копии 04FD2D5E
Точное извлечение (достоверность 29) [E48016CD] (AR v2)
Копирование... OK

Трек 11

Имя файла F:\_МУЗЫКА\Eagles - The Very Best Of Eagles - 2003\2003 The Very Best Of Eagles (CD 2)\11 In The City.wav

Пиковый уровень 99.8 %
Скорость извлечения 2.2 X
Качество трека 100.0 %
CRC теста 345B5FCD
CRC копии 345B5FCD
Точное извлечение (достоверность 29) [D40CBB4F] (AR v2)
Копирование... OK

Трек 12

Имя файла F:\_МУЗЫКА\Eagles - The Very Best Of Eagles - 2003\2003 The Very Best Of Eagles (CD 2)\12 Those Shoes.wav

Пиковый уровень 96.6 %
Скорость извлечения 2.3 X
Качество трека 100.0 %
CRC теста 0FF65D09
CRC копии 0FF65D09
Точное извлечение (достоверность 30) [8F28A6E0] (AR v2)
Копирование... OK

Трек 13

Имя файла F:\_МУЗЫКА\Eagles - The Very Best Of Eagles - 2003\2003 The Very Best Of Eagles (CD 2)\13 Seven Bridges Road (Live).wav

Пиковый уровень 96.5 %
Скорость извлечения 2.2 X
Качество трека 100.0 %
CRC теста 6864B8C7
CRC копии 6864B8C7
Точное извлечение (достоверность 31) [F98B16D2] (AR v2)
Копирование... OK

Трек 14

Имя файла F:\_МУЗЫКА\Eagles - The Very Best Of Eagles - 2003\2003 The Very Best Of Eagles (CD 2)\14 Love Will Keep Us Alive.wav

Пиковый уровень 99.8 %
Скорость извлечения 2.4 X
Качество трека 100.0 %
CRC теста E3FA5051
CRC копии E3FA5051
Точное извлечение (достоверность 30) [E5767FCC] (AR v2)
Копирование... OK

Трек 15

Имя файла F:\_МУЗЫКА\Eagles - The Very Best Of Eagles - 2003\2003 The Very Best Of Eagles (CD 2)\15 Get Over It.wav

Пиковый уровень 99.8 %
Скорость извлечения 2.4 X
Качество трека 100.0 %
CRC теста 82450D44
CRC копии 82450D44
Точное извлечение (достоверность 30) [ADC75E87] (AR v2)
Копирование... OK

Трек 16

Имя файла F:\_МУЗЫКА\Eagles - The Very Best Of Eagles - 2003\2003 The Very Best Of Eagles (CD 2)\16 Hole In The World.wav

Длина предзазора 0:00:01.27

Пиковый уровень 100.0 %
Скорость извлечения 2.5 X
Качество трека 100.0 %
CRC теста 813039BB
CRC копии 813039BB
Точное извлечение (достоверность 30) [0EAF855A] (AR v2)
Копирование... OK

Все треки извлечены точно

Ошибок не произошло

Конец отчёта

==== Контрольная сумма отчёта EBA7636BCE330DDFC2F7E95539B129370D97449372426BD97F60F489BA7ACA48 ====
REM GENRE Rock 
REM DATE 2003
REM DISCID D4113711
REM COMMENT "ExactAudioCopy v1.0b3"
PERFORMER "Eagles"
TITLE "The Complete Greatest Hits (CD 1)"
FILE "01 Take It Easy.wav" WAVE
TRACK 01 AUDIO
TITLE "Take It Easy"
PERFORMER "Eagles"
INDEX 01 00:00:00
FILE "02 Witchy Woman.wav" WAVE
TRACK 02 AUDIO
TITLE "Witchy Woman"
PERFORMER "Eagles"
INDEX 01 00:00:00
FILE "03 Peaceful Easy Feeling.wav" WAVE
TRACK 03 AUDIO
TITLE "Peaceful Easy Feeling"
PERFORMER "Eagles"
INDEX 01 00:00:00
FILE "04 Desperado.wav" WAVE
TRACK 04 AUDIO
TITLE "Desperado"
PERFORMER "Eagles"
INDEX 01 00:00:00
FILE "05 Tequila Sunrise.wav" WAVE
TRACK 05 AUDIO
TITLE "Tequila Sunrise"
PERFORMER "Eagles"
INDEX 01 00:00:00
FILE "06 Doolin-Dalton.wav" WAVE
TRACK 06 AUDIO
TITLE "Doolin-Dalton"
PERFORMER "Eagles"
INDEX 01 00:00:00
FILE "07 Already Gone.wav" WAVE
TRACK 07 AUDIO
TITLE "Already Gone"
PERFORMER "Eagles"
INDEX 01 00:00:00
FILE "08 The Best Of My Love.wav" WAVE
TRACK 08 AUDIO
TITLE "The Best Of My Love"
PERFORMER "Eagles"
INDEX 01 00:00:00
FILE "09 Jasmes Dean.wav" WAVE
TRACK 09 AUDIO
TITLE "Jasmes Dean"
PERFORMER "Eagles"
INDEX 01 00:00:00
FILE "10 Ol' 55.wav" WAVE
TRACK 10 AUDIO
TITLE "Ol' 55"
PERFORMER "Eagles"
INDEX 01 00:00:00
FILE "11 Midnight Flyer.wav" WAVE
TRACK 11 AUDIO
TITLE "Midnight Flyer"
PERFORMER "Eagles"
INDEX 01 00:00:00
FILE "12 On The Border.wav" WAVE
TRACK 12 AUDIO
TITLE "On The Border"
PERFORMER "Eagles"
INDEX 01 00:00:00
FILE "13 Lyin' Eyes.wav" WAVE
TRACK 13 AUDIO
TITLE "Lyin' Eyes"
PERFORMER "Eagles"
INDEX 01 00:00:00
FILE "14 One Of These Nights.wav" WAVE
TRACK 14 AUDIO
TITLE "One Of These Nights"
PERFORMER "Eagles"
INDEX 01 00:00:00
FILE "15 Take It To The Limit.wav" WAVE
TRACK 15 AUDIO
TITLE "Take It To The Limit"
PERFORMER "Eagles"
INDEX 01 00:00:00
FILE "16 After The Thrill Is Gone.wav" WAVE
TRACK 16 AUDIO
TITLE "After The Thrill Is Gone"
PERFORMER "Eagles"
INDEX 01 00:00:00
FILE "17 Hotel California.wav" WAVE
TRACK 17 AUDIO
TITLE "Hotel California"
PERFORMER "Eagles"
INDEX 01 00:00:00
Треклист:
01. Life In The Fast Lane (4:45)
02. Wasted Time (4:54)
03. Victim Of Love (4:10)
04. The Last Resort (7:29)
05. New Kid In Town (5:06)
06. Please Come Home For Christmas (2:59)
07. Heartache Tonight (4:26)
08. The Sad Cafe (5:34)
09. I Can't Tell You Why (4:53)
10. The Long Run (3:42)
11. In The City (3:45)
12. Those Shoes (4:56)
13. Seven Bridges Road (Live) (3:05)
14. Love Will Keep Us Alive (4:03)
15. Get Over It (3:31)
16. Hole In The World (4:20)
Exact Audio Copy V1.0 beta 3 from 29. August 2011 

Отчёт EAC об извлечении, выполненном 3. января 2013, 20:40

Eagles / The Complete Greatest Hits (CD 2)

Дисковод: PIONEER DVD-RW DVR-218L Adapter: 0 ID: 0

Режим чтения : Достоверность
Использование точного потока : Да
Отключение кэша аудио : Да
Использование указателей C2 : Нет

Коррекция смещения при чтении : 6
Способность читать области Lead-in и Lead-out : Нет
Заполнение пропущенных сэмплов тишиной : Да
Удаление блоков с тишиной в начале и конце : Нет
При вычислениях CRC использовались нулевые сэмплы : Да
Интерфейс : Встроенный Win32-интерфейс для Win NT/2000
Обработка зазоров : Добавлено к предыдущему треку

Выходной формат : Пользовательский кодировщик
Выбранный битрейт : 128 kBit/s
Качество : Высокий
Добавление ID3-тега : Нет
Утилита сжатия : C:\Program Files (x86)\Exact Audio Copy\Flac\flac.exe
Дополнительные параметры : -V -7 -T "Genre=%genre%" -T "Artist=%artist%" -T "Title=%title%" -T "Album=%albumtitle%" -T "Date=%year%" -T "Tracknumber=%tracknr%" -T "Comment=%comment%" %source%

TOC извлечённого CD

Трек | Старт | Длительность | Начальный сектор | Конечный сектор
---------------------------------------------------------------------
1 | 0:00.00 | 4:45.08 | 0 | 21382
2 | 4:45.08 | 4:54.30 | 21383 | 43462
3 | 9:39.38 | 4:10.23 | 43463 | 62235
4 | 13:49.61 | 7:28.41 | 62236 | 95876
5 | 21:18.27 | 5:05.63 | 95877 | 118814
6 | 26:24.15 | 2:58.60 | 118815 | 132224
7 | 29:23.00 | 4:25.39 | 132225 | 152138
8 | 33:48.39 | 5:33.60 | 152139 | 177173
9 | 39:22.24 | 4:53.25 | 177174 | 199173
10 | 44:15.49 | 3:41.40 | 199174 | 215788
11 | 47:57.14 | 3:44.71 | 215789 | 232659
12 | 51:42.10 | 4:56.27 | 232660 | 254886
13 | 56:38.37 | 3:04.48 | 254887 | 268734
14 | 59:43.10 | 4:02.41 | 268735 | 286925
15 | 63:45.51 | 3:30.53 | 286926 | 302728
16 | 67:16.29 | 4:19.57 | 302729 | 322210

Трек 1

Имя файла F:\_МУЗЫКА\Eagles - The Very Best Of Eagles - 2003\2003 The Very Best Of Eagles (CD 2)\01 Life In The Fast Lane.wav

Длина предзазора 0:00:02.00

Пиковый уровень 99.8 %
Скорость извлечения 1.2 X
Качество трека 100.0 %
CRC теста 26FE53B5
CRC копии 26FE53B5
Точное извлечение (достоверность 32) [19E724A7] (AR v2)
Копирование... OK

Трек 2

Имя файла F:\_МУЗЫКА\Eagles - The Very Best Of Eagles - 2003\2003 The Very Best Of Eagles (CD 2)\02 Wasted Time.wav

Пиковый уровень 99.8 %
Скорость извлечения 1.3 X
Качество трека 100.0 %
CRC теста 4E6B927E
CRC копии 4E6B927E
Точное извлечение (достоверность 32) [99DEEDEA] (AR v2)
Копирование... OK

Трек 3

Имя файла F:\_МУЗЫКА\Eagles - The Very Best Of Eagles - 2003\2003 The Very Best Of Eagles (CD 2)\03 Victim Of Love.wav

Пиковый уровень 96.6 %
Скорость извлечения 1.3 X
Качество трека 99.9 %
CRC теста B00C65DE
CRC копии B00C65DE
Точное извлечение (достоверность 32) [37616B15] (AR v2)
Копирование... OK

Трек 4

Имя файла F:\_МУЗЫКА\Eagles - The Very Best Of Eagles - 2003\2003 The Very Best Of Eagles (CD 2)\04 The Last Resort.wav

Пиковый уровень 99.8 %
Скорость извлечения 1.6 X
Качество трека 99.9 %
CRC теста 5DA7F8EF
CRC копии 5DA7F8EF
Точное извлечение (достоверность 32) [FBF11309] (AR v2)
Копирование... OK

Трек 5

Имя файла F:\_МУЗЫКА\Eagles - The Very Best Of Eagles - 2003\2003 The Very Best Of Eagles (CD 2)\05 New Kid In Town.wav

Пиковый уровень 99.8 %
Скорость извлечения 1.8 X
Качество трека 100.0 %
CRC теста 352E4399
CRC копии 352E4399
Точное извлечение (достоверность 33) [51FD7E3F] (AR v2)
Копирование... OK

Трек 6

Имя файла F:\_МУЗЫКА\Eagles - The Very Best Of Eagles - 2003\2003 The Very Best Of Eagles (CD 2)\06 Please Come Home For Christmas.wav

Длина предзазора 0:00:01.65

Пиковый уровень 96.5 %
Скорость извлечения 1.7 X
Качество трека 100.0 %
CRC теста D717E149
CRC копии D717E149
Точное извлечение (достоверность 31) [93F4500C] (AR v2)
Копирование... OK

Трек 7

Имя файла F:\_МУЗЫКА\Eagles - The Very Best Of Eagles - 2003\2003 The Very Best Of Eagles (CD 2)\07 Heartache Tonight.wav

Пиковый уровень 99.8 %
Скорость извлечения 1.9 X
Качество трека 100.0 %
CRC теста 2825BA3D
CRC копии 2825BA3D
Точное извлечение (достоверность 31) [38BF20A9] (AR v2)
Копирование... OK

Трек 8

Имя файла F:\_МУЗЫКА\Eagles - The Very Best Of Eagles - 2003\2003 The Very Best Of Eagles (CD 2)\08 The Sad Cafe.wav

Пиковый уровень 99.8 %
Скорость извлечения 2.0 X
Качество трека 100.0 %
CRC теста 49293A04
CRC копии 49293A04
Точное извлечение (достоверность 30) [AC11DCC4] (AR v2)
Копирование... OK

Трек 9

Имя файла F:\_МУЗЫКА\Eagles - The Very Best Of Eagles - 2003\2003 The Very Best Of Eagles (CD 2)\09 I Can't Tell You Why.wav

Пиковый уровень 99.8 %
Скорость извлечения 2.1 X
Качество трека 100.0 %
CRC теста DAFA43A6
CRC копии DAFA43A6
Точное извлечение (достоверность 30) [5F19D044] (AR v2)
Копирование... OK

Трек 10

Имя файла F:\_МУЗЫКА\Eagles - The Very Best Of Eagles - 2003\2003 The Very Best Of Eagles (CD 2)\10 The Long Run.wav

Пиковый уровень 99.8 %
Скорость извлечения 2.1 X
Качество трека 100.0 %
CRC теста 04FD2D5E
CRC копии 04FD2D5E
Точное извлечение (достоверность 29) [E48016CD] (AR v2)
Копирование... OK

Трек 11

Имя файла F:\_МУЗЫКА\Eagles - The Very Best Of Eagles - 2003\2003 The Very Best Of Eagles (CD 2)\11 In The City.wav

Пиковый уровень 99.8 %
Скорость извлечения 2.2 X
Качество трека 100.0 %
CRC теста 345B5FCD
CRC копии 345B5FCD
Точное извлечение (достоверность 29) [D40CBB4F] (AR v2)
Копирование... OK

Трек 12

Имя файла F:\_МУЗЫКА\Eagles - The Very Best Of Eagles - 2003\2003 The Very Best Of Eagles (CD 2)\12 Those Shoes.wav

Пиковый уровень 96.6 %
Скорость извлечения 2.3 X
Качество трека 100.0 %
CRC теста 0FF65D09
CRC копии 0FF65D09
Точное извлечение (достоверность 30) [8F28A6E0] (AR v2)
Копирование... OK

Трек 13

Имя файла F:\_МУЗЫКА\Eagles - The Very Best Of Eagles - 2003\2003 The Very Best Of Eagles (CD 2)\13 Seven Bridges Road (Live).wav

Пиковый уровень 96.5 %
Скорость извлечения 2.2 X
Качество трека 100.0 %
CRC теста 6864B8C7
CRC копии 6864B8C7
Точное извлечение (достоверность 31) [F98B16D2] (AR v2)
Копирование... OK

Трек 14

Имя файла F:\_МУЗЫКА\Eagles - The Very Best Of Eagles - 2003\2003 The Very Best Of Eagles (CD 2)\14 Love Will Keep Us Alive.wav

Пиковый уровень 99.8 %
Скорость извлечения 2.4 X
Качество трека 100.0 %
CRC теста E3FA5051
CRC копии E3FA5051
Точное извлечение (достоверность 30) [E5767FCC] (AR v2)
Копирование... OK

Трек 15

Имя файла F:\_МУЗЫКА\Eagles - The Very Best Of Eagles - 2003\2003 The Very Best Of Eagles (CD 2)\15 Get Over It.wav

Пиковый уровень 99.8 %
Скорость извлечения 2.4 X
Качество трека 100.0 %
CRC теста 82450D44
CRC копии 82450D44
Точное извлечение (достоверность 30) [ADC75E87] (AR v2)
Копирование... OK

Трек 16

Имя файла F:\_МУЗЫКА\Eagles - The Very Best Of Eagles - 2003\2003 The Very Best Of Eagles (CD 2)\16 Hole In The World.wav

Длина предзазора 0:00:01.27

Пиковый уровень 100.0 %
Скорость извлечения 2.5 X
Качество трека 100.0 %
CRC теста 813039BB
CRC копии 813039BB
Точное извлечение (достоверность 30) [0EAF855A] (AR v2)
Копирование... OK

Все треки извлечены точно

Ошибок не произошло

Конец отчёта

==== Контрольная сумма отчёта EBA7636BCE330DDFC2F7E95539B129370D97449372426BD97F60F489BA7ACA48 ====
REM GENRE Rock 
REM DATE 2003
REM DISCID E810C810
REM COMMENT "ExactAudioCopy v1.0b3"
PERFORMER "Eagles"
TITLE "The Complete Greatest Hits (CD 2)"
FILE "01 Life In The Fast Lane.wav" WAVE
TRACK 01 AUDIO
TITLE "Life In The Fast Lane"
PERFORMER "Eagles"
INDEX 01 00:00:00
FILE "02 Wasted Time.wav" WAVE
TRACK 02 AUDIO
TITLE "Wasted Time"
PERFORMER "Eagles"
INDEX 01 00:00:00
FILE "03 Victim Of Love.wav" WAVE
TRACK 03 AUDIO
TITLE "Victim Of Love"
PERFORMER "Eagles"
INDEX 01 00:00:00
FILE "04 The Last Resort.wav" WAVE
TRACK 04 AUDIO
TITLE "The Last Resort"
PERFORMER "Eagles"
INDEX 01 00:00:00
FILE "05 New Kid In Town.wav" WAVE
TRACK 05 AUDIO
TITLE "New Kid In Town"
PERFORMER "Eagles"
INDEX 01 00:00:00
TRACK 06 AUDIO
TITLE "Please Come Home For Christmas"
PERFORMER "Eagles"
INDEX 00 05:03:73
FILE "06 Please Come Home For Christmas.wav" WAVE
INDEX 01 00:00:00
FILE "07 Heartache Tonight.wav" WAVE
TRACK 07 AUDIO
TITLE "Heartache Tonight"
PERFORMER "Eagles"
INDEX 01 00:00:00
FILE "08 The Sad Cafe.wav" WAVE
TRACK 08 AUDIO
TITLE "The Sad Cafe"
PERFORMER "Eagles"
INDEX 01 00:00:00
FILE "09 I Can't Tell You Why.wav" WAVE
TRACK 09 AUDIO
TITLE "I Can't Tell You Why"
PERFORMER "Eagles"
INDEX 01 00:00:00
FILE "10 The Long Run.wav" WAVE
TRACK 10 AUDIO
TITLE "The Long Run"
PERFORMER "Eagles"
INDEX 01 00:00:00
FILE "11 In The City.wav" WAVE
TRACK 11 AUDIO
TITLE "In The City"
PERFORMER "Eagles"
INDEX 01 00:00:00
FILE "12 Those Shoes.wav" WAVE
TRACK 12 AUDIO
TITLE "Those Shoes"
PERFORMER "Eagles"
INDEX 01 00:00:00
FILE "13 Seven Bridges Road (Live).wav" WAVE
TRACK 13 AUDIO
TITLE "Seven Bridges Road (Live)"
PERFORMER "Eagles"
INDEX 01 00:00:00
FILE "14 Love Will Keep Us Alive.wav" WAVE
TRACK 14 AUDIO
TITLE "Love Will Keep Us Alive"
PERFORMER "Eagles"
INDEX 01 00:00:00
FILE "15 Get Over It.wav" WAVE
TRACK 15 AUDIO
TITLE "Get Over It"
PERFORMER "Eagles"
INDEX 01 00:00:00
TRACK 16 AUDIO
TITLE "Hole In The World"
PERFORMER "Eagles"
INDEX 00 03:29:26
FILE "16 Hole In The World.wav" WAVE
INDEX 01 00:00:00
info [Профиль]  [ЛС] 

Dark Messiah

Пол: Пол:Муж

Стаж: 11 лет

Сообщений: 147

Россия
Рейтинг

post 18-Янв-2013 19:17 (спустя 11 дней) [-]2[+]

[Цитировать] 

У них есть еще песни кроме Hotel California? Смеюсь
info [Профиль]  [ЛС] 

marsarmyy1

Пол: Пол:Муж

Стаж: 7 лет 9 месяцев

Сообщений: 14

Россия
Рейтинг

post 18-Янв-2013 22:22 (спустя 3 часа) [-]1[+]

[Цитировать] 

отличная музыка
info [Профиль]  [ЛС] 
Показать сообщения:    
Ответить на тему

Текущее время: 08-Июл 05:45

Часовой пояс: GMT + 4



Вы не можете начинать темы
Вы не можете отвечать на сообщения
Вы не можете редактировать свои сообщения
Вы не можете удалять свои сообщения
Вы не можете голосовать в опросах
Вы не можете прикреплять файлы к сообщениям
Вы не можете скачивать файлы