Ошибка

(Electronic, Instrumental, Keyboard, Hip-hop) Ronald Jenkees - Discography (2007-2012), FLAC (tracks+.cue), lossless

Ответить на тему
 
Автор Сообщение

Star-Gazer

Пол: Пол:Муж

Стаж: 10 лет

Сообщений: 130

Россия
Рейтинг

post 07-Июл-2011 20:18 1[+]

[Цитировать] 

Ronald Jenkees


Жанр: Electronic, Instrumental, Keyboard, Hip-hop
Степень сжатия: без сжатия (Lossless) // Кодек: FLAC
Страна: США // Годы: 2007-2012
Продолжительность: 02:38:46


Описание:
Рональд Дженкис получил известность благодаря своим роликам на YouTube. В его таланте можно убедиться , просмотрев пару роликов (ссылка на YouTube канал см. ниже). Парень "в живую" исполняет на синтезаторе замечательную музыку. Он пишет разноплановые композиции от техно до Hip-Hop, но все песни объединяет стилизация под ретро.
На настоящий момент вышло три его альбома. Первый (Ronald Jenkees) он самостоятельно записал в 2007 году. Второй же (Disorganized Fun) в 2009-ом был записан на профессиональной студии Independent.
Больше всего поражает тот факт, что красивейшую и довольно качественную музыку, в отличие от других музыкантов, Рональд пишет в простой программе FL Studio, которая легко доступна каждому и на довольно простом оборудовании.

Оборудование:
Клавиши: Yamaha Motif XS8, Korg Triton le
Программное обеспечение: FL Studio 8, Edison
Звуковая карта: M-Audio Delta 1010LT
VSTs: различные бесплатные VST
Микрофон: Edirol MA-10D
Наушники: AKG K-66

Доп. Информация:
Статья на Wikipedia.org
Оффициальный Youtube-канал
Оффициальный сайт (ENG)
Раздача в mp3 от trumenboy

Трек-лист:
01. Derty (03:23)
02. Neptune (03:23)
03. Canon in D Remix (03:17)
04. Clutter (04:13)
05. Super-Fun (03:41)
06. The Rocky Song Remixed (02:19)
07. Snap (04:00)
08. The Sunfish Song (02:43)
09. Loui (03:19)
10. Gold Spinners (03:40)
11. Remix To A Remix (04:07)
12. Almost Undamaged (04:44)
13. 56K RAP (03:00)
14. Aint No Thang RAP (03:22)

Код:

TITLE "Ronald Jenkees"
PERFORMER "Ronald Jenkees"
REM GENRE "Electronica/Dance"
REM DATE 2007
FILE "Ronald Jenkees.flac" WAVE
  TRACK 01 AUDIO
    TITLE "Derty"
    INDEX 01 00:00:00
  TRACK 02 AUDIO
    TITLE "Neptune"
    INDEX 00 03:23:46
    INDEX 01 03:25:46
  TRACK 03 AUDIO
    TITLE "Canon In D Remix"
    INDEX 00 06:48:55
    INDEX 01 06:50:55
  TRACK 04 AUDIO
    TITLE "Clutter"
    INDEX 00 10:07:69
    INDEX 01 10:09:69
  TRACK 05 AUDIO
    TITLE "Super-Fun"
    INDEX 00 14:23:28
    INDEX 01 14:25:28
  TRACK 06 AUDIO
    TITLE "The Rocky Song Remixed"
    INDEX 00 18:06:43
    INDEX 01 18:08:43
  TRACK 07 AUDIO
    TITLE "Snap"
    INDEX 00 20:27:62
    INDEX 01 20:29:62
  TRACK 08 AUDIO
    TITLE "The Sunfish Song"
    INDEX 00 24:29:66
    INDEX 01 24:31:66
  TRACK 09 AUDIO
    TITLE "Loui"
    INDEX 00 27:15:10
    INDEX 01 27:17:10
  TRACK 10 AUDIO
    TITLE "Gold Spinners"
    INDEX 00 30:36:72
    INDEX 01 30:38:72
  TRACK 11 AUDIO
    TITLE "Remix To A Remix"
    INDEX 00 34:19:61
    INDEX 01 34:21:61
  TRACK 12 AUDIO
    TITLE "Almost Undamaged"
    INDEX 00 38:29:34
    INDEX 01 38:31:34
  TRACK 13 AUDIO
    TITLE "56K (Rap)"
    INDEX 00 43:16:12
    INDEX 01 43:18:12
  TRACK 14 AUDIO
    TITLE "Ain't No Thang (Rap)"
    INDEX 00 46:18:69
    INDEX 01 46:20:69

Код:

X Lossless Decoder version 20090320 (105.1)
XLD extraction logfile from 2009-05-14 12:24:57 +0300
Ronald Jenkees / Ronald Jenkees
Used drive : Optiarc DVD RW AD-7203S (revision 1.01)
Use cdparanoia mode : YES (CDParanoia III 10.2 engine)
Disable audio cache : OK for the drive with cache less than 2750KB
Make use of C2 pointers : NO
Read offset correction : 48
Max retry count : 100
TOC of the extracted CD
Track | Start | Length | Start sector | End sector
---------------------------------------------------------
1 | 00:00:00 | 03:25:46 | 0 | 15420
2 | 03:25:46 | 03:25:09 | 15421 | 30804
3 | 06:50:55 | 03:19:14 | 30805 | 45743
4 | 10:09:69 | 04:15:34 | 45744 | 64902
5 | 14:25:28 | 03:43:15 | 64903 | 81642
6 | 18:08:43 | 02:21:19 | 81643 | 92236
7 | 20:29:62 | 04:02:04 | 92237 | 110390
8 | 24:31:66 | 02:45:19 | 110391 | 122784
9 | 27:17:10 | 03:21:62 | 122785 | 137921
10 | 30:38:72 | 03:42:64 | 137922 | 154635
11 | 34:21:61 | 04:09:48 | 154636 | 173358
12 | 38:31:34 | 04:46:53 | 173359 | 194861
13 | 43:18:12 | 03:02:57 | 194862 | 208568
14 | 46:20:69 | 03:22:65 | 208569 | 223783
All Tracks
Filename : /Users/privaloff/Desktop/Encoded/Ronald Jenkees.flac
CRC32 hash : F5FEE4E1
CRC32 hash (skip zero) : E60CDB1F
Statistics
Read error : 0
Skipped (treated as error) : 0
Edge jitter error (maybe fixed) : 0
Atom jitter error (maybe fixed) : 0
Drift error (maybe fixed) : 0
Dropped bytes error (maybe fixed) : 0
Duplicated bytes error (maybe fixed) : 0
Track 01
CRC32 hash : D271EADF
CRC32 hash (skip zero) : 986416C8
AccurateRip signature : 66FF7D32
->Accurately ripped! (confidence 3)
Statistics
Read error : 0
Skipped (treated as error) : 0
Edge jitter error (maybe fixed) : 0
Atom jitter error (maybe fixed) : 0
Drift error (maybe fixed) : 0
Dropped bytes error (maybe fixed) : 0
Duplicated bytes error (maybe fixed) : 0
Track 02
CRC32 hash : DBC0E34C
CRC32 hash (skip zero) : E0CCA116
AccurateRip signature : C0C02B0C
->Accurately ripped! (confidence 3)
Statistics
Read error : 0
Skipped (treated as error) : 0
Edge jitter error (maybe fixed) : 0
Atom jitter error (maybe fixed) : 0
Drift error (maybe fixed) : 0
Dropped bytes error (maybe fixed) : 0
Duplicated bytes error (maybe fixed) : 0
Track 03
CRC32 hash : B6771594
CRC32 hash (skip zero) : 92859F17
AccurateRip signature : AED3298E
->Accurately ripped! (confidence 3)
Statistics
Read error : 0
Skipped (treated as error) : 0
Edge jitter error (maybe fixed) : 0
Atom jitter error (maybe fixed) : 0
Drift error (maybe fixed) : 0
Dropped bytes error (maybe fixed) : 0
Duplicated bytes error (maybe fixed) : 0
Track 04
CRC32 hash : 31C670EE
CRC32 hash (skip zero) : 1A489F85
AccurateRip signature : E588E916
->Accurately ripped! (confidence 3)
Statistics
Read error : 0
Skipped (treated as error) : 0
Edge jitter error (maybe fixed) : 0
Atom jitter error (maybe fixed) : 0
Drift error (maybe fixed) : 0
Dropped bytes error (maybe fixed) : 0
Duplicated bytes error (maybe fixed) : 0
Track 05
CRC32 hash : B9CEA7F7
CRC32 hash (skip zero) : 436BE1AF
AccurateRip signature : 088EC474
->Accurately ripped! (confidence 3)
Statistics
Read error : 0
Skipped (treated as error) : 0
Edge jitter error (maybe fixed) : 0
Atom jitter error (maybe fixed) : 0
Drift error (maybe fixed) : 0
Dropped bytes error (maybe fixed) : 0
Duplicated bytes error (maybe fixed) : 0
Track 06
CRC32 hash : 7282F267
CRC32 hash (skip zero) : 4FBA545E
AccurateRip signature : 257A1395
->Accurately ripped! (confidence 3)
Statistics
Read error : 0
Skipped (treated as error) : 0
Edge jitter error (maybe fixed) : 0
Atom jitter error (maybe fixed) : 0
Drift error (maybe fixed) : 0
Dropped bytes error (maybe fixed) : 0
Duplicated bytes error (maybe fixed) : 0
Track 07
CRC32 hash : 90686DCC
CRC32 hash (skip zero) : 054988A6
AccurateRip signature : A416E507
->Accurately ripped! (confidence 3)
Statistics
Read error : 0
Skipped (treated as error) : 0
Edge jitter error (maybe fixed) : 0
Atom jitter error (maybe fixed) : 0
Drift error (maybe fixed) : 0
Dropped bytes error (maybe fixed) : 0
Duplicated bytes error (maybe fixed) : 0
Track 08
CRC32 hash : E9E3AE64
CRC32 hash (skip zero) : 5E89D1AE
AccurateRip signature : 92191606
->Accurately ripped! (confidence 3)
Statistics
Read error : 0
Skipped (treated as error) : 0
Edge jitter error (maybe fixed) : 0
Atom jitter error (maybe fixed) : 0
Drift error (maybe fixed) : 0
Dropped bytes error (maybe fixed) : 0
Duplicated bytes error (maybe fixed) : 0
Track 09
CRC32 hash : AA392A05
CRC32 hash (skip zero) : 8AB5B3BF
AccurateRip signature : C15107FB
->Accurately ripped! (confidence 3)
Statistics
Read error : 0
Skipped (treated as error) : 0
Edge jitter error (maybe fixed) : 0
Atom jitter error (maybe fixed) : 0
Drift error (maybe fixed) : 0
Dropped bytes error (maybe fixed) : 0
Duplicated bytes error (maybe fixed) : 0
Track 10
CRC32 hash : F328A1C1
CRC32 hash (skip zero) : 5E350DBD
AccurateRip signature : 2A85DCF6
->Accurately ripped! (confidence 3)
Statistics
Read error : 0
Skipped (treated as error) : 0
Edge jitter error (maybe fixed) : 0
Atom jitter error (maybe fixed) : 0
Drift error (maybe fixed) : 0
Dropped bytes error (maybe fixed) : 0
Duplicated bytes error (maybe fixed) : 0
Track 11
CRC32 hash : 01F2810B
CRC32 hash (skip zero) : 8760E553
AccurateRip signature : 613055F1
->Accurately ripped! (confidence 3)
Statistics
Read error : 0
Skipped (treated as error) : 0
Edge jitter error (maybe fixed) : 0
Atom jitter error (maybe fixed) : 0
Drift error (maybe fixed) : 0
Dropped bytes error (maybe fixed) : 0
Duplicated bytes error (maybe fixed) : 0
Track 12
CRC32 hash : 51BF8D37
CRC32 hash (skip zero) : 0330E199
AccurateRip signature : 66D02BDA
->Accurately ripped! (confidence 3)
Statistics
Read error : 0
Skipped (treated as error) : 0
Edge jitter error (maybe fixed) : 0
Atom jitter error (maybe fixed) : 0
Drift error (maybe fixed) : 0
Dropped bytes error (maybe fixed) : 0
Duplicated bytes error (maybe fixed) : 0
Track 13
CRC32 hash : 5D806645
CRC32 hash (skip zero) : A439F783
AccurateRip signature : 2402EBAF
->Accurately ripped! (confidence 3)
Statistics
Read error : 0
Skipped (treated as error) : 0
Edge jitter error (maybe fixed) : 0
Atom jitter error (maybe fixed) : 0
Drift error (maybe fixed) : 0
Dropped bytes error (maybe fixed) : 0
Duplicated bytes error (maybe fixed) : 0
Track 14
CRC32 hash : A5EA131F
CRC32 hash (skip zero) : BED794D2
AccurateRip signature : 43D39F9E
->Accurately ripped! (confidence 3)
Statistics
Read error : 0
Skipped (treated as error) : 0
Edge jitter error (maybe fixed) : 0
Atom jitter error (maybe fixed) : 0
Drift error (maybe fixed) : 0
Dropped bytes error (maybe fixed) : 0
Duplicated bytes error (maybe fixed) : 0
No errors occurred
End of status report
01. Disorganized Fun (04:10)
02. Fifteen Fifty (04:34)
03. Guitar Sound (07:00)
04. Synth One (03:21)
05. Throwing Fire (04:52)
06. Minimal MC (02:43)
07. Stay Crunchy (04:06)
08. Inverted Mean (04:02)
09. Outer Space (05:02)
10. Let's Ride (03:04)
11. It's Gettin Rowdy (03:14)

Код:

REM GENRE Electronic
REM DATE 2009
REM DISCID 7D0AEA0B
REM COMMENT "ExactAudioCopy v0.99pb5"
FILE "01 Disorganized Fun.wav" WAVE
  TRACK 01 AUDIO
    FLAGS DCP
    INDEX 01 00:00:00
  TRACK 02 AUDIO
    FLAGS DCP
    INDEX 00 04:10:07
FILE "02 Fifteen Fifty.wav" WAVE
    INDEX 01 00:00:00
  TRACK 03 AUDIO
    FLAGS DCP
    INDEX 00 04:33:73
FILE "03 Guitar Sound.wav" WAVE
    INDEX 01 00:00:00
  TRACK 04 AUDIO
    FLAGS DCP
    INDEX 00 07:00:45
FILE "04 Synth One.wav" WAVE
    INDEX 01 00:00:00
  TRACK 05 AUDIO
    FLAGS DCP
    INDEX 00 03:21:32
FILE "05 Throwing Fire.wav" WAVE
    INDEX 01 00:00:00
  TRACK 06 AUDIO
    FLAGS DCP
    INDEX 00 04:52:42
FILE "06 Minimal MC.wav" WAVE
    INDEX 01 00:00:00
    INDEX 02 00:09:00
    INDEX 03 00:18:00
    INDEX 04 00:25:37
    INDEX 05 00:34:37
    INDEX 06 00:45:00
    INDEX 07 00:54:00
    INDEX 08 01:06:00
    INDEX 09 01:13:37
  TRACK 07 AUDIO
    FLAGS DCP
    INDEX 00 02:43:37
FILE "07 Stay Crunchy.wav" WAVE
    INDEX 01 00:00:00
  TRACK 08 AUDIO
    FLAGS DCP
    INDEX 00 04:06:64
FILE "08 Inverted Mean.wav" WAVE
    INDEX 01 00:00:00
    INDEX 02 00:05:03
    INDEX 03 00:10:07
    INDEX 04 01:28:31
    INDEX 05 02:29:03
  TRACK 09 AUDIO
    FLAGS DCP
    INDEX 00 04:02:39
FILE "09 Outer Space.wav" WAVE
    INDEX 01 00:00:00
  TRACK 10 AUDIO
    FLAGS DCP
    INDEX 00 05:02:43
FILE "10 Let's Ride (rap).wav" WAVE
    INDEX 01 00:00:00
    INDEX 02 00:20:15
    INDEX 03 00:40:31
    INDEX 04 01:00:47
    INDEX 05 01:20:63
    INDEX 06 01:41:03
    INDEX 07 02:01:19
    INDEX 08 02:21:35
    INDEX 09 02:41:51
  TRACK 11 AUDIO
    FLAGS DCP
    INDEX 00 03:04:31
FILE "11 It's Gettin Rowdy (rap).wav" WAVE
    INDEX 01 00:00:00

Код:

Exact Audio Copy V0.99 prebeta 5 from 4. May 2009
EAC extraction logfile from 14. September 2009, 16:41
Ronald Jenkees / Disorganized Fun
Used drive  : MATSHITADVD-R   UJ-85J   Adapter: 0  ID: 0
Read mode               : Secure
Utilize accurate stream : Yes
Defeat audio cache      : Yes
Make use of C2 pointers : No
Read offset correction                      : 102
Overread into Lead-In and Lead-Out          : No
Fill up missing offset samples with silence : Yes
Delete leading and trailing silent blocks   : No
Null samples used in CRC calculations       : Yes
Used interface                              : Native Win32 interface for Win NT & 2000
Gap handling                                : Appended to previous track
Used output format              : User Defined Encoder
Selected bitrate                : 128 kBit/s
Quality                         : High
Add ID3 tag                     : No
Command line compressor         : C:\Program Files (x86)\Exact Audio Copy\Flac\flac.exe
Additional command line options : -V -8 -T "artist=%a" -T "title=%t" -T "album=%g" -T "date=%y" -T "tracknumber=%n" -T "genre=%m" %s
TOC of the extracted CD
     Track |   Start  |  Length  | Start sector | End sector
    ---------------------------------------------------------
        1  |  0:00.00 |  4:12.07 |         0    |    18906
        2  |  4:12.07 |  4:35.73 |     18907    |    39604
        3  |  8:48.05 |  7:02.45 |     39605    |    71299
        4  | 15:50.50 |  3:23.32 |     71300    |    86556
        5  | 19:14.07 |  4:54.42 |     86557    |   108648
        6  | 24:08.49 |  2:45.37 |    108649    |   121060
        7  | 26:54.11 |  4:08.64 |    121061    |   139724
        8  | 31:03.00 |  4:04.39 |    139725    |   158063
        9  | 35:07.39 |  5:04.42 |    158064    |   180905
       10  | 40:12.06 |  3:06.31 |    180906    |   194886
       11  | 43:18.37 |  3:16.00 |    194887    |   209586
Track  1
     Filename E:\Music Rips\01 Disorganized Fun.wav
     Pre-gap length  0:00:02.00
     Peak level 100.0 %
     Track quality 100.0 %
     Test CRC 1304278D
     Copy CRC 1304278D
     Track not present in AccurateRip database
     Copy OK
Track  2
     Filename E:\Music Rips\02 Fifteen Fifty.wav
     Pre-gap length  0:00:02.00
     Peak level 100.0 %
     Track quality 100.0 %
     Test CRC F9EB02E5
     Copy CRC F9EB02E5
     Track not present in AccurateRip database
     Copy OK
Track  3
     Filename E:\Music Rips\03 Guitar Sound.wav
     Pre-gap length  0:00:02.00
     Peak level 100.0 %
     Track quality 100.0 %
     Test CRC 49DF8E21
     Copy CRC 49DF8E21
     Track not present in AccurateRip database
     Copy OK
Track  4
     Filename E:\Music Rips\04 Synth One.wav
     Pre-gap length  0:00:02.00
     Peak level 100.0 %
     Track quality 100.0 %
     Test CRC 0438C03B
     Copy CRC 0438C03B
     Track not present in AccurateRip database
     Copy OK
Track  5
     Filename E:\Music Rips\05 Throwing Fire.wav
     Pre-gap length  0:00:02.00
     Peak level 100.0 %
     Track quality 100.0 %
     Test CRC 3C75C1DF
     Copy CRC 3C75C1DF
     Track not present in AccurateRip database
     Copy OK
Track  6
     Filename E:\Music Rips\06 Minimal MC.wav
     Pre-gap length  0:00:02.00
     Peak level 85.2 %
     Track quality 100.0 %
     Test CRC B89CDEC8
     Copy CRC B89CDEC8
     Track not present in AccurateRip database
     Copy OK
Track  7
     Filename E:\Music Rips\07 Stay Crunchy.wav
     Pre-gap length  0:00:02.00
     Peak level 100.0 %
     Track quality 100.0 %
     Test CRC 4CE926EA
     Copy CRC 4CE926EA
     Track not present in AccurateRip database
     Copy OK
Track  8
     Filename E:\Music Rips\08 Inverted Mean.wav
     Pre-gap length  0:00:02.00
     Peak level 96.6 %
     Track quality 100.0 %
     Test CRC F6027F29
     Copy CRC F6027F29
     Track not present in AccurateRip database
     Copy OK
Track  9
     Filename E:\Music Rips\09 Outer Space.wav
     Pre-gap length  0:00:02.00
     Peak level 100.0 %
     Track quality 100.0 %
     Test CRC 7770DE71
     Copy CRC 7770DE71
     Track not present in AccurateRip database
     Copy OK
Track 10
     Filename E:\Music Rips\10 Let's Ride (rap).wav
     Pre-gap length  0:00:01.98
     Peak level 100.0 %
     Track quality 100.0 %
     Test CRC EBC7E319
     Copy CRC EBC7E319
     Track not present in AccurateRip database
     Copy OK
Track 11
     Filename E:\Music Rips\11 It's Gettin Rowdy (rap).wav
     Pre-gap length  0:00:02.00
     Peak level 100.0 %
     Track quality 100.0 %
     Test CRC C98CBBFF
     Copy CRC C98CBBFF
     Track not present in AccurateRip database
     Copy OK
None of the tracks are present in the AccurateRip database
No errors occurred
End of status report
01. Magnetic Moment (05:07)
02. Speaker 1, Speaker 1 (04:09)
03. Sidetracked (05:23)
04. Early Morning May (04:07)
05. Supercell In Tune (02:48)
06. With Water and Light (01:31)
07. Times (05:57)
08. Red Lemonade (05:14)
09. Days Away (03:34)
10. Deep-Sea Sounding (02:58)
11. Error Me Out (05:35)
12. Piano Wire (03:36)
13. Simpletank (03:38)
14. From The Arrow Loop (05:06)
15. Red Lemoade Remixed (04:30)

Код:

REM GENRE Electronic
REM DATE 2012
REM DISCID CD0ED20F
REM COMMENT "ExactAudioCopy v1.0b3"
PERFORMER "Ronald Jenkees"
TITLE "Days Away"
FILE "01 - Magnetic Moment.wav" WAVE
  TRACK 01 AUDIO
    TITLE "Magnetic Moment"
    PERFORMER "Ronald Jenkees"
    FLAGS DCP
    INDEX 01 00:00:00
  TRACK 02 AUDIO
    TITLE "Speaker 1, Speaker 1"
    PERFORMER "Ronald Jenkees"
    FLAGS DCP
    INDEX 00 05:06:35
FILE "02 - Speaker 1, Speaker 1.wav" WAVE
    INDEX 01 00:00:00
  TRACK 03 AUDIO
    TITLE "Sidetracked"
    PERFORMER "Ronald Jenkees"
    FLAGS DCP
    INDEX 00 04:08:24
FILE "03 - Sidetracked.wav" WAVE
    INDEX 01 00:00:00
  TRACK 04 AUDIO
    TITLE "Early Morning May"
    PERFORMER "Ronald Jenkees"
    FLAGS DCP
    INDEX 00 05:22:22
FILE "04 - Early Morning May.wav" WAVE
    INDEX 01 00:00:00
  TRACK 05 AUDIO
    TITLE "Supercell In Tune"
    PERFORMER "Ronald Jenkees"
    FLAGS DCP
    INDEX 00 04:05:50
FILE "05 - Supercell In Tune.wav" WAVE
    INDEX 01 00:00:00
  TRACK 06 AUDIO
    TITLE "With Water and Light"
    PERFORMER "Ronald Jenkees"
    FLAGS DCP
    INDEX 00 02:46:43
FILE "06 - With Water and Light.wav" WAVE
    INDEX 01 00:00:00
  TRACK 07 AUDIO
    TITLE "Times"
    PERFORMER "Ronald Jenkees"
    FLAGS DCP
    INDEX 00 01:30:01
FILE "07 - Times.wav" WAVE
    INDEX 01 00:00:00
  TRACK 08 AUDIO
    TITLE "Red Lemonade"
    PERFORMER "Ronald Jenkees"
    FLAGS DCP
    INDEX 00 05:56:29
FILE "08 - Red Lemonade.wav" WAVE
    INDEX 01 00:00:00
  TRACK 09 AUDIO
    TITLE "Days Away"
    PERFORMER "Ronald Jenkees"
    FLAGS DCP
    INDEX 00 05:12:61
FILE "09 - Days Away.wav" WAVE
    INDEX 01 00:00:00
  TRACK 10 AUDIO
    TITLE "Deep-Sea Sounding"
    PERFORMER "Ronald Jenkees"
    FLAGS DCP
    INDEX 00 03:33:01
FILE "10 - Deep-Sea Sounding.wav" WAVE
    INDEX 01 00:00:00
  TRACK 11 AUDIO
    TITLE "Error Me Out"
    PERFORMER "Ronald Jenkees"
    FLAGS DCP
    INDEX 00 02:57:18
FILE "11 - Error Me Out.wav" WAVE
    INDEX 01 00:00:00
  TRACK 12 AUDIO
    TITLE "Piano Wire"
    PERFORMER "Ronald Jenkees"
    FLAGS DCP
    INDEX 00 05:34:35
FILE "12 - Piano Wire.wav" WAVE
    INDEX 01 00:00:00
  TRACK 13 AUDIO
    TITLE "Simpletank"
    PERFORMER "Ronald Jenkees"
    FLAGS DCP
    INDEX 00 03:35:06
FILE "13 - Simpletank.wav" WAVE
    INDEX 01 00:00:00
  TRACK 14 AUDIO
    TITLE "From The Arrow Loop"
    PERFORMER "Ronald Jenkees"
    FLAGS DCP
    INDEX 00 03:37:16
FILE "14 - From The Arrow Loop.wav" WAVE
    INDEX 01 00:00:00
  TRACK 15 AUDIO
    TITLE "Red Lemoade Remixed"
    PERFORMER "Ronald Jenkees"
    FLAGS DCP
    INDEX 00 05:05:12
FILE "15 - Red Lemoade Remixed.wav" WAVE
    INDEX 01 00:00:00

Код:

Exact Audio Copy V1.0 beta 3 from 29. August 2011

EAC extraction logfile from 12. December 2012, 18:23

Ronald Jenkees / Days Away

Used drive  : HL-DT-STDVD-RAM GH22NS30   Adapter: 2  ID: 0

Read mode               : Secure
Utilize accurate stream : Yes
Defeat audio cache      : Yes
Make use of C2 pointers : No

Read offset correction                      : 102
Overread into Lead-In and Lead-Out          : No
Fill up missing offset samples with silence : Yes
Delete leading and trailing silent blocks   : No
Null samples used in CRC calculations       : Yes
Used interface                              : Native Win32 interface for Win NT & 2000
Gap handling                                : Appended to previous track

Used output format              : User Defined Encoder
Selected bitrate                : 896 kBit/s
Quality                         : High
Add ID3 tag                     : No
Command line compressor         : C:\Program Files (x86)\Exact Audio Copy\Flac\flac.exe
Additional command line options : -8 -V -T "ARTIST=%artist%" -T "TITLE=%title%" -T "ALBUM=%albumtitle%" -T "DATE=%year%" -T "TRACKNUMBER=%tracknr%" -T "GENRE=%genre%" -T "PERFORMER=%albuminterpret%" -T "COMPOSER=%composer%" %haslyrics%--tag-from-file=LYRICS="%lyricsfile%"%haslyrics% -T "ALBUMARTIST=%albumartist%" -T "DISCNUMBER=%cdnumber%" -T "TOTALDISCS=%totalcds%" -T "TOTALTRACKS=%numtracks%" -T "COMMENT=%comment%" %source% -o %dest%

TOC of the extracted CD

     Track |   Start  |  Length  | Start sector | End sector
    ---------------------------------------------------------
        1  |  0:00.00 |  5:07.34 |         0    |    23058
        2  |  5:07.34 |  4:09.23 |     23059    |    41756
        3  |  9:16.57 |  5:23.21 |     41757    |    66002
        4  | 14:40.03 |  4:06.49 |     66003    |    84501
        5  | 18:46.52 |  2:47.42 |     84502    |    97068
        6  | 21:34.19 |  1:31.00 |     97069    |   103893
        7  | 23:05.19 |  5:57.28 |    103894    |   130696
        8  | 29:02.47 |  5:13.60 |    130697    |   154231
        9  | 34:16.32 |  3:34.00 |    154232    |   170281
       10  | 37:50.32 |  2:58.17 |    170282    |   183648
       11  | 40:48.49 |  5:35.34 |    183649    |   208807
       12  | 46:24.08 |  3:36.05 |    208808    |   225012
       13  | 50:00.13 |  3:38.15 |    225013    |   241377
       14  | 53:38.28 |  5:06.11 |    241378    |   264338
       15  | 58:44.39 |  4:29.45 |    264339    |   284558

Track  1

     Filename E:\rips\01 - Magnetic Moment.wav

     Pre-gap length  0:00:02.00

     Peak level 99.3 %
     Extraction speed 1.5 X
     Track quality 100.0 %
     Test CRC 6ED86FEE
     Copy CRC 6ED86FEE
     Track not present in AccurateRip database
     Copy OK

Track  2

     Filename E:\rips\02 - Speaker 1, Speaker 1.wav

     Pre-gap length  0:00:00.98

     Peak level 97.7 %
     Extraction speed 1.5 X
     Track quality 99.9 %
     Test CRC F2D6244A
     Copy CRC F2D6244A
     Track not present in AccurateRip database
     Copy OK

Track  3

     Filename E:\rips\03 - Sidetracked.wav

     Pre-gap length  0:00:00.98

     Peak level 97.3 %
     Extraction speed 2.0 X
     Track quality 100.0 %
     Test CRC A9744C31
     Copy CRC A9744C31
     Track not present in AccurateRip database
     Copy OK

Track  4

     Filename E:\rips\04 - Early Morning May.wav

     Pre-gap length  0:00:00.98

     Peak level 97.7 %
     Extraction speed 1.9 X
     Track quality 99.9 %
     Test CRC 042BF6F4
     Copy CRC 042BF6F4
     Track not present in AccurateRip database
     Copy OK

Track  5

     Filename E:\rips\05 - Supercell In Tune.wav

     Pre-gap length  0:00:00.98

     Peak level 97.6 %
     Extraction speed 2.1 X
     Track quality 100.0 %
     Test CRC A6C50015
     Copy CRC A6C50015
     Track not present in AccurateRip database
     Copy OK

Track  6

     Filename E:\rips\06 - With Water and Light.wav

     Pre-gap length  0:00:00.98

     Peak level 87.5 %
     Extraction speed 1.8 X
     Track quality 100.0 %
     Test CRC C19D4B2F
     Copy CRC C19D4B2F
     Track not present in AccurateRip database
     Copy OK

Track  7

     Filename E:\rips\07 - Times.wav

     Pre-gap length  0:00:00.98

     Peak level 97.7 %
     Extraction speed 2.5 X
     Track quality 100.0 %
     Test CRC 25AB281E
     Copy CRC 25AB281E
     Track not present in AccurateRip database
     Copy OK

Track  8

     Filename E:\rips\08 - Red Lemonade.wav

     Pre-gap length  0:00:00.98

     Peak level 97.7 %
     Extraction speed 2.6 X
     Track quality 100.0 %
     Test CRC ECCB35C9
     Copy CRC ECCB35C9
     Track not present in AccurateRip database
     Copy OK

Track  9

     Filename E:\rips\09 - Days Away.wav

     Pre-gap length  0:00:00.98

     Peak level 99.9 %
     Extraction speed 2.6 X
     Track quality 100.0 %
     Test CRC 1CA1489A
     Copy CRC 1CA1489A
     Track not present in AccurateRip database
     Copy OK

Track 10

     Filename E:\rips\10 - Deep-Sea Sounding.wav

     Pre-gap length  0:00:00.98

     Peak level 94.1 %
     Extraction speed 2.5 X
     Track quality 100.0 %
     Test CRC 79978B03
     Copy CRC 79978B03
     Track not present in AccurateRip database
     Copy OK

Track 11

     Filename E:\rips\11 - Error Me Out.wav

     Pre-gap length  0:00:00.98

     Peak level 97.7 %
     Extraction speed 3.0 X
     Track quality 100.0 %
     Test CRC CCABF3F1
     Copy CRC CCABF3F1
     Track not present in AccurateRip database
     Copy OK

Track 12

     Filename E:\rips\12 - Piano Wire.wav

     Pre-gap length  0:00:00.98

     Peak level 100.0 %
     Extraction speed 2.9 X
     Track quality 100.0 %
     Test CRC 27E16BBF
     Copy CRC 27E16BBF
     Track not present in AccurateRip database
     Copy OK

Track 13

     Filename E:\rips\13 - Simpletalk.wav

     Pre-gap length  0:00:00.98

     Peak level 97.6 %
     Extraction speed 3.0 X
     Track quality 100.0 %
     Test CRC D35C70DA
     Copy CRC D35C70DA
     Track not present in AccurateRip database
     Copy OK

Track 14

     Filename E:\rips\14 - From The Arrow Loop.wav

     Pre-gap length  0:00:00.98

     Peak level 100.0 %
     Extraction speed 3.3 X
     Track quality 100.0 %
     Test CRC 583545AA
     Copy CRC 583545AA
     Track not present in AccurateRip database
     Copy OK

Track 15

     Filename E:\rips\15 - Red Lemoade Remixed.wav

     Pre-gap length  0:00:00.98

     Peak level 97.7 %
     Extraction speed 3.0 X
     Track quality 99.9 %
     Test CRC 600263C7
     Copy CRC 600263C7
     Track not present in AccurateRip database
     Copy OK

None of the tracks are present in the AccurateRip database

No errors occurred

End of status report

==== Log checksum FDE94F9FF5F2FB5C279BF53D0D44B7E8140219F693AB697A0BCF6DE35EF78C10 ====

20.12.2012 Раздача обновлена - добавлен альбом Days Away (2012)
info [Профиль]  [ЛС] 

bobahchik3

Пол: Пол:Муж

Стаж: 12 лет

Сообщений: 276

Россия
Рейтинг

post 07-Июл-2011 20:39 (спустя 20 минут) [-]0[+]

[Цитировать] 

Исправь название Улыбаюсь
(Electronic, Instrumental, Keyboard, Hip-hop) Ronald Jenkees - Discography (2007-2009), FLAC (tracks+.cue), lossless

И добавь к каждому альбому логи куя и eac в теге

Код:

[code][/code]
info [Профиль]  [ЛС] 

Star-Gazer

Пол: Пол:Муж

Стаж: 10 лет

Сообщений: 130

Россия
Рейтинг

post 07-Июл-2011 20:58 (спустя 19 минут) [-]0[+]

[Цитировать] 

del
info [Профиль]  [ЛС] 

Raa

Пол: Пол:Муж

Стаж: 12 лет

Сообщений: 1099

Рейтинг

post 09-Июл-2011 03:06 (спустя 1 день 6 часов) [-]0[+]

[Цитировать] 

MagistrAndrew
Добавьте Текст .cue (файл разметки)
Об изменениях сообщите мне в ЛС
info [Профиль]  [ЛС] 

Raa

Пол: Пол:Муж

Стаж: 12 лет

Сообщений: 1099

Рейтинг

post 09-Июл-2011 16:06 (спустя 12 часов) [-]0[+]

[Цитировать] 

Текст .cue должен быть в тэге

Код:

[code][/code]
info [Профиль]  [ЛС] 

-SpiderLanD-

Пол: Пол:Муж

Стаж: 12 лет

Сообщений: 1525

Россия
Рейтинг

post 09-Июл-2011 20:57 (спустя 4 часа) [-]0[+]

[Цитировать] 

моцарт современности. . .

_________________
@jackdaw_hm создаю кожаные изделия руками
info [Профиль]  [ЛС] 

Firstwg

Пол: Пол:Муж

Стаж: 12 лет

Сообщений: 88

Россия
Рейтинг

post 09-Июл-2011 21:21 (спустя 24 минуты) [-]1[+]

[Цитировать] 

Рульный тип!

_________________
[img:1AmtfI9iCF]http://img177.imageshack.us/img177/6449/adidas2.gif[/img:1AmtfI9iCF]
[url=http://спам][img:1AmtfI9iCF]http://спам/torrentbar/bar.php/126973.png[/img:1AmtfI9iCF][/url]
info [Профиль]  [ЛС] 

Star-Gazer

Пол: Пол:Муж

Стаж: 10 лет

Сообщений: 130

Россия
Рейтинг

post 11-Ноя-2012 20:31 (спустя 1 год 4 месяца) [-]0[+]

[Цитировать] 

Народ. У Рональда вышел новый альбом. Как найду - обновлю раздачу.
info [Профиль]  [ЛС] 

Star-Gazer

Пол: Пол:Муж

Стаж: 10 лет

Сообщений: 130

Россия
Рейтинг

post 20-Дек-2012 12:11 (спустя 1 месяц 8 дней) [-]0[+]

[Цитировать] 

20.12.2012 Раздача обновлена - добавлен альбом Days Away (2012)
info [Профиль]  [ЛС] 

maximuchka

Пол: Пол:Муж

Стаж: 10 лет

Сообщений: 13

Украина
Рейтинг

post 20-Дек-2012 23:08 (спустя 10 часов) [-]1[+]

[Цитировать] 

хороший музыкант.очень люблю его работы.
info [Профиль]  [ЛС] 
Показать сообщения:    
Ответить на тему

Текущее время: 16-Май 19:49

Часовой пояс: GMT + 4



Вы не можете начинать темы
Вы не можете отвечать на сообщения
Вы не можете редактировать свои сообщения
Вы не можете удалять свои сообщения
Вы не можете голосовать в опросах
Вы не можете прикреплять файлы к сообщениям
Вы не можете скачивать файлы