Ошибка

(Dancehall) Various Artists - Clearance Riddim - 2009, FLAC (tracks+.cue), lossless

Ответить на тему
 
Автор Сообщение

MrPavlik

Пол: Пол:Муж

Стаж: 9 лет 2 месяца

Сообщений: 152

Россия
Рейтинг

post 19-Дек-2012 14:34 0[+]

[Цитировать] 

Various Artists - Clearance Riddim

pic="http://s002.youpic.su/pictures/1355864400/95adcc24da4508589021adb2cacaf5f5.jpg"
Жанр: Dancehall
Год издания данного носителя: 2009
Страна-производитель носителя: USA
Тип релиза: tracks+.cue
Аудио кодек: FLAC
Битрейт аудио: lossless
Продолжительность: 00:31:12
Треклист:
01. Dem Alone (3:28)
02. Better Dayz (3:21)
03. Rodney Intention (2:53)
04. Go Getta (2:55)
05. Fe Get Rich (3:02)
06. My Own (3:04)
07. Work Me A Look (2:53)
08. Secret Fi Dem (2:53)
09. Me Want Money (3:22)
10. Clearance Riddim (3:23)
Лейбл: VP Records
Каталоговый номер: VPCD 2412
Каталоговый номер Amazon (ASIN): B002LSEXYS
Тип рипа: tracks+.cue
Уровень сжатия аудио кодеком: EAC FLAC -8
Дополнительная информация: Рип оригинального импортного диска из США, приобретенного в Интернет-магазине VP Reggae. После создания рипа данные извлечения были отправлены в БД AccurateRip.

Exact Audio Copy V0.99 prebeta 4 from 23. January 2008 

EAC extraction logfile from 25. April 2014, 18:41

Various Artists / Clearance Riddim

Used drive : ASUS DRW-22B2ST Adapter: 2 ID: 0

Read mode : Secure
Utilize accurate stream : Yes
Defeat audio cache : Yes
Make use of C2 pointers : No

Read offset correction : 6
Overread into Lead-In and Lead-Out : No
Fill up missing offset samples with silence : Yes
Delete leading and trailing silent blocks : No
Null samples used in CRC calculations : Yes
Used interface : Native Win32 interface for Win NT & 2000
Gap handling : Appended to previous track

Used output format : User Defined Encoder
Selected bitrate : 128 kBit/s
Quality : High
Add ID3 tag : No
Command line compressor : C:\Program Files (x86)\Exact Audio Copy\Flac\flac.exe
Additional command line options : -8 -V -T "ARTIST=%a" -T "TITLE=%t" -T "ALBUM=%g" -T "DATE=%y" -T "TRACKNUMBER=%n" -T "GENRE=%m" -T "COMMENT=EAC FLAC -8" %s

TOC of the extracted CD

Track | Start | Length | Start sector | End sector
---------------------------------------------------------
1 | 0:00.00 | 3:28.03 | 0 | 15602
2 | 3:28.03 | 3:21.21 | 15603 | 30698
3 | 6:49.24 | 2:52.48 | 30699 | 43646
4 | 9:41.72 | 2:55.02 | 43647 | 56773
5 | 12:36.74 | 3:02.14 | 56774 | 70437
6 | 15:39.13 | 3:03.45 | 70438 | 84207
7 | 18:42.58 | 2:53.30 | 84208 | 97212
8 | 21:36.13 | 2:53.26 | 97213 | 110213
9 | 24:29.39 | 3:22.32 | 110214 | 125395
10 | 27:51.71 | 3:23.33 | 125396 | 140653

Track 1

Filename E:\VA - Clearance Riddim [2009] [tapochek.net]\01. Mavado - Dem Alone.wav

Pre-gap length 0:00:02.00

Peak level 100.0 %
Track quality 100.0 %
Test CRC D07A842A
Copy CRC D07A842A
Accurately ripped (confidence 1) [A5926FAB]
Copy OK

Track 2

Filename E:\VA - Clearance Riddim [2009] [tapochek.net]\02. Chase Cross - Better Dayz.wav

Peak level 100.0 %
Track quality 100.0 %
Test CRC B2770531
Copy CRC B2770531
Accurately ripped (confidence 1) [8EF0DAB9]
Copy OK

Track 3

Filename E:\VA - Clearance Riddim [2009] [tapochek.net]\03. Bounty Killer - Rodney Intention.wav

Peak level 100.0 %
Track quality 100.0 %
Test CRC D5F1A81C
Copy CRC D5F1A81C
Accurately ripped (confidence 1) [01D04D09]
Copy OK

Track 4

Filename E:\VA - Clearance Riddim [2009] [tapochek.net]\04. Flexx - Go Getta.wav

Peak level 100.0 %
Track quality 100.0 %
Test CRC E5F86F05
Copy CRC E5F86F05
Accurately ripped (confidence 1) [B6F90CD1]
Copy OK

Track 5

Filename E:\VA - Clearance Riddim [2009] [tapochek.net]\05. Vegas - Fe Get Rich.wav

Peak level 100.0 %
Track quality 100.0 %
Test CRC 2FDE1D78
Copy CRC 2FDE1D78
Accurately ripped (confidence 1) [0CC51F77]
Copy OK

Track 6

Filename E:\VA - Clearance Riddim [2009] [tapochek.net]\06. Ding Dong - My Own.wav

Peak level 100.0 %
Track quality 99.9 %
Test CRC A6A98E89
Copy CRC A6A98E89
Accurately ripped (confidence 1) [389D22C8]
Copy OK

Track 7

Filename E:\VA - Clearance Riddim [2009] [tapochek.net]\07. Einstien - Work Me A Look.wav

Peak level 100.0 %
Track quality 100.0 %
Test CRC E555914C
Copy CRC E555914C
Accurately ripped (confidence 1) [EEBECAC2]
Copy OK

Track 8

Filename E:\VA - Clearance Riddim [2009] [tapochek.net]\08. Demarco - Secret Fi Dem.wav

Peak level 100.0 %
Track quality 99.9 %
Test CRC AB967305
Copy CRC AB967305
Accurately ripped (confidence 1) [1C5E6796]
Copy OK

Track 9

Filename E:\VA - Clearance Riddim [2009] [tapochek.net]\09. Munga - Me Want Money.wav

Peak level 100.0 %
Track quality 100.0 %
Test CRC ED6B4783
Copy CRC ED6B4783
Accurately ripped (confidence 1) [415460F9]
Copy OK

Track 10

Filename E:\VA - Clearance Riddim [2009] [tapochek.net]\10. Russian And DJ Frass - Clearance Riddim.wav

Peak level 100.0 %
Track quality 100.0 %
Test CRC 147DF753
Copy CRC 147DF753
Accurately ripped (confidence 1) [FA2B698B]
Copy OK

All tracks accurately ripped

No errors occurred

End of status report
REM GENRE "Dance Hall" 
REM DATE 2009
REM DISCID 7707530A
REM COMMENT "ExactAudioCopy v0.99pb4"
PERFORMER "Various Artists"
TITLE "Clearance Riddim"
FILE "01. Mavado - Dem Alone.wav" WAVE
TRACK 01 AUDIO
TITLE "Dem Alone"
PERFORMER "Mavado"
INDEX 01 00:00:00
FILE "02. Chase Cross - Better Dayz.wav" WAVE
TRACK 02 AUDIO
TITLE "Better Dayz"
PERFORMER "Chase Cross"
INDEX 01 00:00:00
FILE "03. Bounty Killer - Rodney Intention.wav" WAVE
TRACK 03 AUDIO
TITLE "Rodney Intention"
PERFORMER "Bounty Killer"
INDEX 01 00:00:00
FILE "04. Flexx - Go Getta.wav" WAVE
TRACK 04 AUDIO
TITLE "Go Getta"
PERFORMER "Flexx"
INDEX 01 00:00:00
FILE "05. Vegas - Fe Get Rich.wav" WAVE
TRACK 05 AUDIO
TITLE "Fe Get Rich"
PERFORMER "Vegas"
INDEX 01 00:00:00
FILE "06. Ding Dong - My Own.wav" WAVE
TRACK 06 AUDIO
TITLE "My Own"
PERFORMER "Ding Dong"
INDEX 01 00:00:00
FILE "07. Einstien - Work Me A Look.wav" WAVE
TRACK 07 AUDIO
TITLE "Work Me A Look"
PERFORMER "Einstien"
INDEX 01 00:00:00
FILE "08. Demarco - Secret Fi Dem.wav" WAVE
TRACK 08 AUDIO
TITLE "Secret Fi Dem"
PERFORMER "Demarco"
INDEX 01 00:00:00
FILE "09. Munga - Me Want Money.wav" WAVE
TRACK 09 AUDIO
TITLE "Me Want Money"
PERFORMER "Munga"
INDEX 01 00:00:00
FILE "10. Russian And DJ Frass - Clearance Riddim.wav" WAVE
TRACK 10 AUDIO
TITLE "Clearance Riddim"
PERFORMER "Russian And DJ Frass"
INDEX 01 00:00:00
Item: "E:\VA - Clearance Riddim [2009] [tapochek.net]\01. Mavado - Dem Alone.flac" 
MD5: A7E2FE787387186A4192EE903688A0A4
CRC32: D07A842A
No problems found.

Item: "E:\VA - Clearance Riddim [2009] [tapochek.net]\02. Chase Cross - Better Dayz.flac"
MD5: E073A6293DEC7B6FEC897FA6B819209F
CRC32: B2770531
No problems found.

Item: "E:\VA - Clearance Riddim [2009] [tapochek.net]\03. Bounty Killer - Rodney Intention.flac"
MD5: AF7001FA917453966589C2012C92C905
CRC32: D5F1A81C
No problems found.

Item: "E:\VA - Clearance Riddim [2009] [tapochek.net]\04. Flexx - Go Getta.flac"
MD5: 8B1992B56335F315F10F9CC6EE1DDE99
CRC32: E5F86F05
No problems found.

Item: "E:\VA - Clearance Riddim [2009] [tapochek.net]\05. Vegas - Fe Get Rich.flac"
MD5: 4ED9BDCC3C90AC6F661E2BCACEF2EA61
CRC32: 2FDE1D78
No problems found.

Item: "E:\VA - Clearance Riddim [2009] [tapochek.net]\06. Ding Dong - My Own.flac"
MD5: B30D28FED443AAC6606818CE4F00EC68
CRC32: A6A98E89
No problems found.

Item: "E:\VA - Clearance Riddim [2009] [tapochek.net]\07. Einstien - Work Me A Look.flac"
MD5: 44407E2DE113CBFCFEDD4DF256CEF3A9
CRC32: E555914C
No problems found.

Item: "E:\VA - Clearance Riddim [2009] [tapochek.net]\08. Demarco - Secret Fi Dem.flac"
MD5: BD9A6429F6F7900322B10DE55DD46E43
CRC32: AB967305
No problems found.

Item: "E:\VA - Clearance Riddim [2009] [tapochek.net]\09. Munga - Me Want Money.flac"
MD5: 8360E8400D91C22E57948D3826025A02
CRC32: ED6B4783
No problems found.

Item: "E:\VA - Clearance Riddim [2009] [tapochek.net]\10. Russian And DJ Frass - Clearance Riddim.flac"
MD5: F83024B541CA00B99A574EFB08E1CF93
CRC32: 147DF753
No problems found.

All items decoded successfully.
info [Профиль]  [ЛС] 
Показать сообщения:    
Ответить на тему

Текущее время: 13-Май 16:56

Часовой пояс: GMT + 4



Вы не можете начинать темы
Вы не можете отвечать на сообщения
Вы не можете редактировать свои сообщения
Вы не можете удалять свои сообщения
Вы не можете голосовать в опросах
Вы не можете прикреплять файлы к сообщениям
Вы не можете скачивать файлы