Ошибка

(Progressive Trance, Psychill, Psybient) E-Mantra - Silence - 2012, FLAC (tracks+.cue), lossless

Ответить на тему
 
Автор Сообщение

Arifis

Пол: Пол:Муж

Стаж: 12 лет

Сообщений: 195

Россия
Рейтинг

post 18-Окт-2012 00:27 0[+]

[Цитировать] 

E-Mantra - Silence

Жанр: Progressive Trance, Psychill, Psybient
Страна-производитель диска: Canada
Год издания диска: 20 Jun 2012
Издатель (лейбл): Altar Records
Номер по каталогу: ARCDA27
Аудиокодек: FLAC (*.flac)
Тип рипа: tracks
Битрейт аудио: lossless
Продолжительность: 01:12:26
Источник (релизер): what.cd
Наличие сканов в содержимом раздачи: Нет

Треклист:

01. Silence (5:48)
02. Since You Were Gone (feat. Athena Etana) (7:22)
03. Ecouri (6:17)
04. Departed 2012 (6:58)
05. Night Walker (6:25)
06. E-Mantra & Reasonandu - Shadow Skies (6:05)
07. Prelude (6:14)
08. Le Ciel est Triste (6:25)
09. Echoes of an Empty Room (Hotep remix) (7:51)
10. Touching (5:36)
11. Passing Through (7:25)




Altar Records returns with it's newest offering. A complex and emotionally rich journey that will inspire reflection and relaxation, E-Mantra's "Silence" is pure emotive chill-out filled with beautiful hypnotic melodies. With this newest album, E-Mantra stays true to the groundwork laid by "Visions from the Past" and explores deeper emotional realms within the goa-chill genre. "Silence" includes collaborative tracks with Reasonandu and the amazing Greek artist and singer Athena Etana, and an excellent remix of "Echoes of an Empty Room" by Hoptep of Zagreb, Croatia.
Open your heart and your mind and let this album lead you on an introspective journey through the waves of ambient aural psychedelic experiences contained within.

Exact Audio Copy V1.0 beta 3 from 29. August 2011 

EAC extraction logfile from 7. July 2012, 17:24

E-Mantra / Silence

Used drive : SONY DVD RW DRU-820A Adapter: 0 ID: 1

Read mode : Secure
Utilize accurate stream : Yes
Defeat audio cache : Yes
Make use of C2 pointers : No

Read offset correction : 102
Overread into Lead-In and Lead-Out : No
Fill up missing offset samples with silence : Yes
Delete leading and trailing silent blocks : No
Null samples used in CRC calculations : Yes
Used interface : Native Win32 interface for Win NT & 2000
Gap handling : Appended to previous track

Used output format : User Defined Encoder
Selected bitrate : 768 kBit/s
Quality : High
Add ID3 tag : No
Command line compressor : C:\Program Files (x86)\Exact Audio Copy\FLAC\FLAC.EXE
Additional command line options : -8 -V -T "ARTIST=%artist%" -T "TITLE=%title%" -T "ALBUM=%albumtitle%" -T "DATE=%year%" -T "TRACKNUMBER=%tracknr%" -T "GENRE=%genre%" -T "PERFORMER=%albuminterpret%" -T "COMPOSER=%composer%" %haslyrics%--tag-from-file=LYRICS="%lyricsfile%"%haslyrics% -T "ALBUMARTIST=%albumartist%" -T "DISCNUMBER=%cdnumber%" -T "TOTALDISCS=%totalcds%" -T "TOTALTRACKS=%numtracks%" -T "COMMENT=%comment%" %source% -o %dest%

TOC of the extracted CD

Track | Start | Length | Start sector | End sector
---------------------------------------------------------
1 | 0:00.00 | 5:48.19 | 0 | 26118
2 | 5:48.19 | 7:22.27 | 26119 | 59295
3 | 13:10.46 | 6:16.67 | 59296 | 87562
4 | 19:27.38 | 6:58.37 | 87563 | 118949
5 | 26:26.00 | 6:24.42 | 118950 | 147791
6 | 32:50.42 | 6:05.25 | 147792 | 175191
7 | 38:55.67 | 6:14.19 | 175192 | 203260
8 | 45:10.11 | 6:25.11 | 203261 | 232146
9 | 51:35.22 | 7:51.31 | 232147 | 267502
10 | 59:26.53 | 5:36.00 | 267503 | 292702
11 | 65:02.53 | 7:24.52 | 292703 | 326054

Track 1

Filename H:\E-Mantra - Silence (2012) [FLAC - CD]\01. Silence.wav

Pre-gap length 0:00:02.00

Peak level 99.0 %
Extraction speed 1.7 X
Track quality 99.9 %
Test CRC FBAC6D8C
Copy CRC FBAC6D8C
Track not present in AccurateRip database
Copy OK

Track 2

Filename H:\E-Mantra - Silence (2012) [FLAC - CD]\02. Since You Were Gone.wav

Peak level 99.0 %
Extraction speed 2.1 X
Track quality 100.0 %
Test CRC 482D0159
Copy CRC 482D0159
Track not present in AccurateRip database
Copy OK

Track 3

Filename H:\E-Mantra - Silence (2012) [FLAC - CD]\03. Ecouri.wav

Peak level 99.0 %
Extraction speed 2.2 X
Track quality 100.0 %
Test CRC 48739663
Copy CRC 48739663
Track not present in AccurateRip database
Copy OK

Track 4

Filename H:\E-Mantra - Silence (2012) [FLAC - CD]\04. Departed 2012.wav

Peak level 99.0 %
Extraction speed 2.4 X
Track quality 100.0 %
Test CRC 432ECF1F
Copy CRC 432ECF1F
Track not present in AccurateRip database
Copy OK

Track 5

Filename H:\E-Mantra - Silence (2012) [FLAC - CD]\05. Night Walker.wav

Peak level 99.0 %
Extraction speed 2.6 X
Track quality 100.0 %
Test CRC 80D177D4
Copy CRC 80D177D4
Track not present in AccurateRip database
Copy OK

Track 6

Filename H:\E-Mantra - Silence (2012) [FLAC - CD]\06. E-Mantra & Reasonandu - Shadow Skies.wav

Peak level 99.7 %
Extraction speed 2.7 X
Track quality 100.0 %
Test CRC B06527F7
Copy CRC B06527F7
Track not present in AccurateRip database
Copy OK

Track 7

Filename H:\E-Mantra - Silence (2012) [FLAC - CD]\07. Prelude.wav

Peak level 99.0 %
Extraction speed 2.8 X
Track quality 100.0 %
Test CRC FA9B350A
Copy CRC FA9B350A
Track not present in AccurateRip database
Copy OK

Track 8

Filename H:\E-Mantra - Silence (2012) [FLAC - CD]\08. Le Ciel Est Triste.wav

Peak level 99.0 %
Extraction speed 2.9 X
Track quality 100.0 %
Test CRC 8A8621E2
Copy CRC 8A8621E2
Track not present in AccurateRip database
Copy OK

Track 9

Filename H:\E-Mantra - Silence (2012) [FLAC - CD]\09. Echoes of an Empty Room (Hotep Remix).wav

Peak level 99.0 %
Extraction speed 2.9 X
Track quality 99.9 %
Test CRC E88FF298
Copy CRC E88FF298
Track not present in AccurateRip database
Copy OK

Track 10

Filename H:\E-Mantra - Silence (2012) [FLAC - CD]\10. Touching.wav

Peak level 99.0 %
Extraction speed 2.9 X
Track quality 99.9 %
Test CRC D8D9F4A6
Copy CRC D8D9F4A6
Track not present in AccurateRip database
Copy OK

Track 11

Filename H:\E-Mantra - Silence (2012) [FLAC - CD]\11. Passing Through.wav

Peak level 99.0 %
Extraction speed 3.2 X
Track quality 100.0 %
Test CRC 82147CE4
Copy CRC 82147CE4
Track not present in AccurateRip database
Copy OK

None of the tracks are present in the AccurateRip database

No errors occurred

End of status report

---- CUETools DB Plugin V2.1.3

[CTDB TOCID: EHR9e_7JoJeuiQTQqNdi0tTBZ70-] disk not present in database, Submit result: EHR9e_7JoJeuiQTQqNdi0tTBZ70- has been uploaded

==== Log checksum 7D8307573EC8858C68A85F029EDB2B837891F86A2AA58CD36C766B47169445F3 ====

REM DATE 2012 
REM DISCID AA10FB0B
REM COMMENT "ExactAudioCopy v1.0b3"
PERFORMER "E-Mantra"
TITLE "Silence"
FILE "01. Silence.wav" WAVE
TRACK 01 AUDIO
TITLE "Silence"
PERFORMER "E-Mantra"
FLAGS DCP
INDEX 01 00:00:00
FILE "02. Since You Were Gone.wav" WAVE
TRACK 02 AUDIO
TITLE "Since You Were Gone"
PERFORMER "E-Mantra"
FLAGS DCP
INDEX 01 00:00:00
FILE "03. Ecouri.wav" WAVE
TRACK 03 AUDIO
TITLE "Ecouri"
PERFORMER "E-Mantra"
FLAGS DCP
INDEX 01 00:00:00
FILE "04. Departed 2012.wav" WAVE
TRACK 04 AUDIO
TITLE "Departed 2012"
PERFORMER "E-Mantra"
FLAGS DCP
INDEX 01 00:00:00
FILE "05. Night Walker.wav" WAVE
TRACK 05 AUDIO
TITLE "Night Walker"
PERFORMER "E-Mantra"
FLAGS DCP
INDEX 01 00:00:00
FILE "06. E-Mantra & Reasonandu - Shadow Skies.wav" WAVE
TRACK 06 AUDIO
TITLE "E-Mantra & Reasonandu - Shadow Skies"
PERFORMER "E-Mantra"
FLAGS DCP
INDEX 01 00:00:00
FILE "07. Prelude.wav" WAVE
TRACK 07 AUDIO
TITLE "Prelude"
PERFORMER "E-Mantra"
FLAGS DCP
INDEX 01 00:00:00
FILE "08. Le Ciel Est Triste.wav" WAVE
TRACK 08 AUDIO
TITLE "Le Ciel Est Triste"
PERFORMER "E-Mantra"
FLAGS DCP
INDEX 01 00:00:00
FILE "09. Echoes of an Empty Room (Hotep Remix).wav" WAVE
TRACK 09 AUDIO
TITLE "Echoes of an Empty Room (Hotep Remix)"
PERFORMER "E-Mantra"
FLAGS DCP
INDEX 01 00:00:00
FILE "10. Touching.wav" WAVE
TRACK 10 AUDIO
TITLE "Touching"
PERFORMER "E-Mantra"
FLAGS DCP
INDEX 01 00:00:00
FILE "11. Passing Through.wav" WAVE
TRACK 11 AUDIO
TITLE "Passing Through"
PERFORMER "E-Mantra"
FLAGS DCP
INDEX 01 00:00:00

info [Профиль]  [ЛС] 
Показать сообщения:    
Ответить на тему

Текущее время: 19-Май 22:21

Часовой пояс: GMT + 4



Вы не можете начинать темы
Вы не можете отвечать на сообщения
Вы не можете редактировать свои сообщения
Вы не можете удалять свои сообщения
Вы не можете голосовать в опросах
Вы не можете прикреплять файлы к сообщениям
Вы не можете скачивать файлы