Ошибка

(Synthpunk, Electronic, Noise) Kap Bambino - Zero Life, Night Vision - 2008, FLAC (tracks+.cue), lossless

Ответить на тему
 
Автор Сообщение

SilverTea

Пол: Пол:Муж

Стаж: 13 лет

Сообщений: 80

Рейтинг

post 17-Окт-2010 13:10 0[+]

[Цитировать] 

Kap Bambino - Zero Life, Night Vision

Жанр: Synthpunk, Electronic, Noise
Происхождение исполнителя: France, Bordeaux
Год первого издания: 2008
Страна-производитель носителя: FR
Лейбл: wwilko
Тип релиза: tracks+.cue
Аудио кодек: FLAC
Битрейт аудио: lossless
Продолжительность: 00:30:57
Источник: What.CD (panbar)

Треклист:
01. Zero Life
02. New Breath
03. save
04. Took Life
05. Hunger Texas
06. Seed
07. Mess In The Ruins
08. Hey!
09. Night Vision Ocean
10. Kaos Killer
11. Warriors
12. More Machine

Код:

Exact Audio Copy V0.99 prebeta 5 from 4. May 2009

EAC extraction logfile from 7. January 2010, 2:32

Kap Bambino / Zero Life, Night Vision

Used drive  : _NEC    DVD_RW ND-4550A   Adapter: 0  ID: 1

Read mode               : Secure
Utilize accurate stream : Yes
Defeat audio cache      : Yes
Make use of C2 pointers : No

Read offset correction                      : 48
Overread into Lead-In and Lead-Out          : No
Fill up missing offset samples with silence : Yes
Delete leading and trailing silent blocks   : No
Null samples used in CRC calculations       : Yes
Used interface                              : Installed external ASPI interface
Gap handling                                : Appended to previous track

Used output format              : User Defined Encoder
Selected bitrate                : 320 kBit/s
Quality                         : High
Add ID3 tag                     : No
Command line compressor         : C:\Program Files\Exact Audio Copy\Flac\flac.exe
Additional command line options : -V -8 -T "artist=%a" -T "title=%t" -T "album=%g" -T "date=%y" -T "tracknumber=%n" -T "genre=%m" %s 

TOC of the extracted CD

     Track |   Start  |  Length  | Start sector | End sector
    ---------------------------------------------------------
        1  |  0:00.00 |  1:53.48 |         0    |     8522   
        2  |  1:53.48 |  2:09.73 |      8523    |    18270   
        3  |  4:03.46 |  3:11.39 |     18271    |    32634   
        4  |  7:15.10 |  2:10.54 |     32635    |    42438   
        5  |  9:25.64 |  2:29.04 |     42439    |    53617   
        6  | 11:54.68 |  3:15.25 |     53618    |    68267   
        7  | 15:10.18 |  2:03.04 |     68268    |    77496   
        8  | 17:13.22 |  2:07.40 |     77497    |    87061   
        9  | 19:20.62 |  2:31.18 |     87062    |    98404   
       10  | 21:52.05 |  2:46.34 |     98405    |   110888   
       11  | 24:38.39 |  2:10.04 |    110889    |   120642   
       12  | 26:48.43 |  4:09.32 |    120643    |   139349   

Track  1

     Filename D:\Torrents\Kap Bambino - Zero Life, Night Vision [FLAC 100% Log]\01 - Zero life.wav

     Pre-gap length  0:00:02.00

     Peak level 100.0 %
     Track quality 100.0 %
     Test CRC 86E83073
     Copy CRC 86E83073
     Accurately ripped (confidence 1)  [9DFB7351]
     Copy OK

Track  2

     Filename D:\Torrents\Kap Bambino - Zero Life, Night Vision [FLAC 100% Log]\02 - New breath.wav

     Peak level 100.0 %
     Track quality 100.0 %
     Test CRC 4ECF0187
     Copy CRC 4ECF0187
     Accurately ripped (confidence 1)  [3FC12865]
     Copy OK

Track  3

     Filename D:\Torrents\Kap Bambino - Zero Life, Night Vision [FLAC 100% Log]\03 - Save.wav

     Peak level 100.0 %
     Track quality 100.0 %
     Test CRC 048E6AA9
     Copy CRC 048E6AA9
     Accurately ripped (confidence 1)  [75D2E867]
     Copy OK

Track  4

     Filename D:\Torrents\Kap Bambino - Zero Life, Night Vision [FLAC 100% Log]\04 - took life.wav

     Peak level 100.0 %
     Track quality 100.0 %
     Test CRC 850D4EAE
     Copy CRC 850D4EAE
     Accurately ripped (confidence 1)  [577F3534]
     Copy OK

Track  5

     Filename D:\Torrents\Kap Bambino - Zero Life, Night Vision [FLAC 100% Log]\05 - hunger Texas.wav

     Peak level 100.0 %
     Track quality 100.0 %
     Test CRC B74C4387
     Copy CRC B74C4387
     Accurately ripped (confidence 1)  [C3969578]
     Copy OK

Track  6

     Filename D:\Torrents\Kap Bambino - Zero Life, Night Vision [FLAC 100% Log]\06 - Seed.wav

     Peak level 100.0 %
     Track quality 100.0 %
     Test CRC 371F60BA
     Copy CRC 371F60BA
     Accurately ripped (confidence 1)  [B408096B]
     Copy OK

Track  7

     Filename D:\Torrents\Kap Bambino - Zero Life, Night Vision [FLAC 100% Log]\07 - Mess in the Ruins.wav

     Peak level 100.0 %
     Track quality 100.0 %
     Test CRC 13B1A4CA
     Copy CRC 13B1A4CA
     Accurately ripped (confidence 1)  [7DB0413E]
     Copy OK

Track  8

     Filename D:\Torrents\Kap Bambino - Zero Life, Night Vision [FLAC 100% Log]\08 - Hey!.wav

     Peak level 100.0 %
     Track quality 100.0 %
     Test CRC 9B89039D
     Copy CRC 9B89039D
     Accurately ripped (confidence 1)  [A2BFBC53]
     Copy OK

Track  9

     Filename D:\Torrents\Kap Bambino - Zero Life, Night Vision [FLAC 100% Log]\09 - Night Vision Ocean.wav

     Peak level 100.0 %
     Track quality 100.0 %
     Test CRC E84D603D
     Copy CRC E84D603D
     Accurately ripped (confidence 1)  [A965D48B]
     Copy OK

Track 10

     Filename D:\Torrents\Kap Bambino - Zero Life, Night Vision [FLAC 100% Log]\10 - Kaos Killer.wav

     Peak level 100.0 %
     Track quality 100.0 %
     Test CRC FDFF1E63
     Copy CRC FDFF1E63
     Accurately ripped (confidence 1)  [F4A3C904]
     Copy OK

Track 11

     Filename D:\Torrents\Kap Bambino - Zero Life, Night Vision [FLAC 100% Log]\11 - Warriors.wav

     Peak level 100.0 %
     Track quality 100.0 %
     Test CRC 012424ED
     Copy CRC 012424ED
     Accurately ripped (confidence 1)  [2D2945C5]
     Copy OK

Track 12

     Filename D:\Torrents\Kap Bambino - Zero Life, Night Vision [FLAC 100% Log]\12 - More Machine.wav

     Peak level 100.0 %
     Track quality 100.0 %
     Test CRC 4DF5C84E
     Copy CRC 4DF5C84E
     Accurately ripped (confidence 1)  [BE5DB500]
     Copy OK

All tracks accurately ripped

No errors occurred

End of status report

Код:

REM DATE 2007
REM DISCID 7F07420C
REM COMMENT "ExactAudioCopy v0.99pb5"
PERFORMER "Kap Bambino"
TITLE "Zero Life, Night Vision"
FILE "01 - Zero life.wav" WAVE
  TRACK 01 AUDIO
    TITLE "Zero life"
    PERFORMER "Kap Bambino"
    INDEX 01 00:00:00
FILE "02 - New breath.wav" WAVE
  TRACK 02 AUDIO
    TITLE "New breath"
    PERFORMER "Kap Bambino"
    INDEX 01 00:00:00
FILE "03 - Save.wav" WAVE
  TRACK 03 AUDIO
    TITLE "Save"
    PERFORMER "Kap Bambino"
    INDEX 01 00:00:00
FILE "04 - took life.wav" WAVE
  TRACK 04 AUDIO
    TITLE "took life"
    PERFORMER "Kap Bambino"
    INDEX 01 00:00:00
FILE "05 - hunger Texas.wav" WAVE
  TRACK 05 AUDIO
    TITLE "hunger Texas"
    PERFORMER "Kap Bambino"
    INDEX 01 00:00:00
FILE "06 - Seed.wav" WAVE
  TRACK 06 AUDIO
    TITLE "Seed"
    PERFORMER "Kap Bambino"
    INDEX 01 00:00:00
FILE "07 - Mess in the Ruins.wav" WAVE
  TRACK 07 AUDIO
    TITLE "Mess in the Ruins"
    PERFORMER "Kap Bambino"
    INDEX 01 00:00:00
FILE "08 - Hey!.wav" WAVE
  TRACK 08 AUDIO
    TITLE "Hey!"
    PERFORMER "Kap Bambino"
    INDEX 01 00:00:00
FILE "09 - Night Vision Ocean.wav" WAVE
  TRACK 09 AUDIO
    TITLE "Night Vision Ocean"
    PERFORMER "Kap Bambino"
    INDEX 01 00:00:00
FILE "10 - Kaos Killer.wav" WAVE
  TRACK 10 AUDIO
    TITLE "Kaos Killer"
    PERFORMER "Kap Bambino"
    INDEX 01 00:00:00
FILE "11 - Warriors.wav" WAVE
  TRACK 11 AUDIO
    TITLE "Warriors"
    PERFORMER "Kap Bambino"
    INDEX 01 00:00:00
FILE "12 - More Machine.wav" WAVE
  TRACK 12 AUDIO
    TITLE "More Machine"
    PERFORMER "Kap Bambino"
    INDEX 01 00:00:00

Код:

AUDIOCHECKER v2.0 beta (build 457) - by Dester - opdester@freemail.hu
~~~~~~~~~~~~~~~~~~~~~~~~~~~~~~~~~~
-=== НЕ РЕДАКТИРУЙТЕ ЭТОТ ФАЙЛ! ===-

Путь: ...\Kap Bambino - Zero Life, Night Vision

01 -=- 01 - Zero life.flac -=- CDDA (100%)
02 -=- 02 - New breath.flac -=- CDDA (100%)
03 -=- 03 - Save.flac -=- CDDA (100%)
04 -=- 04 - took life.flac -=- CDDA (100%)
05 -=- 05 - hunger Texas.flac -=- CDDA (100%)
06 -=- 06 - Seed.flac -=- CDDA (100%)
07 -=- 07 - Mess in the Ruins.flac -=- CDDA (100%)
08 -=- 08 - Hey!.flac -=- CDDA (100%)
09 -=- 09 - Night Vision Ocean.flac -=- CDDA (100%)
10 -=- 10 - Kaos Killer.flac -=- CDDA (100%)
11 -=- 11 - Warriors.flac -=- CDDA (100%)
12 -=- 12 - More Machine.flac -=- CDDA (100%)

Сводка 100,00% CDDA

112170724
info [Профиль]  [ЛС] 

Капитан Невероятность

Пол: Пол:Муж

Стаж: 10 лет

Сообщений: 42

Россия
Рейтинг

post 16-Окт-2012 15:12 (спустя 1 год 11 месяцев) [-]0[+]

[Цитировать] 

Нечеловеческая музыка! Пожалуйста, посоветуйте что-то похожее, пусть даже очень отдалённо...
info [Профиль]  [ЛС] 
Показать сообщения:    
Ответить на тему

Текущее время: 27-Май 16:51

Часовой пояс: GMT + 4



Вы не можете начинать темы
Вы не можете отвечать на сообщения
Вы не можете редактировать свои сообщения
Вы не можете удалять свои сообщения
Вы не можете голосовать в опросах
Вы не можете прикреплять файлы к сообщениям
Вы не можете скачивать файлы