Ошибка

(Vocal Trance, Progressive Trance) Armin van Buuren - Universal Religion Chapter 6 - 2012 [2CD], FLAC (tracks+.cue), lossless

Ответить на тему
 
Автор Сообщение

kossmos

Пол: Пол:Муж

Стаж: 12 лет

Сообщений: 269

Украина
Рейтинг

post 28-Сен-2012 01:54 1[+]

[Цитировать] 

Armin van Buuren - Universal Religion Chapter 6


pic="http://s002.youpic.su/pictures/1348776000/7a2cefdfc0d69ab39a08a1fadf94bdd7.jpg"


Жанр: Vocal Trance, Progressive Trance
Год издания данного носителя: 2012
Страна-производитель носителя: 1
Аудио кодек: FLAC
Тип рипа: tracks+.cue
Битрейт аудио: lossless
Продолжительность: 02:35:15
Источник (релизер): What.CD (byhgalter)
Полиграфия: Отсутствует
1.Andrew Rayel feat. Jano – How Do I Know (Armin van Buuren Intro Edit)
2.Andy Duguid feat. Shannon Hurley – I Want To Believe
3.Blake Jarrell – Barbados
4.Solarstone with Aly & Fila – Fireisland (Future Disciple Remix)
5.Armin van Buuren feat. Ana Criado – I’ll Listen
6.Abstract Vision & Elite Electronic vs Broning – Relict
7.Protoculture – Perpetual Motion
8.Orjan Nilsen – Burana
9.Beat Service – Fortuna
10.Andrew Rayel – Aeon Of Revenge
11.Skytech – What’s Wrong (Skytech Stadium Mix)
12.Stoneface & Terminal – Green Velvet
13.A.R.D.I. – Premonition
14.Matt Davey – Believe In Me
15.Jorn van Deynhoven – Headliner
16.Sasha Carassi & Mikael Jonasson - Void
17.Armin van Buuren presents Gaia - Status Excessu D (ASOT 500 Theme)
1.Alex M.O.R.P.H. – Eternal Flame (Original Breaks Mix)
2.Omnia – Infina
3.Richard Sebastian – Full Disclosure
4.Jaytech feat. Steve Smith – Stranger (Kyau & Albert Remix)
5.Juventa – Metamorphose
6.Faruk Sabanci – Elveda
7.Daniel Kandi – 3 Strikes UR In
8.Dash Berlin feat. Emma Hewitt – Like Spinning Plates (Alexander Popov Remix)
9.Paul Webster feat. Angelic Amanda – Time (MaRLo Dub Remix)
10.Tomas Heredia – The Witch
11.Andy Moor – K Ta
12.Richard Durand & Protoculture – Pleasure
13.Matt Bukovski – Retrospection
14.Aligator feat. Daniel Kandi – The Perfect Match
15.Mark Burton - Understatement
16.Sunlounger & Zara Taylor - Try To Be Love
17.Neptune Project feat. Polly Strange – The Inside
Exact Audio Copy V1.0 beta 3 from 29. August 2011 

EAC extraction logfile from 27. September 2012, 23:10

Armin van Buuren / Universal Religion Chapter Six

Used drive : ATAPI iHAS122 C Adapter: 1 ID: 1

Read mode : Secure
Utilize accurate stream : Yes
Defeat audio cache : Yes
Make use of C2 pointers : No

Read offset correction : 6
Overread into Lead-In and Lead-Out : Yes
Fill up missing offset samples with silence : Yes
Delete leading and trailing silent blocks : No
Null samples used in CRC calculations : Yes
Used interface : Native Win32 interface for Win NT & 2000
Gap handling : Appended to previous track

Used output format : User Defined Encoder
Selected bitrate : 1024 kBit/s
Quality : High
Add ID3 tag : No
Command line compressor : C:Program Files (x86)Exact Audio CopyFlacflac.exe
Additional command line options : -8 -V -T "ARTIST=%artist%" -T "TITLE=%title%" -T "ALBUM=%albumtitle%" -T "DATE=%year%" -T "TRACKNUMBER=%tracknr%" -T "GENRE=%genre%" -T "PERFORMER=%albuminterpret%" -T "COMPOSER=%composer%" %haslyrics%--tag-from-file=LYRICS="%lyricsfile%"%haslyrics% -T "ALBUMARTIST=%albumartist%" -T "DISCNUMBER=%cdnumber%" -T "TOTALDISCS=%totalcds%" -T "TOTALTRACKS=%numtracks%" -T "COMMENT=%comment%" %source% -o %dest%

TOC of the extracted CD

Track | Start | Length | Start sector | End sector
---------------------------------------------------------
1 | 0:00.00 | 7:08.69 | 0 | 32168
2 | 7:08.69 | 5:32.22 | 32169 | 57090
3 | 12:41.16 | 4:51.28 | 57091 | 78943
4 | 17:32.44 | 4:21.59 | 78944 | 98577
5 | 21:54.28 | 6:03.47 | 98578 | 125849
6 | 27:58.00 | 4:36.26 | 125850 | 146575
7 | 32:34.26 | 3:59.74 | 146576 | 164574
8 | 36:34.25 | 4:54.42 | 164575 | 186666
9 | 41:28.67 | 3:50.12 | 186667 | 203928
10 | 45:19.04 | 5:36.54 | 203929 | 229182
11 | 50:55.58 | 4:16.12 | 229183 | 248394
12 | 55:11.70 | 4:14.35 | 248395 | 267479
13 | 59:26.30 | 3:44.57 | 267480 | 284336
14 | 63:11.12 | 4:24.47 | 284337 | 304183
15 | 67:35.59 | 4:52.12 | 304184 | 326095
16 | 72:27.71 | 2:53.69 | 326096 | 339139
17 | 75:21.65 | 2:45.31 | 339140 | 351545

Track 1

Filename C:What.CDVA - Armin Van Buuren - Universal Religion Chapter Six (2012) [FLAC]DISC1 Recorded Live at Privilege Ibiza August 6th 2012�1 - Andrew Rayel feat. Jano - How Do I Know (Armin van Buuren Intro Edit).wav

Pre-gap length 0:00:02.00

Peak level 98.9 %
Extraction speed 5.6 X
Track quality 99.9 %
Test CRC 9C489AE0
Copy CRC 9C489AE0
Track not present in AccurateRip database
Copy OK

Track 2

Filename C:What.CDVA - Armin Van Buuren - Universal Religion Chapter Six (2012) [FLAC]DISC1 Recorded Live at Privilege Ibiza August 6th 2012�2 - Andy Duguid feat. Shannon Hurley - I Want To Believe.wav

Peak level 98.8 %
Extraction speed 6.9 X
Track quality 100.0 %
Test CRC FF5389E7
Copy CRC FF5389E7
Track not present in AccurateRip database
Copy OK

Track 3

Filename C:What.CDVA - Armin Van Buuren - Universal Religion Chapter Six (2012) [FLAC]DISC1 Recorded Live at Privilege Ibiza August 6th 2012�3 - Blake Jarrell - Barbados.wav

Peak level 98.7 %
Extraction speed 7.4 X
Track quality 100.0 %
Test CRC D76BE37E
Copy CRC D76BE37E
Track not present in AccurateRip database
Copy OK

Track 4

Filename C:What.CDVA - Armin Van Buuren - Universal Religion Chapter Six (2012) [FLAC]DISC1 Recorded Live at Privilege Ibiza August 6th 2012�4 - Solarstone with Aly & Fila - Fireisland (Future Disciple Remix).wav

Peak level 98.8 %
Extraction speed 7.7 X
Track quality 100.0 %
Test CRC 007AB406
Copy CRC 007AB406
Track not present in AccurateRip database
Copy OK

Track 5

Filename C:What.CDVA - Armin Van Buuren - Universal Religion Chapter Six (2012) [FLAC]DISC1 Recorded Live at Privilege Ibiza August 6th 2012�5 - Armin van Buuren feat. Ana Criado - I'll Listen.wav

Peak level 99.1 %
Extraction speed 8.5 X
Track quality 100.0 %
Test CRC EF686C37
Copy CRC EF686C37
Track not present in AccurateRip database
Copy OK

Track 6

Filename C:What.CDVA - Armin Van Buuren - Universal Religion Chapter Six (2012) [FLAC]DISC1 Recorded Live at Privilege Ibiza August 6th 2012�6 - Abstract Vision & Elite Electronic vs Broning - Relict.wav

Peak level 99.0 %
Extraction speed 8.7 X
Track quality 100.0 %
Test CRC 5F601CF9
Copy CRC 5F601CF9
Track not present in AccurateRip database
Copy OK

Track 7

Filename C:What.CDVA - Armin Van Buuren - Universal Religion Chapter Six (2012) [FLAC]DISC1 Recorded Live at Privilege Ibiza August 6th 2012�7 - Protoculture - Perpetual Motion.wav

Peak level 100.0 %
Extraction speed 7.5 X
Track quality 99.9 %
Test CRC 9FAB1242
Copy CRC 9FAB1242
Track not present in AccurateRip database
Copy OK

Track 8

Filename C:What.CDVA - Armin Van Buuren - Universal Religion Chapter Six (2012) [FLAC]DISC1 Recorded Live at Privilege Ibiza August 6th 2012�8 - Orjan Nilsen - Burana.wav

Peak level 99.0 %
Extraction speed 9.5 X
Track quality 100.0 %
Test CRC FDA2B6C9
Copy CRC FDA2B6C9
Track not present in AccurateRip database
Copy OK

Track 9

Filename C:What.CDVA - Armin Van Buuren - Universal Religion Chapter Six (2012) [FLAC]DISC1 Recorded Live at Privilege Ibiza August 6th 2012�9 - Beat Service - Fortuna.wav

Peak level 98.8 %
Extraction speed 9.6 X
Track quality 100.0 %
Test CRC 1BBF27B2
Copy CRC 1BBF27B2
Track not present in AccurateRip database
Copy OK

Track 10

Filename C:What.CDVA - Armin Van Buuren - Universal Religion Chapter Six (2012) [FLAC]DISC1 Recorded Live at Privilege Ibiza August 6th 201210 - Andrew Rayel - Aeon of Revenge.wav

Peak level 99.2 %
Extraction speed 10.4 X
Track quality 100.0 %
Test CRC 86A432D3
Copy CRC 86A432D3
Track not present in AccurateRip database
Copy OK

Track 11

Filename C:What.CDVA - Armin Van Buuren - Universal Religion Chapter Six (2012) [FLAC]DISC1 Recorded Live at Privilege Ibiza August 6th 201211 - Skytech - What's Wrong (Skytech Stadium Mix).wav

Peak level 98.7 %
Extraction speed 10.4 X
Track quality 100.0 %
Test CRC AC3267AE
Copy CRC AC3267AE
Track not present in AccurateRip database
Copy OK

Track 12

Filename C:What.CDVA - Armin Van Buuren - Universal Religion Chapter Six (2012) [FLAC]DISC1 Recorded Live at Privilege Ibiza August 6th 201212 - Stoneface & Terminal - Green Velvet.wav

Peak level 98.9 %
Extraction speed 10.7 X
Track quality 100.0 %
Test CRC A02A2DD6
Copy CRC A02A2DD6
Track not present in AccurateRip database
Copy OK

Track 13

Filename C:What.CDVA - Armin Van Buuren - Universal Religion Chapter Six (2012) [FLAC]DISC1 Recorded Live at Privilege Ibiza August 6th 201213 - A.R.D.I. - Premonition.wav

Peak level 98.6 %
Extraction speed 8.9 X
Track quality 99.9 %
Test CRC 5AF481C6
Copy CRC 5AF481C6
Track not present in AccurateRip database
Copy OK

Track 14

Filename C:What.CDVA - Armin Van Buuren - Universal Religion Chapter Six (2012) [FLAC]DISC1 Recorded Live at Privilege Ibiza August 6th 201214 - Matt Davey - Believe In Me.wav

Peak level 98.9 %
Extraction speed 9.5 X
Track quality 99.9 %
Test CRC F653D9D4
Copy CRC F653D9D4
Track not present in AccurateRip database
Copy OK

Track 15

Filename C:What.CDVA - Armin Van Buuren - Universal Religion Chapter Six (2012) [FLAC]DISC1 Recorded Live at Privilege Ibiza August 6th 201215 - Jorn van Deynhoven - Headliner.wav

Peak level 99.3 %
Extraction speed 10.0 X
Track quality 99.9 %
Test CRC C64C999A
Copy CRC C64C999A
Track not present in AccurateRip database
Copy OK

Track 16

Filename C:What.CDVA - Armin Van Buuren - Universal Religion Chapter Six (2012) [FLAC]DISC1 Recorded Live at Privilege Ibiza August 6th 201216 - Sasha Carassi and Mikael Jonasson - Void.wav

Peak level 98.9 %
Extraction speed 8.6 X
Track quality 99.9 %
Test CRC 82796132
Copy CRC 82796132
Track not present in AccurateRip database
Copy OK

Track 17

Filename C:What.CDVA - Armin Van Buuren - Universal Religion Chapter Six (2012) [FLAC]DISC1 Recorded Live at Privilege Ibiza August 6th 201217 - Armin van Buuren presents Gaia - Status Excessu D (ASOT 500 Theme).wav

Suspicious position 0:02:45

Peak level 99.0 %
Extraction speed 10.3 X
Track quality 99.6 %
Test CRC 58185D36
Copy CRC 58185D36
Track not present in AccurateRip database
Copy finished

None of the tracks are present in the AccurateRip database

There were errors

End of status report

---- CUETools DB Plugin V2.1.3

[CTDB TOCID: 6eH6Hrv_mfzikfO1vkMlfzmTLh4-] found, Submit result: 6eH6Hrv_mfzikfO1vkMlfzmTLh4- has been confirmed
[5516348c] (5/5) Accurately ripped

==== Log checksum 9CD550D5934FC14EFE7650F099C99E98BFF6D59685468322D0CD1EB4050E88A0 ====

Exact Audio Copy V1.0 beta 3 from 29. August 2011 

EAC extraction logfile from 27. September 2012, 23:42

Armin van Buuren / Universal Religion Chapter Six

Used drive : ATAPI iHAS122 C Adapter: 1 ID: 1

Read mode : Secure
Utilize accurate stream : Yes
Defeat audio cache : Yes
Make use of C2 pointers : No

Read offset correction : 6
Overread into Lead-In and Lead-Out : Yes
Fill up missing offset samples with silence : Yes
Delete leading and trailing silent blocks : No
Null samples used in CRC calculations : Yes
Used interface : Native Win32 interface for Win NT & 2000
Gap handling : Appended to previous track

Used output format : User Defined Encoder
Selected bitrate : 1024 kBit/s
Quality : High
Add ID3 tag : No
Command line compressor : C:Program Files (x86)Exact Audio CopyFlacflac.exe
Additional command line options : -8 -V -T "ARTIST=%artist%" -T "TITLE=%title%" -T "ALBUM=%albumtitle%" -T "DATE=%year%" -T "TRACKNUMBER=%tracknr%" -T "GENRE=%genre%" -T "PERFORMER=%albuminterpret%" -T "COMPOSER=%composer%" %haslyrics%--tag-from-file=LYRICS="%lyricsfile%"%haslyrics% -T "ALBUMARTIST=%albumartist%" -T "DISCNUMBER=%cdnumber%" -T "TOTALDISCS=%totalcds%" -T "TOTALTRACKS=%numtracks%" -T "COMMENT=%comment%" %source% -o %dest%

TOC of the extracted CD

Track | Start | Length | Start sector | End sector
---------------------------------------------------------
1 | 0:00.00 | 4:29.71 | 0 | 20245
2 | 4:29.71 | 3:40.10 | 20246 | 36755
3 | 8:10.06 | 5:31.69 | 36756 | 61649
4 | 13:42.00 | 4:19.61 | 61650 | 81135
5 | 18:01.61 | 5:15.15 | 81136 | 104775
6 | 23:17.01 | 5:51.02 | 104776 | 131102
7 | 29:08.03 | 3:49.17 | 131103 | 148294
8 | 32:57.20 | 5:00.69 | 148295 | 170863
9 | 37:58.14 | 2:51.70 | 170864 | 183758
10 | 40:50.09 | 5:08.09 | 183759 | 206867
11 | 45:58.18 | 4:17.66 | 206868 | 226208
12 | 50:16.09 | 5:13.27 | 226209 | 249710
13 | 55:29.36 | 4:13.20 | 249711 | 268705
14 | 59:42.56 | 5:02.64 | 268706 | 291419
15 | 64:45.45 | 3:57.38 | 291420 | 309232
16 | 68:43.08 | 2:25.04 | 309233 | 320111
17 | 71:08.12 | 6:00.27 | 320112 | 347138

Track 1

Filename C:What.CDVA - Armin Van Buuren - Universal Religion Chapter Six (2012) [FLAC]DISC2 Recorded Live at Privilege Ibiza August 20th 2012�1 - Alex M.O.R.P.H. - Eternal Flame (Original Breaks Mix).wav

Pre-gap length 0:00:02.00

Peak level 98.7 %
Extraction speed 5.6 X
Track quality 100.0 %
Test CRC 9BEE30DF
Copy CRC 9BEE30DF
Track not present in AccurateRip database
Copy OK

Track 2

Filename C:What.CDVA - Armin Van Buuren - Universal Religion Chapter Six (2012) [FLAC]DISC2 Recorded Live at Privilege Ibiza August 20th 2012�2 - Omnia - Infina.wav

Peak level 99.0 %
Extraction speed 6.0 X
Track quality 100.0 %
Test CRC 5859FCD2
Copy CRC 5859FCD2
Track not present in AccurateRip database
Copy OK

Track 3

Filename C:What.CDVA - Armin Van Buuren - Universal Religion Chapter Six (2012) [FLAC]DISC2 Recorded Live at Privilege Ibiza August 20th 2012�3 - Richard Sebastian - Full Disclosure.wav

Peak level 98.9 %
Extraction speed 6.9 X
Track quality 100.0 %
Test CRC DBDA335C
Copy CRC DBDA335C
Track not present in AccurateRip database
Copy OK

Track 4

Filename C:What.CDVA - Armin Van Buuren - Universal Religion Chapter Six (2012) [FLAC]DISC2 Recorded Live at Privilege Ibiza August 20th 2012�4 - Jaytech feat. Steve Smith - Stranger (Kyau & Albert Remix).wav

Peak level 98.8 %
Extraction speed 7.2 X
Track quality 100.0 %
Test CRC 91A5FC53
Copy CRC 91A5FC53
Track not present in AccurateRip database
Copy OK

Track 5

Filename C:What.CDVA - Armin Van Buuren - Universal Religion Chapter Six (2012) [FLAC]DISC2 Recorded Live at Privilege Ibiza August 20th 2012�5 - Juventa - Metamorphose.wav

Peak level 98.9 %
Extraction speed 7.9 X
Track quality 100.0 %
Test CRC 1C506A27
Copy CRC 1C506A27
Track not present in AccurateRip database
Copy OK

Track 6

Filename C:What.CDVA - Armin Van Buuren - Universal Religion Chapter Six (2012) [FLAC]DISC2 Recorded Live at Privilege Ibiza August 20th 2012�6 - Faruk Sabanci - Elveda.wav

Peak level 99.0 %
Extraction speed 8.6 X
Track quality 100.0 %
Test CRC B242BC57
Copy CRC B242BC57
Track not present in AccurateRip database
Copy OK

Track 7

Filename C:What.CDVA - Armin Van Buuren - Universal Religion Chapter Six (2012) [FLAC]DISC2 Recorded Live at Privilege Ibiza August 20th 2012�7 - Daniel Kandi - 3 Strikes UR In.wav

Peak level 98.8 %
Extraction speed 8.5 X
Track quality 100.0 %
Test CRC AA91E410
Copy CRC AA91E410
Track not present in AccurateRip database
Copy OK

Track 8

Filename C:What.CDVA - Armin Van Buuren - Universal Religion Chapter Six (2012) [FLAC]DISC2 Recorded Live at Privilege Ibiza August 20th 2012�8 - Dash Berlin feat. Emma Hewitt - Like Spinning Plates (Alexander Popov Remix).wav

Peak level 98.7 %
Extraction speed 9.2 X
Track quality 100.0 %
Test CRC 2A7B9C92
Copy CRC 2A7B9C92
Track not present in AccurateRip database
Copy OK

Track 9

Filename C:What.CDVA - Armin Van Buuren - Universal Religion Chapter Six (2012) [FLAC]DISC2 Recorded Live at Privilege Ibiza August 20th 2012�9 - Paul Webster - Time (MaRLo Dub Remix).wav

Peak level 99.0 %
Extraction speed 8.8 X
Track quality 100.0 %
Test CRC 5EE41D77
Copy CRC 5EE41D77
Track not present in AccurateRip database
Copy OK

Track 10

Filename C:What.CDVA - Armin Van Buuren - Universal Religion Chapter Six (2012) [FLAC]DISC2 Recorded Live at Privilege Ibiza August 20th 201210 - Tomas Heredia - The Witch.wav

Peak level 99.7 %
Extraction speed 9.8 X
Track quality 100.0 %
Test CRC 110190EE
Copy CRC 110190EE
Track not present in AccurateRip database
Copy OK

Track 11

Filename C:What.CDVA - Armin Van Buuren - Universal Religion Chapter Six (2012) [FLAC]DISC2 Recorded Live at Privilege Ibiza August 20th 201211 - Andy Moor - K Ta.wav

Peak level 98.8 %
Extraction speed 10.0 X
Track quality 100.0 %
Test CRC 37D0F5CA
Copy CRC 37D0F5CA
Track not present in AccurateRip database
Copy OK

Track 12

Filename C:What.CDVA - Armin Van Buuren - Universal Religion Chapter Six (2012) [FLAC]DISC2 Recorded Live at Privilege Ibiza August 20th 201212 - Richard Durand & Protoculture - Pleasure.wav

Peak level 98.9 %
Extraction speed 9.1 X
Track quality 99.9 %
Test CRC ABB59AA0
Copy CRC ABB59AA0
Track not present in AccurateRip database
Copy OK

Track 13

Filename C:What.CDVA - Armin Van Buuren - Universal Religion Chapter Six (2012) [FLAC]DISC2 Recorded Live at Privilege Ibiza August 20th 201213 - Matt Bukovski - Retrospection.wav

Peak level 98.7 %
Extraction speed 8.8 X
Track quality 99.9 %
Test CRC 36A618C8
Copy CRC 36A618C8
Track not present in AccurateRip database
Copy OK

Track 14

Filename C:What.CDVA - Armin Van Buuren - Universal Religion Chapter Six (2012) [FLAC]DISC2 Recorded Live at Privilege Ibiza August 20th 201214 - Aligator feat. Daniel Kandi - The Perfect Match.wav

Peak level 98.9 %
Extraction speed 11.1 X
Track quality 100.0 %
Test CRC 8FE4EEED
Copy CRC 8FE4EEED
Track not present in AccurateRip database
Copy OK

Track 15

Filename C:What.CDVA - Armin Van Buuren - Universal Religion Chapter Six (2012) [FLAC]DISC2 Recorded Live at Privilege Ibiza August 20th 201215 - Mark Burton - Understatement.wav

Peak level 98.8 %
Extraction speed 11.2 X
Track quality 100.0 %
Test CRC 650FD7D1
Copy CRC 650FD7D1
Track not present in AccurateRip database
Copy OK

Track 16

Filename C:What.CDVA - Armin Van Buuren - Universal Religion Chapter Six (2012) [FLAC]DISC2 Recorded Live at Privilege Ibiza August 20th 201216 - Sunlounger & Zara Taylor - Try To Be Love.wav

Peak level 98.7 %
Extraction speed 7.9 X
Track quality 99.9 %
Test CRC 7112F5EB
Copy CRC 7112F5EB
Track not present in AccurateRip database
Copy OK

Track 17

Filename C:What.CDVA - Armin Van Buuren - Universal Religion Chapter Six (2012) [FLAC]DISC2 Recorded Live at Privilege Ibiza August 20th 201217 - Neptune Project feat. Polly Strange - The Inside.wav

Suspicious position 0:06:00

Peak level 99.0 %
Extraction speed 11.7 X
Track quality 99.8 %
Test CRC A79DF2D0
Copy CRC A79DF2D0
Track not present in AccurateRip database
Copy finished

None of the tracks are present in the AccurateRip database

There were errors

End of status report

---- CUETools DB Plugin V2.1.3

[CTDB TOCID: xXQzUnGA5aVYq8vpt9oljh0EYjk-] found, Submit result: xXQzUnGA5aVYq8vpt9oljh0EYjk- has been confirmed
[c3ea8fc0] (5/5) Accurately ripped

==== Log checksum 97EF98E72583023F6B6F018052C1323F5815C293F20E4E899D687D2E9520B00D ====
 
REM GENRE "Progressive Trance"
REM DATE 2012
REM DISCID F6124F11
REM COMMENT "ExactAudioCopy v1.0b3"
PERFORMER "Armin van Buuren"
TITLE "Universal Religion Chapter Six"
FILE "01 - Andrew Rayel feat. Jano - How Do I Know (Armin van Buuren Intro Edit).wav" WAVE
TRACK 01 AUDIO
TITLE "How Do I Know (Armin van Buuren Intro Edit)"
PERFORMER "Andrew Rayel feat. Jano"
FLAGS DCP
INDEX 01 00:00:00
FILE "02 - Andy Duguid feat. Shannon Hurley - I Want To Believe.wav" WAVE
TRACK 02 AUDIO
TITLE "I Want To Believe"
PERFORMER "Andy Duguid feat. Shannon Hurley"
FLAGS DCP
INDEX 01 00:00:00
FILE "03 - Blake Jarrell - Barbados.wav" WAVE
TRACK 03 AUDIO
TITLE "Barbados"
PERFORMER "Blake Jarrell"
FLAGS DCP
INDEX 01 00:00:00
FILE "04 - Solarstone with Aly & Fila - Fireisland (Future Disciple Remix).wav" WAVE
TRACK 04 AUDIO
TITLE "Fireisland (Future Disciple Remix)"
PERFORMER "Solarstone with Aly & Fila"
FLAGS DCP
INDEX 01 00:00:00
FILE "05 - Armin van Buuren feat. Ana Criado - I'll Listen.wav" WAVE
TRACK 05 AUDIO
TITLE "I'll Listen"
PERFORMER "Armin van Buuren feat. Ana Criado"
FLAGS DCP
INDEX 01 00:00:00
FILE "06 - Abstract Vision & Elite Electronic vs Broning - Relict.wav" WAVE
TRACK 06 AUDIO
TITLE "Relict"
PERFORMER "Abstract Vision & Elite Electronic vs Broning"
FLAGS DCP
INDEX 01 00:00:00
FILE "07 - Protoculture - Perpetual Motion.wav" WAVE
TRACK 07 AUDIO
TITLE "Perpetual Motion"
PERFORMER "Protoculture"
FLAGS DCP
INDEX 01 00:00:00
FILE "08 - Orjan Nilsen - Burana.wav" WAVE
TRACK 08 AUDIO
TITLE "Burana"
PERFORMER "Orjan Nilsen"
FLAGS DCP
INDEX 01 00:00:00
FILE "09 - Beat Service - Fortuna.wav" WAVE
TRACK 09 AUDIO
TITLE "Fortuna"
PERFORMER "Beat Service"
FLAGS DCP
INDEX 01 00:00:00
FILE "10 - Andrew Rayel - Aeon of Revenge.wav" WAVE
TRACK 10 AUDIO
TITLE "Aeon of Revenge"
PERFORMER "Andrew Rayel"
FLAGS DCP
INDEX 01 00:00:00
FILE "11 - Skytech - What's Wrong (Skytech Stadium Mix).wav" WAVE
TRACK 11 AUDIO
TITLE "What's Wrong (Skytech Stadium Mix)"
PERFORMER "Skytech"
FLAGS DCP
INDEX 01 00:00:00
FILE "12 - Stoneface & Terminal - Green Velvet.wav" WAVE
TRACK 12 AUDIO
TITLE "Green Velvet"
PERFORMER "Stoneface & Terminal"
FLAGS DCP
INDEX 01 00:00:00
FILE "13 - A.R.D.I. - Premonition.wav" WAVE
TRACK 13 AUDIO
TITLE "Premonition"
PERFORMER "A.R.D.I."
FLAGS DCP
INDEX 01 00:00:00
FILE "14 - Matt Davey - Believe In Me.wav" WAVE
TRACK 14 AUDIO
TITLE "Believe In Me"
PERFORMER "Matt Davey"
FLAGS DCP
INDEX 01 00:00:00
FILE "15 - Jorn van Deynhoven - Headliner.wav" WAVE
TRACK 15 AUDIO
TITLE "Headliner"
PERFORMER "Jorn van Deynhoven"
FLAGS DCP
INDEX 01 00:00:00
FILE "16 - Sasha Carassi and Mikael Jonasson - Void.wav" WAVE
TRACK 16 AUDIO
TITLE "Void"
PERFORMER "Sasha Carassi and Mikael Jonasson"
FLAGS DCP
INDEX 01 00:00:00
FILE "17 - Armin van Buuren presents Gaia - Status Excessu D (ASOT 500 Theme).wav" WAVE
TRACK 17 AUDIO
TITLE "Status Excessu D (ASOT 500 Theme)"
PERFORMER "Armin van Buuren presents Gaia"
FLAGS DCP
INDEX 01 00:00:00
REM GENRE "Progressive Trance" 
REM DATE 2012
REM DISCID F7121411
REM COMMENT "ExactAudioCopy v1.0b3"
PERFORMER "Armin van Buuren"
TITLE "Universal Religion Chapter Six"
FILE "01 - Alex M.O.R.P.H. - Eternal Flame (Original Breaks Mix).wav" WAVE
TRACK 01 AUDIO
TITLE "Eternal Flame (Original Breaks Mix)"
PERFORMER "Alex M.O.R.P.H."
FLAGS DCP
INDEX 01 00:00:00
FILE "02 - Omnia - Infina.wav" WAVE
TRACK 02 AUDIO
TITLE "Infina"
PERFORMER "Omnia"
FLAGS DCP
INDEX 01 00:00:00
FILE "03 - Richard Sebastian - Full Disclosure.wav" WAVE
TRACK 03 AUDIO
TITLE "Full Disclosure"
PERFORMER "Richard Sebastian"
FLAGS DCP
INDEX 01 00:00:00
FILE "04 - Jaytech feat. Steve Smith - Stranger (Kyau & Albert Remix).wav" WAVE
TRACK 04 AUDIO
TITLE "Stranger (Kyau & Albert Remix)"
PERFORMER "Jaytech feat. Steve Smith"
FLAGS DCP
INDEX 01 00:00:00
FILE "05 - Juventa - Metamorphose.wav" WAVE
TRACK 05 AUDIO
TITLE "Metamorphose"
PERFORMER "Juventa"
FLAGS DCP
INDEX 01 00:00:00
FILE "06 - Faruk Sabanci - Elveda.wav" WAVE
TRACK 06 AUDIO
TITLE "Elveda"
PERFORMER "Faruk Sabanci"
FLAGS DCP
INDEX 01 00:00:00
FILE "07 - Daniel Kandi - 3 Strikes UR In.wav" WAVE
TRACK 07 AUDIO
TITLE "3 Strikes UR In"
PERFORMER "Daniel Kandi"
FLAGS DCP
INDEX 01 00:00:00
FILE "08 - Dash Berlin feat. Emma Hewitt - Like Spinning Plates (Popov Remix).wav" WAVE
TRACK 08 AUDIO
TITLE "Like Spinning Plates (Alexander Popov Remix)"
PERFORMER "Dash Berlin feat. Emma Hewitt"
FLAGS DCP
INDEX 01 00:00:00
FILE "09 - Paul Webster - Time (MaRLo Dub Remix).wav" WAVE
TRACK 09 AUDIO
TITLE "Time (MaRLo Dub Remix)"
PERFORMER "Paul Webster"
FLAGS DCP
INDEX 01 00:00:00
FILE "10 - Tomas Heredia - The Witch.wav" WAVE
TRACK 10 AUDIO
TITLE "The Witch"
PERFORMER "Tomas Heredia"
FLAGS DCP
INDEX 01 00:00:00
FILE "11 - Andy Moor - K Ta.wav" WAVE
TRACK 11 AUDIO
TITLE "K Ta"
PERFORMER "Andy Moor"
FLAGS DCP
INDEX 01 00:00:00
FILE "12 - Richard Durand & Protoculture - Pleasure.wav" WAVE
TRACK 12 AUDIO
TITLE "Pleasure"
PERFORMER "Richard Durand & Protoculture"
FLAGS DCP
INDEX 01 00:00:00
FILE "13 - Matt Bukovski - Retrospection.wav" WAVE
TRACK 13 AUDIO
TITLE "Retrospection"
PERFORMER "Matt Bukovski"
FLAGS DCP
INDEX 01 00:00:00
FILE "14 - Aligator feat. Daniel Kandi - The Perfect Match.wav" WAVE
TRACK 14 AUDIO
TITLE "The Perfect Match"
PERFORMER "Aligator feat. Daniel Kandi"
FLAGS DCP
INDEX 01 00:00:00
FILE "15 - Mark Burton - Understatement.wav" WAVE
TRACK 15 AUDIO
TITLE "Understatement"
PERFORMER "Mark Burton"
FLAGS DCP
INDEX 01 00:00:00
FILE "16 - Sunlounger & Zara Taylor - Try To Be Love.wav" WAVE
TRACK 16 AUDIO
TITLE "Try To Be Love"
PERFORMER "Sunlounger & Zara Taylor"
FLAGS DCP
INDEX 01 00:00:00
FILE "17 - Neptune Project feat. Polly Strange - The Inside.wav" WAVE
TRACK 17 AUDIO
TITLE "The Inside"
PERFORMER "Neptune Project feat. Polly Strange"
FLAGS DCP
INDEX 01 00:00:00
info [Профиль]  [ЛС] 
Показать сообщения:    
Ответить на тему

Текущее время: 19-Май 22:10

Часовой пояс: GMT + 4



Вы не можете начинать темы
Вы не можете отвечать на сообщения
Вы не можете редактировать свои сообщения
Вы не можете удалять свои сообщения
Вы не можете голосовать в опросах
Вы не можете прикреплять файлы к сообщениям
Вы не можете скачивать файлы