Ошибка

(Electronic, Ambient, Breaks) Hybrid - I Choose Noise - 2006, FLAC (tracks+.cue), lossless

Ответить на тему
 
Автор Сообщение

SilverTea

Пол: Пол:Муж

Стаж: 13 лет

Сообщений: 80

Рейтинг

post 15-Сен-2012 03:01 0[+]

[Цитировать] 

Hybrid - I Choose Noise

pic="http://s002.youpic.su/pictures/1347652800/0c3684a237d1e60c1cd4c7cdacbad932.jpg"
Жанр: Electronic, Ambient, Breaks
Год издания данного носителя: 2006
Страна-производитель носителя: GB
Лейбл: Distinct'ive Records
Каталоговый номер: DISNCD172
Аудио кодек: FLAC
Тип рипа: tracks+.cue
Битрейт аудио: lossless
Продолжительность: 01:12:00
Источник (релизер): What.CD (trza)

Треклист:
скрытый трек
00. Everything Is Brand New

01. Secret Circles
02. Dogstar (featuring Perry Farrell)
03. I Choose Noise
04. Falling Down (featuring Judie Tzuke)
05. Last Man Standing
06. Hooligan Spirit
07. Choke (featuring John Graham)
08. Keep It In The Family
09. Until Tomorrow (featuring John Graham)
10. Dreamstalker
11. Just For Today (featuring Kirsty Hawkshaw)
Exact Audio Copy V1.0 beta 3 from 29. August 2011 

EAC extraction logfile from 27. June 2014, 17:13

Hybrid / I Choose Noise

Used drive : PLEXTOR DVDR PX-760A Adapter: 3 ID: 0

Read mode : Secure
Utilize accurate stream : Yes
Defeat audio cache : Yes
Make use of C2 pointers : No

Read offset correction : 30
Overread into Lead-In and Lead-Out : Yes
Fill up missing offset samples with silence : Yes
Delete leading and trailing silent blocks : No
Null samples used in CRC calculations : Yes
Used interface : Native Win32 interface for Win NT & 2000
Gap handling : Appended to previous track

Used output format : User Defined Encoder
Selected bitrate : 1024 kBit/s
Quality : High
Add ID3 tag : No
Command line compressor : C:\Program Files (x86)\Exact Audio Copy\Flac\flac.exe
Additional command line options : -8 -V -T "ARTIST=%artist%" -T "TITLE=%title%" -T "ALBUM=%albumtitle%" -T "DATE=%year%" -T "TRACKNUMBER=%tracknr%" -T "GENRE=%genre%" -T "PERFORMER=%albuminterpret%" -T "COMPOSER=%composer%" %haslyrics%--tag-from-file=LYRICS="%lyricsfile%"%haslyrics% -T "ALBUMARTIST=%albumartist%" -T "ALBUM ARTIST=%albumartist%" -T "DISCNUMBER=%cdnumber%" -T "TOTALDISCS=%totalcds%" -T "TOTALTRACKS=%numtracks%" -T "COMMENT=%comment%" %source% -o %dest%

TOC of the extracted CD

Track | Start | Length | Start sector | End sector
---------------------------------------------------------
1 | 3:04.36 | 0:52.57 | 13836 | 17792
2 | 3:57.18 | 8:23.62 | 17793 | 55579
3 | 12:21.05 | 5:28.46 | 55580 | 80225
4 | 17:49.51 | 6:51.61 | 80226 | 111111
5 | 24:41.37 | 8:07.35 | 111112 | 147671
6 | 32:48.72 | 4:33.64 | 147672 | 168210
7 | 37:22.61 | 6:51.41 | 168211 | 199076
8 | 44:14.27 | 6:21.54 | 199077 | 227705
9 | 50:36.06 | 6:46.15 | 227706 | 258170
10 | 57:22.21 | 6:28.23 | 258171 | 287293
11 | 63:50.44 | 8:09.35 | 287294 | 324003

Track 1

Filename C:\EACRips\01 Secret Circles.wav

Pre-gap length 0:03:06.48

Peak level 100.0 %
Extraction speed 0.6 X
Track quality 99.7 %
Test CRC B99620CA
Copy CRC B99620CA
Accurately ripped (confidence 19) [0144636D] (AR v2)
Copy OK

Track 2

Filename C:\EACRips\02 Dogstar (feat. Perry Farrell).wav

Peak level 100.0 %
Extraction speed 2.3 X
Track quality 100.0 %
Test CRC B2ABAC65
Copy CRC B2ABAC65
Accurately ripped (confidence 19) [BF20DD7C] (AR v2)
Copy OK

Track 3

Filename C:\EACRips\03 I Choose Noise.wav

Peak level 100.0 %
Extraction speed 2.2 X
Track quality 100.0 %
Test CRC 4238266C
Copy CRC 4238266C
Accurately ripped (confidence 21) [4E82BEA9] (AR v2)
Copy OK

Track 4

Filename C:\EACRips\04 Falling Down (feat. Judie Tzuke).wav

Peak level 100.0 %
Extraction speed 2.3 X
Track quality 100.0 %
Test CRC 1F60A746
Copy CRC 1F60A746
Accurately ripped (confidence 22) [13D806AF] (AR v2)
Copy OK

Track 5

Filename C:\EACRips\05 Last Man Standing.wav

Peak level 100.0 %
Extraction speed 2.3 X
Track quality 100.0 %
Test CRC AC237835
Copy CRC AC237835
Accurately ripped (confidence 21) [F465348E] (AR v2)
Copy OK

Track 6

Filename C:\EACRips\06 Hooligan Spirit.wav

Peak level 100.0 %
Extraction speed 1.6 X
Track quality 99.9 %
Test CRC E04133E9
Copy CRC E04133E9
Accurately ripped (confidence 21) [AB89CA03] (AR v2)
Copy OK

Track 7

Filename C:\EACRips\07 Choke (feat. John Graham).wav

Peak level 100.0 %
Extraction speed 2.3 X
Track quality 100.0 %
Test CRC 0BCEA5EE
Copy CRC 0BCEA5EE
Accurately ripped (confidence 21) [9A62428B] (AR v2)
Copy OK

Track 8

Filename C:\EACRips\08 Keep It In The Family.wav

Peak level 100.0 %
Extraction speed 2.3 X
Track quality 100.0 %
Test CRC DFCC219A
Copy CRC DFCC219A
Accurately ripped (confidence 21) [6C7D8CF6] (AR v2)
Copy OK

Track 9

Filename C:\EACRips\09 Until Tomorrow (feat. John Graham).wav

Peak level 100.0 %
Extraction speed 2.3 X
Track quality 100.0 %
Test CRC 55E8692E
Copy CRC 55E8692E
Accurately ripped (confidence 22) [3458FF6F] (AR v2)
Copy OK

Track 10

Filename C:\EACRips\10 Dream Stalker.wav

Peak level 100.0 %
Extraction speed 2.3 X
Track quality 100.0 %
Test CRC 97B962B4
Copy CRC 97B962B4
Accurately ripped (confidence 20) [CCB070C8] (AR v2)
Copy OK

Track 11

Filename C:\EACRips\11 Just For Today (feat. Kirsty Hawkshaw).wav

Peak level 100.0 %
Extraction speed 2.5 X
Track quality 100.0 %
Test CRC F48CBB45
Copy CRC F48CBB45
Accurately ripped (confidence 22) [A4BEE0DC] (AR v2)
Copy OK

All tracks accurately ripped

No errors occurred

End of status report

==== Log checksum 9157F5160C1D9E654970A6E73D70C8A7CBEDE8C51522524E699F98465C74C818 ====
Exact Audio Copy V1.0 beta 3 from 29. August 2011 

EAC extraction logfile from 27. June 2014, 17:18

Hybrid / I Choose Noise

Used drive : PLEXTOR DVDR PX-760A Adapter: 3 ID: 0

Read mode : Secure
Utilize accurate stream : Yes
Defeat audio cache : Yes
Make use of C2 pointers : No

Read offset correction : 30
Overread into Lead-In and Lead-Out : Yes
Fill up missing offset samples with silence : Yes
Delete leading and trailing silent blocks : No
Null samples used in CRC calculations : Yes
Used interface : Native Win32 interface for Win NT & 2000

Used output format : User Defined Encoder
Selected bitrate : 1024 kBit/s
Quality : High
Add ID3 tag : No
Command line compressor : C:\Program Files (x86)\Exact Audio Copy\Flac\flac.exe
Additional command line options : -8 -V -T "ARTIST=%artist%" -T "TITLE=%title%" -T "ALBUM=%albumtitle%" -T "DATE=%year%" -T "TRACKNUMBER=%tracknr%" -T "GENRE=%genre%" -T "PERFORMER=%albuminterpret%" -T "COMPOSER=%composer%" %haslyrics%--tag-from-file=LYRICS="%lyricsfile%"%haslyrics% -T "ALBUMARTIST=%albumartist%" -T "ALBUM ARTIST=%albumartist%" -T "DISCNUMBER=%cdnumber%" -T "TOTALDISCS=%totalcds%" -T "TOTALTRACKS=%numtracks%" -T "COMMENT=%comment%" %source% -o %dest%

TOC of the extracted CD

Track | Start | Length | Start sector | End sector
---------------------------------------------------------
1 | 3:04.36 | 0:52.57 | 13836 | 17792
2 | 3:57.18 | 8:23.62 | 17793 | 55579
3 | 12:21.05 | 5:28.46 | 55580 | 80225
4 | 17:49.51 | 6:51.61 | 80226 | 111111
5 | 24:41.37 | 8:07.35 | 111112 | 147671
6 | 32:48.72 | 4:33.64 | 147672 | 168210
7 | 37:22.61 | 6:51.41 | 168211 | 199076
8 | 44:14.27 | 6:21.54 | 199077 | 227705
9 | 50:36.06 | 6:46.15 | 227706 | 258170
10 | 57:22.21 | 6:28.23 | 258171 | 287293
11 | 63:50.44 | 8:09.35 | 287294 | 324003

Range status and errors

Selected range (Sectors 0-13835)

Filename C:\EACRips\00 Everything Is Brand New.wav

Peak level 100.0 %
Extraction speed 2.0 X
Range quality 100.0 %
Copy CRC 9ADFEAD6
Copy OK

No errors occurred

AccurateRip summary


No tracks could be verified as accurate

End of status report

==== Log checksum EFD4E325521B832D9F93FC8E24619ABD56395B873AC519570E66E565FC1AF062 ====

------------------------------------------------------------

Exact Audio Copy V1.0 beta 3 from 29. August 2011

EAC extraction logfile from 27. June 2014, 17:21

Hybrid / I Choose Noise

Used drive : PLEXTOR DVDR PX-760A Adapter: 3 ID: 0

Read mode : Secure
Utilize accurate stream : Yes
Defeat audio cache : Yes
Make use of C2 pointers : No

Read offset correction : 30
Overread into Lead-In and Lead-Out : Yes
Fill up missing offset samples with silence : Yes
Delete leading and trailing silent blocks : No
Null samples used in CRC calculations : Yes
Used interface : Native Win32 interface for Win NT & 2000

Used output format : User Defined Encoder
Selected bitrate : 1024 kBit/s
Quality : High
Add ID3 tag : No
Command line compressor : C:\Program Files (x86)\Exact Audio Copy\Flac\flac.exe
Additional command line options : -8 -V -T "ARTIST=%artist%" -T "TITLE=%title%" -T "ALBUM=%albumtitle%" -T "DATE=%year%" -T "TRACKNUMBER=%tracknr%" -T "GENRE=%genre%" -T "PERFORMER=%albuminterpret%" -T "COMPOSER=%composer%" %haslyrics%--tag-from-file=LYRICS="%lyricsfile%"%haslyrics% -T "ALBUMARTIST=%albumartist%" -T "ALBUM ARTIST=%albumartist%" -T "DISCNUMBER=%cdnumber%" -T "TOTALDISCS=%totalcds%" -T "TOTALTRACKS=%numtracks%" -T "COMMENT=%comment%" %source% -o %dest%

TOC of the extracted CD

Track | Start | Length | Start sector | End sector
---------------------------------------------------------
1 | 3:04.36 | 0:52.57 | 13836 | 17792
2 | 3:57.18 | 8:23.62 | 17793 | 55579
3 | 12:21.05 | 5:28.46 | 55580 | 80225
4 | 17:49.51 | 6:51.61 | 80226 | 111111
5 | 24:41.37 | 8:07.35 | 111112 | 147671
6 | 32:48.72 | 4:33.64 | 147672 | 168210
7 | 37:22.61 | 6:51.41 | 168211 | 199076
8 | 44:14.27 | 6:21.54 | 199077 | 227705
9 | 50:36.06 | 6:46.15 | 227706 | 258170
10 | 57:22.21 | 6:28.23 | 258171 | 287293
11 | 63:50.44 | 8:09.35 | 287294 | 324003

Range status and errors

Selected range (Sectors 0-13835)

Filename C:\EACRips\00 Everything Is Brand New.wav

Peak level 100.0 %
Extraction speed 2.0 X
Range quality 100.0 %
Copy CRC 9ADFEAD6
Copy OK

No errors occurred

AccurateRip summary


No tracks could be verified as accurate

End of status report

==== Log checksum 1CCD0BB149ED48D7A8E5B8DDB8EACD9E2B0B360CD90802232DEB4A875696E259 ====
REM GENRE Electronic 
REM DATE 2006
REM DISCID A110280B
REM COMMENT "ExactAudioCopy v1.0b3"
PERFORMER "Hybrid"
TITLE "I Choose Noise"
FILE "01 Secret Circles.wav" WAVE
TRACK 01 AUDIO
TITLE "Secret Circles"
PERFORMER "Hybrid"
ISRC GBJRQ0600056
PREGAP 03:04:36
INDEX 01 00:00:00
FILE "02 Dogstar (feat. Perry Farrell).wav" WAVE
TRACK 02 AUDIO
TITLE "Dogstar (feat. Perry Farrell)"
PERFORMER "Hybrid"
ISRC GBJRQ0600057
INDEX 01 00:00:00
FILE "03 I Choose Noise.wav" WAVE
TRACK 03 AUDIO
TITLE "I Choose Noise"
PERFORMER "Hybrid"
ISRC GBJRQ0600058
INDEX 01 00:00:00
FILE "04 Falling Down (feat. Judie Tzuke).wav" WAVE
TRACK 04 AUDIO
TITLE "Falling Down (feat. Judie Tzuke)"
PERFORMER "Hybrid"
ISRC GBJRQ0600059
INDEX 01 00:00:00
FILE "05 Last Man Standing.wav" WAVE
TRACK 05 AUDIO
TITLE "Last Man Standing"
PERFORMER "Hybrid"
ISRC GBJRQ0600060
INDEX 01 00:00:00
FILE "06 Hooligan Spirit.wav" WAVE
TRACK 06 AUDIO
TITLE "Hooligan Spirit"
PERFORMER "Hybrid"
ISRC GBJRQ0600061
INDEX 01 00:00:00
FILE "07 Choke (feat. John Graham).wav" WAVE
TRACK 07 AUDIO
TITLE "Choke (feat. John Graham)"
PERFORMER "Hybrid"
ISRC GBJRQ0600062
INDEX 01 00:00:00
FILE "08 Keep It In The Family.wav" WAVE
TRACK 08 AUDIO
TITLE "Keep It In The Family"
PERFORMER "Hybrid"
ISRC GBJRQ0600063
INDEX 01 00:00:00
FILE "09 Until Tomorrow (feat. John Graham).wav" WAVE
TRACK 09 AUDIO
TITLE "Until Tomorrow (feat. John Graham)"
PERFORMER "Hybrid"
ISRC GBJRQ0600064
INDEX 01 00:00:00
FILE "10 Dream Stalker.wav" WAVE
TRACK 10 AUDIO
TITLE "Dream Stalker"
PERFORMER "Hybrid"
ISRC GBJRQ0600065
INDEX 01 00:00:00
FILE "11 Just For Today (feat. Kirsty Hawkshaw).wav" WAVE
TRACK 11 AUDIO
TITLE "Just For Today (feat. Kirsty Hawkshaw)"
PERFORMER "Hybrid"
ISRC GBJRQ0600066
INDEX 01 00:00:00
AUDIOCHECKER v2.0 beta (build 457) - by Dester - opdester@freemail.hu 
~~~~~~~~~~~~~~~~~~~~~~~~~~~~~~~~~~
-=== DO NOT EDIT THIS FILE! ===-

Path: ...\Hybrid - I Choose Noise

01 -=- 00 Everything Is Brand New.flac -=- CDDA (100%)
02 -=- 01 Secret Circles.flac -=- CDDA (99%)
03 -=- 02 Dogstar (feat. Perry Farrell).flac -=- CDDA (100%)
04 -=- 03 I Choose Noise.flac -=- CDDA (100%)
05 -=- 04 Falling Down (feat. Judie Tzuke).flac -=- CDDA (99%)
06 -=- 05 Last Man Standing.flac -=- CDDA (100%)
07 -=- 06 Hooligan Spirit.flac -=- CDDA (100%)
08 -=- 07 Choke (feat. John Graham).flac -=- CDDA (99%)
09 -=- 08 Keep It In The Family.flac -=- CDDA (100%)
10 -=- 09 Until Tomorrow (feat. John Graham).flac -=- CDDA (99%)
11 -=- 10 Dream Stalker.flac -=- CDDA (100%)
12 -=- 11 Just For Today (feat. Kirsty Hawkshaw).flac -=- CDDA (100%)

Summary 99,67% CDDA

236863924
info [Профиль]  [ЛС] 
Показать сообщения:    
Ответить на тему

Текущее время: 22-Май 23:11

Часовой пояс: GMT + 4



Вы не можете начинать темы
Вы не можете отвечать на сообщения
Вы не можете редактировать свои сообщения
Вы не можете удалять свои сообщения
Вы не можете голосовать в опросах
Вы не можете прикреплять файлы к сообщениям
Вы не можете скачивать файлы