Ошибка

(Dancehall / Reggae) Bounty Killer - Nah No Mercy - 2006, FLAC (tracks+.cue), lossless

Ответить на тему
 
Автор Сообщение

MrPavlik

Пол: Пол:Муж

Стаж: 9 лет 2 месяца

Сообщений: 152

Россия
Рейтинг

post 04-Сен-2012 23:52 0[+]

[Цитировать] 

Bounty Killer - Nah No Mercy

pic="http://s002.youpic.su/pictures/1346702400/e71b944a84db0c46df41d22cb9347f3f.jpg"
Жанр: Dancehall / Reggae
Год издания данного носителя: 2006
Страна-производитель носителя: USA
Тип релиза: tracks+.cue
Аудио кодек: FLAC
Битрейт аудио: lossless
Общая продолжительность: 02:27:02
Лейбл: VP Records
Каталоговый номер: VPCD 1741
Каталоговый номер Amazon (ASIN): B000FPYN44
Тип рипа: tracks+.cue
Уровень сжатия аудио кодеком: EAC FLAC -8
Дополнительная информация: Рип оригинального импортного диска из США, приобретенного в Интернет-магазине Amazon. После создания рипа данные о CD были внесены в базу AccurateRip.

CD #1

Продолжительность: 01:10:41
Треклист:
01. Dem Deh (1:55)
02. Spy Fi Die (3:38)
03. Coppershot (3:41)
04. Statement (3:45)
05. Long or Tall (3:25)
06. If a War (3:41)
07. Lodge (3:42)
08. Gun Thirsty (3:45)
09. New Gun (3:47)
10. Dead This Time (3:37)
11. War (3:29)
12. Suspence (3:18)
13. Twenty One feat. Pinchers (3:45)
14. East Indian (3:48)
15. No Interview (3:44)
16. Bounty's Nitro Mix (2:58)
17. Fed Up (3:46)
18. My Experience (3:42)
19. Sufferer feat. Wayne Marshall (3:32)
20. Look (3:50)
Exact Audio Copy V0.99 prebeta 4 from 23. January 2008 

EAC extraction logfile from 4. September 2012, 22:06

Bounty Killer / Nah No Mercy

Used drive : ASUS DRW-22B2ST Adapter: 1 ID: 0

Read mode : Secure
Utilize accurate stream : Yes
Defeat audio cache : Yes
Make use of C2 pointers : No

Read offset correction : 6
Overread into Lead-In and Lead-Out : No
Fill up missing offset samples with silence : Yes
Delete leading and trailing silent blocks : No
Null samples used in CRC calculations : Yes
Used interface : Native Win32 interface for Win NT & 2000
Gap handling : Appended to previous track

Used output format : User Defined Encoder
Selected bitrate : 128 kBit/s
Quality : High
Add ID3 tag : No
Command line compressor : C:\Program Files (x86)\Exact Audio Copy\Flac\flac.exe
Additional command line options : -8 -V -T "ARTIST=%a" -T "TITLE=%t" -T "ALBUM=%g" -T "DATE=%y" -T "TRACKNUMBER=%n" -T "GENRE=%m" -T "COMMENT=EAC FLAC -8" %s

TOC of the extracted CD

Track | Start | Length | Start sector | End sector
---------------------------------------------------------
1 | 0:00.00 | 1:55.04 | 0 | 8628
2 | 1:55.04 | 3:37.70 | 8629 | 24973
3 | 5:32.74 | 3:40.64 | 24974 | 41537
4 | 9:13.63 | 3:44.68 | 41538 | 58405
5 | 12:58.56 | 3:24.74 | 58406 | 73779
6 | 16:23.55 | 3:41.32 | 73780 | 90386
7 | 20:05.12 | 3:42.28 | 90387 | 107064
8 | 23:47.40 | 3:45.19 | 107065 | 123958
9 | 27:32.59 | 3:46.57 | 123959 | 140965
10 | 31:19.41 | 3:36.42 | 140966 | 157207
11 | 34:56.08 | 3:29.17 | 157208 | 172899
12 | 38:25.25 | 3:18.08 | 172900 | 187757
13 | 41:43.33 | 3:45.08 | 187758 | 204640
14 | 45:28.41 | 3:48.37 | 204641 | 221777
15 | 49:17.03 | 3:44.32 | 221778 | 238609
16 | 53:01.35 | 2:58.12 | 238610 | 251971
17 | 55:59.47 | 3:46.32 | 251972 | 268953
18 | 59:46.04 | 3:42.10 | 268954 | 285613
19 | 63:28.14 | 3:32.16 | 285614 | 301529
20 | 67:00.30 | 3:49.67 | 301530 | 318771

Track 1

Filename E:\Bounty Killer - Nah No Mercy [tapochek.net]\CD #1\01. Bounty Killer – Dem Deh.wav

Pre-gap length 0:00:02.00

Peak level 72.3 %
Track quality 100.0 %
Test CRC 5209AE9D
Copy CRC 5209AE9D
Accurately ripped (confidence 1) [F8F9CF5A]
Copy OK

Track 2

Filename E:\Bounty Killer - Nah No Mercy [tapochek.net]\CD #1\02. Bounty Killer – Spy Fi Die.wav

Peak level 89.2 %
Track quality 100.0 %
Test CRC F12D71DE
Copy CRC F12D71DE
Accurately ripped (confidence 1) [34BB4283]
Copy OK

Track 3

Filename E:\Bounty Killer - Nah No Mercy [tapochek.net]\CD #1\03. Bounty Killer – Coppershot.wav

Peak level 89.2 %
Track quality 100.0 %
Test CRC 28F7D4EE
Copy CRC 28F7D4EE
Accurately ripped (confidence 1) [70743546]
Copy OK

Track 4

Filename E:\Bounty Killer - Nah No Mercy [tapochek.net]\CD #1\04. Bounty Killer – Statement.wav

Peak level 89.2 %
Track quality 100.0 %
Test CRC 2D2D8931
Copy CRC 2D2D8931
Accurately ripped (confidence 1) [39DFAD27]
Copy OK

Track 5

Filename E:\Bounty Killer - Nah No Mercy [tapochek.net]\CD #1\05. Bounty Killer – Long or Tall.wav

Peak level 89.2 %
Track quality 100.0 %
Test CRC 02C8320E
Copy CRC 02C8320E
Accurately ripped (confidence 1) [47608771]
Copy OK

Track 6

Filename E:\Bounty Killer - Nah No Mercy [tapochek.net]\CD #1\06. Bounty Killer – If a War.wav

Peak level 89.2 %
Track quality 100.0 %
Test CRC 3C9B2656
Copy CRC 3C9B2656
Accurately ripped (confidence 1) [60E65FC0]
Copy OK

Track 7

Filename E:\Bounty Killer - Nah No Mercy [tapochek.net]\CD #1\07. Bounty Killer – Lodge.wav

Peak level 89.2 %
Track quality 100.0 %
Test CRC 4C015283
Copy CRC 4C015283
Accurately ripped (confidence 1) [28299D09]
Copy OK

Track 8

Filename E:\Bounty Killer - Nah No Mercy [tapochek.net]\CD #1\08. Bounty Killer – Gun Thirsty.wav

Peak level 89.2 %
Track quality 100.0 %
Test CRC 2BB23A69
Copy CRC 2BB23A69
Accurately ripped (confidence 1) [F61E21E5]
Copy OK

Track 9

Filename E:\Bounty Killer - Nah No Mercy [tapochek.net]\CD #1\09. Bounty Killer – New Gun.wav

Peak level 89.2 %
Track quality 100.0 %
Test CRC 7F7E5A01
Copy CRC 7F7E5A01
Accurately ripped (confidence 1) [5137AB5C]
Copy OK

Track 10

Filename E:\Bounty Killer - Nah No Mercy [tapochek.net]\CD #1\10. Bounty Killer – Dead This Time.wav

Peak level 89.2 %
Track quality 100.0 %
Test CRC ABA079EA
Copy CRC ABA079EA
Accurately ripped (confidence 1) [3485A736]
Copy OK

Track 11

Filename E:\Bounty Killer - Nah No Mercy [tapochek.net]\CD #1\11. Bounty Killer – War.wav

Peak level 88.5 %
Track quality 100.0 %
Test CRC 4BF6CE33
Copy CRC 4BF6CE33
Accurately ripped (confidence 1) [9BECED2F]
Copy OK

Track 12

Filename E:\Bounty Killer - Nah No Mercy [tapochek.net]\CD #1\12. Bounty Killer – Suspence.wav

Peak level 89.1 %
Track quality 100.0 %
Test CRC 3A8889C5
Copy CRC 3A8889C5
Accurately ripped (confidence 1) [FF9972E0]
Copy OK

Track 13

Filename E:\Bounty Killer - Nah No Mercy [tapochek.net]\CD #1\13. Bounty Killer – Twenty One feat. Pinchers.wav

Peak level 89.2 %
Track quality 99.9 %
Test CRC 1A4918CE
Copy CRC 1A4918CE
Accurately ripped (confidence 1) [F783B81C]
Copy OK

Track 14

Filename E:\Bounty Killer - Nah No Mercy [tapochek.net]\CD #1\14. Bounty Killer – East Indian.wav

Peak level 100.0 %
Track quality 100.0 %
Test CRC D26C2FD5
Copy CRC D26C2FD5
Accurately ripped (confidence 1) [657CD3E0]
Copy OK

Track 15

Filename E:\Bounty Killer - Nah No Mercy [tapochek.net]\CD #1\15. Bounty Killer – No Interview.wav

Peak level 100.0 %
Track quality 100.0 %
Test CRC 1E18E15E
Copy CRC 1E18E15E
Accurately ripped (confidence 1) [B48F1A2B]
Copy OK

Track 16

Filename E:\Bounty Killer - Nah No Mercy [tapochek.net]\CD #1\16. Bounty Killer – Bounty's Nitro Mix.wav

Peak level 89.2 %
Track quality 100.0 %
Test CRC AF434ABA
Copy CRC AF434ABA
Accurately ripped (confidence 1) [FAD89630]
Copy OK

Track 17

Filename E:\Bounty Killer - Nah No Mercy [tapochek.net]\CD #1\17. Bounty Killer – Fed Up.wav

Peak level 89.2 %
Track quality 100.0 %
Test CRC 699E31B8
Copy CRC 699E31B8
Accurately ripped (confidence 1) [61AE36E7]
Copy OK

Track 18

Filename E:\Bounty Killer - Nah No Mercy [tapochek.net]\CD #1\18. Bounty Killer – My Experience.wav

Peak level 89.2 %
Track quality 99.9 %
Test CRC CDC42B67
Copy CRC CDC42B67
Accurately ripped (confidence 1) [2196C99E]
Copy OK

Track 19

Filename E:\Bounty Killer - Nah No Mercy [tapochek.net]\CD #1\19. Bounty Killer – Sufferer feat. Wayne Marshall.wav

Peak level 79.5 %
Track quality 100.0 %
Test CRC FDDF0348
Copy CRC FDDF0348
Accurately ripped (confidence 1) [3DBD643C]
Copy OK

Track 20

Filename E:\Bounty Killer - Nah No Mercy [tapochek.net]\CD #1\20. Bounty Killer – Look.wav

Peak level 87.8 %
Track quality 100.0 %
Test CRC AE691F1E
Copy CRC AE691F1E
Cannot be verified as accurate (confidence 1) [2EFCC246], AccurateRip returned [0BCEC5E3]
Copy OK

19 track(s) accurately ripped
1 track(s) could not be verified as accurate

Some tracks could not be verified as accurate

No errors occurred

End of status report
REM GENRE Reggae 
REM DATE 2006
REM DISCID 1E109A14
REM COMMENT "ExactAudioCopy v0.99pb4"
PERFORMER "Bounty Killer"
TITLE "Nah No Mercy"
FILE "01. Bounty Killer – Dem Deh.wav" WAVE
TRACK 01 AUDIO
TITLE "Dem Deh"
PERFORMER "Bounty Killer"
INDEX 01 00:00:00
FILE "02. Bounty Killer – Spy Fi Die.wav" WAVE
TRACK 02 AUDIO
TITLE "Spy Fi Die"
PERFORMER "Bounty Killer"
INDEX 01 00:00:00
FILE "03. Bounty Killer – Coppershot.wav" WAVE
TRACK 03 AUDIO
TITLE "Coppershot"
PERFORMER "Bounty Killer"
INDEX 01 00:00:00
FILE "04. Bounty Killer – Statement.wav" WAVE
TRACK 04 AUDIO
TITLE "Statement"
PERFORMER "Bounty Killer"
INDEX 01 00:00:00
FILE "05. Bounty Killer – Long or Tall.wav" WAVE
TRACK 05 AUDIO
TITLE "Long or Tall"
PERFORMER "Bounty Killer"
INDEX 01 00:00:00
FILE "06. Bounty Killer – If a War.wav" WAVE
TRACK 06 AUDIO
TITLE "If a War"
PERFORMER "Bounty Killer"
INDEX 01 00:00:00
FILE "07. Bounty Killer – Lodge.wav" WAVE
TRACK 07 AUDIO
TITLE "Lodge"
PERFORMER "Bounty Killer"
INDEX 01 00:00:00
FILE "08. Bounty Killer – Gun Thirsty.wav" WAVE
TRACK 08 AUDIO
TITLE "Gun Thirsty"
PERFORMER "Bounty Killer"
INDEX 01 00:00:00
FILE "09. Bounty Killer – New Gun.wav" WAVE
TRACK 09 AUDIO
TITLE "New Gun"
PERFORMER "Bounty Killer"
INDEX 01 00:00:00
FILE "10. Bounty Killer – Dead This Time.wav" WAVE
TRACK 10 AUDIO
TITLE "Dead This Time"
PERFORMER "Bounty Killer"
INDEX 01 00:00:00
FILE "11. Bounty Killer – War.wav" WAVE
TRACK 11 AUDIO
TITLE "War"
PERFORMER "Bounty Killer"
INDEX 01 00:00:00
FILE "12. Bounty Killer – Suspence.wav" WAVE
TRACK 12 AUDIO
TITLE "Suspence"
PERFORMER "Bounty Killer"
INDEX 01 00:00:00
FILE "13. Bounty Killer – Twenty One feat. Pinchers.wav" WAVE
TRACK 13 AUDIO
TITLE "Twenty One feat. Pinchers"
PERFORMER "Bounty Killer"
INDEX 01 00:00:00
FILE "14. Bounty Killer – East Indian.wav" WAVE
TRACK 14 AUDIO
TITLE "East Indian"
PERFORMER "Bounty Killer"
INDEX 01 00:00:00
FILE "15. Bounty Killer – No Interview.wav" WAVE
TRACK 15 AUDIO
TITLE "No Interview"
PERFORMER "Bounty Killer"
INDEX 01 00:00:00
FILE "16. Bounty Killer – Bounty's Nitro Mix.wav" WAVE
TRACK 16 AUDIO
TITLE "Bounty's Nitro Mix"
PERFORMER "Bounty Killer"
INDEX 01 00:00:00
FILE "17. Bounty Killer – Fed Up.wav" WAVE
TRACK 17 AUDIO
TITLE "Fed Up"
PERFORMER "Bounty Killer"
INDEX 01 00:00:00
FILE "18. Bounty Killer – My Experience.wav" WAVE
TRACK 18 AUDIO
TITLE "My Experience"
PERFORMER "Bounty Killer"
INDEX 01 00:00:00
FILE "19. Bounty Killer – Sufferer feat. Wayne Marshall.wav" WAVE
TRACK 19 AUDIO
TITLE "Sufferer feat. Wayne Marshall"
PERFORMER "Bounty Killer"
INDEX 01 00:00:00
FILE "20. Bounty Killer – Look.wav" WAVE
TRACK 20 AUDIO
TITLE "Look"
PERFORMER "Bounty Killer"
INDEX 01 00:00:00
Item: "E:\Bounty Killer - Nah No Mercy [tapochek.net]\CD #1\01. Bounty Killer – Dem Deh.flac" 
MD5: BAFB253123D465DB9558C00BDC7CB6AD
CRC32: 5209AE9D
No problems found.

Item: "E:\Bounty Killer - Nah No Mercy [tapochek.net]\CD #1\02. Bounty Killer – Spy Fi Die.flac"
MD5: 346AE1D3F3E53299FF176A456BEB3A53
CRC32: F12D71DE
No problems found.

Item: "E:\Bounty Killer - Nah No Mercy [tapochek.net]\CD #1\03. Bounty Killer – Coppershot.flac"
MD5: 62D6E3E351B2109F57CC19441B51B4FE
CRC32: 28F7D4EE
No problems found.

Item: "E:\Bounty Killer - Nah No Mercy [tapochek.net]\CD #1\04. Bounty Killer – Statement.flac"
MD5: F8AFE0FD23789C0BE51BB0BB1678C22E
CRC32: 2D2D8931
No problems found.

Item: "E:\Bounty Killer - Nah No Mercy [tapochek.net]\CD #1\05. Bounty Killer – Long or Tall.flac"
MD5: 330E86C9D11110ABD16CD5E79E96021B
CRC32: 02C8320E
No problems found.

Item: "E:\Bounty Killer - Nah No Mercy [tapochek.net]\CD #1\06. Bounty Killer – If a War.flac"
MD5: 901EB8CE9AA82C739B7ADC9C17E7CC62
CRC32: 3C9B2656
No problems found.

Item: "E:\Bounty Killer - Nah No Mercy [tapochek.net]\CD #1\07. Bounty Killer – Lodge.flac"
MD5: 49AF0D6F9549E4FCAF8A227D34432199
CRC32: 4C015283
No problems found.

Item: "E:\Bounty Killer - Nah No Mercy [tapochek.net]\CD #1\08. Bounty Killer – Gun Thirsty.flac"
MD5: 4A6F722723876A64DB50ECD927142C0C
CRC32: 2BB23A69
No problems found.

Item: "E:\Bounty Killer - Nah No Mercy [tapochek.net]\CD #1\09. Bounty Killer – New Gun.flac"
MD5: C5080F2328A8B5801BBE94650329E86A
CRC32: 7F7E5A01
No problems found.

Item: "E:\Bounty Killer - Nah No Mercy [tapochek.net]\CD #1\10. Bounty Killer – Dead This Time.flac"
MD5: 7E7888D9A15BE0573084081B02A57946
CRC32: ABA079EA
No problems found.

Item: "E:\Bounty Killer - Nah No Mercy [tapochek.net]\CD #1\11. Bounty Killer – War.flac"
MD5: B006F755A3853638F83E1E1DA113C471
CRC32: 4BF6CE33
No problems found.

Item: "E:\Bounty Killer - Nah No Mercy [tapochek.net]\CD #1\12. Bounty Killer – Suspence.flac"
MD5: C65DE00CEC97A3192512B40A3F0AAA24
CRC32: 3A8889C5
No problems found.

Item: "E:\Bounty Killer - Nah No Mercy [tapochek.net]\CD #1\13. Bounty Killer – Twenty One feat. Pinchers.flac"
MD5: 3C92369D6EDC6E3F25C8CADCCDDD2848
CRC32: 1A4918CE
No problems found.

Item: "E:\Bounty Killer - Nah No Mercy [tapochek.net]\CD #1\14. Bounty Killer – East Indian.flac"
MD5: 91D840E239D7FABFFEB7D4B9650105AB
CRC32: D26C2FD5
No problems found.

Item: "E:\Bounty Killer - Nah No Mercy [tapochek.net]\CD #1\15. Bounty Killer – No Interview.flac"
MD5: 66C482FD12037C62BF8781AF626F7465
CRC32: 1E18E15E
No problems found.

Item: "E:\Bounty Killer - Nah No Mercy [tapochek.net]\CD #1\16. Bounty Killer – Bounty's Nitro Mix.flac"
MD5: F04FE3037AFCF94CC59E5925528D54A0
CRC32: AF434ABA
No problems found.

Item: "E:\Bounty Killer - Nah No Mercy [tapochek.net]\CD #1\17. Bounty Killer – Fed Up.flac"
MD5: 544FBD90E1528A5FFC79AA3C56088033
CRC32: 699E31B8
No problems found.

Item: "E:\Bounty Killer - Nah No Mercy [tapochek.net]\CD #1\18. Bounty Killer – My Experience.flac"
MD5: B6E62B890351903A3520EB648F6AB920
CRC32: CDC42B67
No problems found.

Item: "E:\Bounty Killer - Nah No Mercy [tapochek.net]\CD #1\19. Bounty Killer – Sufferer feat. Wayne Marshall.flac"
MD5: 059B42BA428532D360A43315C6D7C529
CRC32: FDDF0348
No problems found.

Item: "E:\Bounty Killer - Nah No Mercy [tapochek.net]\CD #1\20. Bounty Killer – Look.flac"
MD5: E7248A02C82B3690469B2868534736FC
CRC32: AE691F1E
No problems found.

All items decoded successfully.

CD #2

Продолжительность: 01:16:21
Треклист:
01. Cellular Phone (3:25)
02. Intimate Woman (3:26)
03. More Gal (3:28)
04. Gal (3:28)
05. Benz And Bimma (3:08)
06. Living Dangerously (3:36)
07. Worthless Bwoy (2:42)
08. Arrow (3:06)
09. Stucky (3:38)
10. Fitnesss (3:37)
11. Smoke Clear (3:29)
12. Warlord (4:15)
13. Miss Ivy Last Son (3:51)
14. Bwoy Nuh Run (3:16)
15. Not Another Word (3:59)
16. Smoke The Hearb (3:41)
17. Down In The Ghetto (3:27)
18. Root Reality And Culture (3:34)
19. Seek God (3:45)
20. The Lord Is My Light And My Salvation (3:39)
21. Addies Mega Death Mix (6:00)
Exact Audio Copy V0.99 prebeta 4 from 23. January 2008 

EAC extraction logfile from 5. September 2012, 1:38

Bounty Killer / Nah No Mercy

Used drive : ASUS DRW-22B2ST Adapter: 1 ID: 0

Read mode : Secure
Utilize accurate stream : Yes
Defeat audio cache : Yes
Make use of C2 pointers : No

Read offset correction : 6
Overread into Lead-In and Lead-Out : No
Fill up missing offset samples with silence : Yes
Delete leading and trailing silent blocks : No
Null samples used in CRC calculations : Yes
Used interface : Native Win32 interface for Win NT & 2000
Gap handling : Appended to previous track

Used output format : User Defined Encoder
Selected bitrate : 128 kBit/s
Quality : High
Add ID3 tag : No
Command line compressor : C:\Program Files (x86)\Exact Audio Copy\Flac\flac.exe
Additional command line options : -8 -V -T "ARTIST=%a" -T "TITLE=%t" -T "ALBUM=%g" -T "DATE=%y" -T "TRACKNUMBER=%n" -T "GENRE=%m" -T "COMMENT=EAC FLAC -8" %s

TOC of the extracted CD

Track | Start | Length | Start sector | End sector
---------------------------------------------------------
1 | 0:00.00 | 3:25.22 | 0 | 15396
2 | 3:25.22 | 3:25.49 | 15397 | 30820
3 | 6:50.71 | 3:27.46 | 30821 | 46391
4 | 10:18.42 | 3:27.63 | 46392 | 61979
5 | 13:46.30 | 3:08.28 | 61980 | 76107
6 | 16:54.58 | 3:35.47 | 76108 | 92279
7 | 20:30.30 | 2:42.28 | 92280 | 104457
8 | 23:12.58 | 3:06.03 | 104458 | 118410
9 | 26:18.61 | 3:37.69 | 118411 | 134754
10 | 29:56.55 | 3:36.64 | 134755 | 151018
11 | 33:33.44 | 3:28.40 | 151019 | 166658
12 | 37:02.09 | 4:15.10 | 166659 | 185793
13 | 41:17.19 | 3:51.37 | 185794 | 203155
14 | 45:08.56 | 3:16.20 | 203156 | 217875
15 | 48:25.01 | 3:58.51 | 217876 | 235776
16 | 52:23.52 | 3:40.52 | 235777 | 252328
17 | 56:04.29 | 3:27.21 | 252329 | 267874
18 | 59:31.50 | 3:34.08 | 267875 | 283932
19 | 63:05.58 | 3:45.02 | 283933 | 300809
20 | 66:50.60 | 3:39.31 | 300810 | 317265
21 | 70:30.16 | 6:00.37 | 317266 | 344302

Track 1

Filename E:\Bounty Killer - Nah No Mercy [tapochek.net]\CD #2\01. Bounty Killer – Cellular Phone.wav

Pre-gap length 0:00:02.00

Peak level 99.9 %
Track quality 100.0 %
Test CRC 5B10DDB4
Copy CRC 5B10DDB4
Cannot be verified as accurate (confidence 1) [5852F816], AccurateRip returned [11BA6163]
Copy OK

Track 2

Filename E:\Bounty Killer - Nah No Mercy [tapochek.net]\CD #2\02. Bounty Killer – Intimate Woman.wav

Peak level 99.9 %
Track quality 100.0 %
Test CRC 790063A6
Copy CRC 790063A6
Cannot be verified as accurate (confidence 1) [1622A5BB], AccurateRip returned [1AC0C204]
Copy OK

Track 3

Filename E:\Bounty Killer - Nah No Mercy [tapochek.net]\CD #2\03. Bounty Killer – More Gal.wav

Peak level 99.9 %
Track quality 100.0 %
Test CRC C93B2358
Copy CRC C93B2358
Cannot be verified as accurate (confidence 1) [D27861FA], AccurateRip returned [19AAF401]
Copy OK

Track 4

Filename E:\Bounty Killer - Nah No Mercy [tapochek.net]\CD #2\04. Bounty Killer – Gal.wav

Peak level 99.9 %
Track quality 100.0 %
Test CRC 9E5BFF02
Copy CRC 9E5BFF02
Cannot be verified as accurate (confidence 1) [9444B7F6], AccurateRip returned [66F4405F]
Copy OK

Track 5

Filename E:\Bounty Killer - Nah No Mercy [tapochek.net]\CD #2\05. Bounty Killer – Benz And Bimma.wav

Peak level 99.9 %
Track quality 100.0 %
Test CRC D1F2C188
Copy CRC D1F2C188
Cannot be verified as accurate (confidence 1) [B62A8E86], AccurateRip returned [4F6B07F1]
Copy OK

Track 6

Filename E:\Bounty Killer - Nah No Mercy [tapochek.net]\CD #2\06. Bounty Killer – Living Dangerously.wav

Peak level 99.9 %
Track quality 100.0 %
Test CRC 385CD712
Copy CRC 385CD712
Cannot be verified as accurate (confidence 1) [D1E6759B], AccurateRip returned [3B3EC256]
Copy OK

Track 7

Filename E:\Bounty Killer - Nah No Mercy [tapochek.net]\CD #2\07. Bounty Killer – Worthless Bwoy.wav

Peak level 99.9 %
Track quality 99.9 %
Test CRC 5B94C59A
Copy CRC 5B94C59A
Cannot be verified as accurate (confidence 1) [BA022A97], AccurateRip returned [9FED3CC8]
Copy OK

Track 8

Filename E:\Bounty Killer - Nah No Mercy [tapochek.net]\CD #2\08. Bounty Killer – Arrow.wav

Peak level 99.8 %
Track quality 100.0 %
Test CRC 2FC1EC2D
Copy CRC 2FC1EC2D
Cannot be verified as accurate (confidence 1) [7A7CCBA1], AccurateRip returned [368C23FA]
Copy OK

Track 9

Filename E:\Bounty Killer - Nah No Mercy [tapochek.net]\CD #2\09. Bounty Killer – Stucky.wav

Peak level 97.5 %
Track quality 100.0 %
Test CRC 3863CDCE
Copy CRC 3863CDCE
Cannot be verified as accurate (confidence 1) [BEAC3FAB], AccurateRip returned [E87C6460]
Copy OK

Track 10

Filename E:\Bounty Killer - Nah No Mercy [tapochek.net]\CD #2\10. Bounty Killer – Fitnesss.wav

Peak level 93.8 %
Track quality 100.0 %
Test CRC EC6E8C42
Copy CRC EC6E8C42
Cannot be verified as accurate (confidence 1) [51C70554], AccurateRip returned [0068BB6F]
Copy OK

Track 11

Filename E:\Bounty Killer - Nah No Mercy [tapochek.net]\CD #2\11. Bounty Killer – Smoke Clear.wav

Peak level 93.8 %
Track quality 99.9 %
Test CRC F9FD7061
Copy CRC F9FD7061
Cannot be verified as accurate (confidence 1) [F9458C48], AccurateRip returned [EC354D6F]
Copy OK

Track 12

Filename E:\Bounty Killer - Nah No Mercy [tapochek.net]\CD #2\12. Bounty Killer – Warlord.wav

Peak level 99.9 %
Track quality 100.0 %
Test CRC 3C1B8A23
Copy CRC 3C1B8A23
Cannot be verified as accurate (confidence 1) [E75788D1], AccurateRip returned [2FB19809]
Copy OK

Track 13

Filename E:\Bounty Killer - Nah No Mercy [tapochek.net]\CD #2\13. Bounty Killer – Miss Ivy Last Son.wav

Peak level 86.2 %
Track quality 100.0 %
Test CRC A530943B
Copy CRC A530943B
Cannot be verified as accurate (confidence 1) [6AD0FB67], AccurateRip returned [D4885175]
Copy OK

Track 14

Filename E:\Bounty Killer - Nah No Mercy [tapochek.net]\CD #2\14. Bounty Killer – Bwoy Nuh Run.wav

Peak level 99.9 %
Track quality 100.0 %
Test CRC 0033D08E
Copy CRC 0033D08E
Cannot be verified as accurate (confidence 1) [31D49F2A], AccurateRip returned [D8B1206F]
Copy OK

Track 15

Filename E:\Bounty Killer - Nah No Mercy [tapochek.net]\CD #2\15. Bounty Killer – Not Another Word.wav

Peak level 99.8 %
Track quality 100.0 %
Test CRC 8958CC85
Copy CRC 8958CC85
Cannot be verified as accurate (confidence 1) [C344350B], AccurateRip returned [C21C6C75]
Copy OK

Track 16

Filename E:\Bounty Killer - Nah No Mercy [tapochek.net]\CD #2\16. Bounty Killer – Smoke The Hearb.wav

Peak level 99.8 %
Track quality 100.0 %
Test CRC 8E260DB7
Copy CRC 8E260DB7
Cannot be verified as accurate (confidence 1) [8E65DDDD], AccurateRip returned [CB487901]
Copy OK

Track 17

Filename E:\Bounty Killer - Nah No Mercy [tapochek.net]\CD #2\17. Bounty Killer – Down In The Ghetto.wav

Peak level 99.9 %
Track quality 100.0 %
Test CRC A1A2B15E
Copy CRC A1A2B15E
Cannot be verified as accurate (confidence 1) [B877E1A5], AccurateRip returned [35C9A145]
Copy OK

Track 18

Filename E:\Bounty Killer - Nah No Mercy [tapochek.net]\CD #2\18. Bounty Killer – Root Reality And Culture.wav

Peak level 99.9 %
Track quality 99.9 %
Test CRC B4D0E22B
Copy CRC B4D0E22B
Cannot be verified as accurate (confidence 1) [A14F4B52], AccurateRip returned [14DC949E]
Copy OK

Track 19

Filename E:\Bounty Killer - Nah No Mercy [tapochek.net]\CD #2\19. Bounty Killer – Seek God.wav

Peak level 98.0 %
Track quality 100.0 %
Test CRC 01272B65
Copy CRC 01272B65
Cannot be verified as accurate (confidence 1) [4911C527], AccurateRip returned [AE2EC454]
Copy OK

Track 20

Filename E:\Bounty Killer - Nah No Mercy [tapochek.net]\CD #2\20. Bounty Killer – The Lord Is My Light And My Salvation.wav

Peak level 99.9 %
Track quality 100.0 %
Test CRC 8FB6A0F3
Copy CRC 8FB6A0F3
Cannot be verified as accurate (confidence 1) [C90FB414], AccurateRip returned [EFA471E2]
Copy OK

Track 21

Filename E:\Bounty Killer - Nah No Mercy [tapochek.net]\CD #2\21. Bounty Killer – Addies Mega Death Mix.wav

Peak level 100.0 %
Track quality 100.0 %
Test CRC E2272523
Copy CRC E2272523
Cannot be verified as accurate (confidence 1) [ECEDD1FF], AccurateRip returned [5AA7F67E]
Copy OK

No tracks could be verified as accurate
You may have a different pressing from the one(s) in the database

No errors occurred

End of status report
REM GENRE Reggae 
REM DATE 2006
REM DISCID 1511EE15
REM COMMENT "ExactAudioCopy v0.99pb4"
PERFORMER "Bounty Killer"
TITLE "Nah No Mercy"
FILE "01. Bounty Killer – Cellular Phone.wav" WAVE
TRACK 01 AUDIO
TITLE "Cellular Phone"
PERFORMER "Bounty Killer"
INDEX 01 00:00:00
FILE "02. Bounty Killer – Intimate Woman.wav" WAVE
TRACK 02 AUDIO
TITLE "Intimate Woman"
PERFORMER "Bounty Killer"
INDEX 01 00:00:00
FILE "03. Bounty Killer – More Gal.wav" WAVE
TRACK 03 AUDIO
TITLE "More Gal"
PERFORMER "Bounty Killer"
INDEX 01 00:00:00
FILE "04. Bounty Killer – Gal.wav" WAVE
TRACK 04 AUDIO
TITLE "Gal"
PERFORMER "Bounty Killer"
INDEX 01 00:00:00
FILE "05. Bounty Killer – Benz And Bimma.wav" WAVE
TRACK 05 AUDIO
TITLE "Benz And Bimma"
PERFORMER "Bounty Killer"
INDEX 01 00:00:00
FILE "06. Bounty Killer – Living Dangerously.wav" WAVE
TRACK 06 AUDIO
TITLE "Living Dangerously"
PERFORMER "Bounty Killer"
INDEX 01 00:00:00
FILE "07. Bounty Killer – Worthless Bwoy.wav" WAVE
TRACK 07 AUDIO
TITLE "Worthless Bwoy"
PERFORMER "Bounty Killer"
INDEX 01 00:00:00
FILE "08. Bounty Killer – Arrow.wav" WAVE
TRACK 08 AUDIO
TITLE "Arrow"
PERFORMER "Bounty Killer"
INDEX 01 00:00:00
FILE "09. Bounty Killer – Stucky.wav" WAVE
TRACK 09 AUDIO
TITLE "Stucky"
PERFORMER "Bounty Killer"
INDEX 01 00:00:00
FILE "10. Bounty Killer – Fitnesss.wav" WAVE
TRACK 10 AUDIO
TITLE "Fitnesss"
PERFORMER "Bounty Killer"
INDEX 01 00:00:00
FILE "11. Bounty Killer – Smoke Clear.wav" WAVE
TRACK 11 AUDIO
TITLE "Smoke Clear"
PERFORMER "Bounty Killer"
INDEX 01 00:00:00
FILE "12. Bounty Killer – Warlord.wav" WAVE
TRACK 12 AUDIO
TITLE "Warlord"
PERFORMER "Bounty Killer"
INDEX 01 00:00:00
FILE "13. Bounty Killer – Miss Ivy Last Son.wav" WAVE
TRACK 13 AUDIO
TITLE "Miss Ivy Last Son"
PERFORMER "Bounty Killer"
INDEX 01 00:00:00
FILE "14. Bounty Killer – Bwoy Nuh Run.wav" WAVE
TRACK 14 AUDIO
TITLE "Bwoy Nuh Run"
PERFORMER "Bounty Killer"
INDEX 01 00:00:00
FILE "15. Bounty Killer – Not Another Word.wav" WAVE
TRACK 15 AUDIO
TITLE "Not Another Word"
PERFORMER "Bounty Killer"
INDEX 01 00:00:00
FILE "16. Bounty Killer – Smoke The Hearb.wav" WAVE
TRACK 16 AUDIO
TITLE "Smoke The Hearb"
PERFORMER "Bounty Killer"
INDEX 01 00:00:00
FILE "17. Bounty Killer – Down In The Ghetto.wav" WAVE
TRACK 17 AUDIO
TITLE "Down In The Ghetto"
PERFORMER "Bounty Killer"
INDEX 01 00:00:00
FILE "18. Bounty Killer – Root Reality And Culture.wav" WAVE
TRACK 18 AUDIO
TITLE "Root Reality And Culture"
PERFORMER "Bounty Killer"
INDEX 01 00:00:00
FILE "19. Bounty Killer – Seek God.wav" WAVE
TRACK 19 AUDIO
TITLE "Seek God"
PERFORMER "Bounty Killer"
INDEX 01 00:00:00
FILE "20. Bounty Killer – The Lord Is My Light And My Salvation.wav" WAVE
TRACK 20 AUDIO
TITLE "The Lord Is My Light And My Salvation"
PERFORMER "Bounty Killer"
INDEX 01 00:00:00
FILE "21. Bounty Killer – Addies Mega Death Mix.wav" WAVE
TRACK 21 AUDIO
TITLE "Addies Mega Death Mix"
PERFORMER "Bounty Killer"
INDEX 01 00:00:00
Item: "E:\Bounty Killer - Nah No Mercy [tapochek.net]\CD #2\01. Bounty Killer – Cellular Phone.flac" 
MD5: 1F0DAF880DFCED4EA3F401764565F3B3
CRC32: 5B10DDB4
No problems found.

Item: "E:\Bounty Killer - Nah No Mercy [tapochek.net]\CD #2\02. Bounty Killer – Intimate Woman.flac"
MD5: AF60B67F7701AC84088635D11CAA5AEB
CRC32: 790063A6
No problems found.

Item: "E:\Bounty Killer - Nah No Mercy [tapochek.net]\CD #2\03. Bounty Killer – More Gal.flac"
MD5: 19AE9035E41D27D16E20B72150C1E8A7
CRC32: C93B2358
No problems found.

Item: "E:\Bounty Killer - Nah No Mercy [tapochek.net]\CD #2\04. Bounty Killer – Gal.flac"
MD5: A9105D85BAEFD9EA8573BBDBD4635B14
CRC32: 9E5BFF02
No problems found.

Item: "E:\Bounty Killer - Nah No Mercy [tapochek.net]\CD #2\05. Bounty Killer – Benz And Bimma.flac"
MD5: 9BE67BD8137F15BF5018D90716D2E51F
CRC32: D1F2C188
No problems found.

Item: "E:\Bounty Killer - Nah No Mercy [tapochek.net]\CD #2\06. Bounty Killer – Living Dangerously.flac"
MD5: BA14FFD248C04F7AD92D63303CF94128
CRC32: 385CD712
No problems found.

Item: "E:\Bounty Killer - Nah No Mercy [tapochek.net]\CD #2\07. Bounty Killer – Worthless Bwoy.flac"
MD5: 018E58DE445DE519E137D5922B9C7D89
CRC32: 5B94C59A
No problems found.

Item: "E:\Bounty Killer - Nah No Mercy [tapochek.net]\CD #2\08. Bounty Killer – Arrow.flac"
MD5: E17273E07E44C00DCCF78EC74899C8AE
CRC32: 2FC1EC2D
No problems found.

Item: "E:\Bounty Killer - Nah No Mercy [tapochek.net]\CD #2\09. Bounty Killer – Stucky.flac"
MD5: D0B69352430F9A81F68870CCF0DB4EA8
CRC32: 3863CDCE
No problems found.

Item: "E:\Bounty Killer - Nah No Mercy [tapochek.net]\CD #2\10. Bounty Killer – Fitnesss.flac"
MD5: AC85EA867591EFD62BD187746620E4B9
CRC32: EC6E8C42
No problems found.

Item: "E:\Bounty Killer - Nah No Mercy [tapochek.net]\CD #2\11. Bounty Killer – Smoke Clear.flac"
MD5: 8C50CC589735C6E840D8D93BA7EF2322
CRC32: F9FD7061
No problems found.

Item: "E:\Bounty Killer - Nah No Mercy [tapochek.net]\CD #2\12. Bounty Killer – Warlord.flac"
MD5: 2182CFCC88F3AA4DD4AA9623DF39C84A
CRC32: 3C1B8A23
No problems found.

Item: "E:\Bounty Killer - Nah No Mercy [tapochek.net]\CD #2\13. Bounty Killer – Miss Ivy Last Son.flac"
MD5: 8740884BF555B30881B463CC3A78178E
CRC32: A530943B
No problems found.

Item: "E:\Bounty Killer - Nah No Mercy [tapochek.net]\CD #2\14. Bounty Killer – Bwoy Nuh Run.flac"
MD5: 524B8998F4FB340450E5E9611213CEDF
CRC32: 0033D08E
No problems found.

Item: "E:\Bounty Killer - Nah No Mercy [tapochek.net]\CD #2\15. Bounty Killer – Not Another Word.flac"
MD5: 1952391C7C7A4697EAB8217B116686EE
CRC32: 8958CC85
No problems found.

Item: "E:\Bounty Killer - Nah No Mercy [tapochek.net]\CD #2\16. Bounty Killer – Smoke The Hearb.flac"
MD5: 6B2A218EE04D52EE4D8D06822A4C836B
CRC32: 8E260DB7
No problems found.

Item: "E:\Bounty Killer - Nah No Mercy [tapochek.net]\CD #2\17. Bounty Killer – Down In The Ghetto.flac"
MD5: ADB2B421C367D8214D5DA2A9F85A4D4B
CRC32: A1A2B15E
No problems found.

Item: "E:\Bounty Killer - Nah No Mercy [tapochek.net]\CD #2\18. Bounty Killer – Root Reality And Culture.flac"
MD5: 1E864CF114ED847BDA55A94A12EC0F8A
CRC32: B4D0E22B
No problems found.

Item: "E:\Bounty Killer - Nah No Mercy [tapochek.net]\CD #2\19. Bounty Killer – Seek God.flac"
MD5: 7641644993BFED9D7A6FB2913DB51A59
CRC32: 01272B65
No problems found.

Item: "E:\Bounty Killer - Nah No Mercy [tapochek.net]\CD #2\20. Bounty Killer – The Lord Is My Light And My Salvation.flac"
MD5: B84E79982D80D03A30BCBED6FAEB3F0A
CRC32: 8FB6A0F3
No problems found.

Item: "E:\Bounty Killer - Nah No Mercy [tapochek.net]\CD #2\21. Bounty Killer – Addies Mega Death Mix.flac"
MD5: 985472B59E7A6F1AC3AC3670775FB419
CRC32: E2272523
No problems found.

All items decoded successfully.
info [Профиль]  [ЛС] 
Показать сообщения:    
Ответить на тему

Текущее время: 13-Май 16:31

Часовой пояс: GMT + 4



Вы не можете начинать темы
Вы не можете отвечать на сообщения
Вы не можете редактировать свои сообщения
Вы не можете удалять свои сообщения
Вы не можете голосовать в опросах
Вы не можете прикреплять файлы к сообщениям
Вы не можете скачивать файлы