Ошибка

(Hard Rock) Royal Republic - We Are The Royal - 2010, FLAC (tracks+.cue), lossless

Ответить на тему
 
Автор Сообщение

The Royal

Пол: Пол:Муж

Стаж: 10 лет

Сообщений: 673

Россия
Рейтинг

post 29-Май-2012 15:52 0[+]

[Цитировать] 

Royal Republic - We Are The Royal

pic="http://www.musicwaves.fr/Pics/Upload/Productions/RoyalRepublic_WeAreTheRoyal.jpg"
Жанр: Hard Rock
Год издания данного носителя: 2010
Страна-производитель носителя: Sweden
Аудио кодек: FLAC
Тип рипа: tracks+.cue
Битрейт аудио: lossless
Продолжительность: 00:35:02
Полиграфия: Отсутствует
Треклист:
01. The Royal (1:34)
02. President's Daughter (2:31)
03. Walking Down The Line (2:07)
04. All Because Of You (2:58)
05. Good To Be Bad (2:47)
06. Full Steam Spacemachine (3:28)
07. Cry Baby Cry (2:39)
08. Tommy-Gun (2:33)
09. I Must Be Out Of My Mind (2:01)
10. Underwear (2:02)
11. 21st Century Gentlemen (3:08)
12. The End (2:30)
13. Oioioi (4:46)
Exact Audio Copy V0.99 prebeta 4 from 23. January 2008 

EAC extraction logfile from 26. March 2010, 16:37

Royal Republic / We Are The Royal

Used drive : TSSTcorpCD/DVDW TS-H653L Adapter: 2 ID: 1

Read mode : Secure
Utilize accurate stream : Yes
Defeat audio cache : Yes
Make use of C2 pointers : No

Read offset correction : 6
Overread into Lead-In and Lead-Out : No
Fill up missing offset samples with silence : Yes
Delete leading and trailing silent blocks : No
Null samples used in CRC calculations : Yes
Used interface : Native Win32 interface for Win NT & 2000
Gap handling : Appended to previous track

Used output format : User Defined Encoder
Selected bitrate : 128 kBit/s
Quality : High
Add ID3 tag : No
Command line compressor : C:\Program Files\FLAC\flac.exe
Additional command line options : -V -8 -T "artist=%a" -T "title=%t" -T "album=%g" -T "date=%y" -T "tracknumber=%n" -T "genre=%m" %s

TOC of the extracted CD

Track | Start | Length | Start sector | End sector
---------------------------------------------------------
1 | 0:00.00 | 1:33.67 | 0 | 7041
2 | 1:33.67 | 2:30.45 | 7042 | 18336
3 | 4:04.37 | 2:07.19 | 18337 | 27880
4 | 6:11.56 | 2:57.40 | 27881 | 41195
5 | 9:09.21 | 2:46.61 | 41196 | 53706
6 | 11:56.07 | 3:28.10 | 53707 | 69316
7 | 15:24.17 | 2:38.44 | 69317 | 81210
8 | 18:02.61 | 2:33.21 | 81211 | 92706
9 | 20:36.07 | 2:00.47 | 92707 | 101753
10 | 22:36.54 | 2:01.54 | 101754 | 110882
11 | 24:38.33 | 3:07.43 | 110883 | 124950
12 | 27:46.01 | 2:30.21 | 124951 | 136221
13 | 30:16.22 | 4:46.13 | 136222 | 157684

Track 1

Filename C:\Music\Royal Republic - 2010 - We Are The Royal\01 - The Royal.wav

Pre-gap length 0:00:02.00

Peak level 98.8 %
Track quality 100.0 %
Test CRC 3F32215A
Copy CRC 3F32215A
Track not present in AccurateRip database
Copy OK

Track 2

Filename C:\Music\Royal Republic - 2010 - We Are The Royal\02 - President's Daughter.wav

Peak level 98.8 %
Track quality 100.0 %
Test CRC 2C490DC0
Copy CRC 2C490DC0
Track not present in AccurateRip database
Copy OK

Track 3

Filename C:\Music\Royal Republic - 2010 - We Are The Royal\03 - Walking Down The Line.wav

Pre-gap length 0:00:01.50

Peak level 98.8 %
Track quality 100.0 %
Test CRC 6DDF8818
Copy CRC 6DDF8818
Track not present in AccurateRip database
Copy OK

Track 4

Filename C:\Music\Royal Republic - 2010 - We Are The Royal\04 - All Because Of You.wav

Pre-gap length 0:00:01.44

Peak level 98.8 %
Track quality 100.0 %
Test CRC 15871454
Copy CRC 15871454
Track not present in AccurateRip database
Copy OK

Track 5

Filename C:\Music\Royal Republic - 2010 - We Are The Royal\05 - Good To Be Bad.wav

Pre-gap length 0:00:00.81

Peak level 98.8 %
Track quality 100.0 %
Test CRC 7D89D21E
Copy CRC 7D89D21E
Track not present in AccurateRip database
Copy OK

Track 6

Filename C:\Music\Royal Republic - 2010 - We Are The Royal\06 - Full Steam Spacemachine.wav

Pre-gap length 0:00:01.32

Peak level 98.8 %
Track quality 100.0 %
Test CRC 9BF5B927
Copy CRC 9BF5B927
Track not present in AccurateRip database
Copy OK

Track 7

Filename C:\Music\Royal Republic - 2010 - We Are The Royal\07 - Cry Baby Cry.wav

Pre-gap length 0:00:01.42

Peak level 98.8 %
Track quality 100.0 %
Test CRC 149982B2
Copy CRC 149982B2
Track not present in AccurateRip database
Copy OK

Track 8

Filename C:\Music\Royal Republic - 2010 - We Are The Royal\08 - Tommy-Gun.wav

Pre-gap length 0:00:01.01

Peak level 98.8 %
Track quality 100.0 %
Test CRC 09E15516
Copy CRC 09E15516
Track not present in AccurateRip database
Copy OK

Track 9

Filename C:\Music\Royal Republic - 2010 - We Are The Royal\09 - I Must Be Out Of My Mind.wav

Peak level 98.8 %
Track quality 100.0 %
Test CRC BA37FB19
Copy CRC BA37FB19
Track not present in AccurateRip database
Copy OK

Track 10

Filename C:\Music\Royal Republic - 2010 - We Are The Royal\10 - Underwear.wav

Pre-gap length 0:00:00.98

Peak level 98.8 %
Track quality 100.0 %
Test CRC 9BF1499E
Copy CRC 9BF1499E
Track not present in AccurateRip database
Copy OK

Track 11

Filename C:\Music\Royal Republic - 2010 - We Are The Royal\11 - 21st Century Gentlemen.wav

Pre-gap length 0:00:01.90

Peak level 98.8 %
Track quality 100.0 %
Test CRC 49257E72
Copy CRC 49257E72
Track not present in AccurateRip database
Copy OK

Track 12

Filename C:\Music\Royal Republic - 2010 - We Are The Royal\12 - The End.wav

Pre-gap length 0:00:01.52

Peak level 98.8 %
Track quality 100.0 %
Test CRC 88F41BE5
Copy CRC 88F41BE5
Track not present in AccurateRip database
Copy OK

Track 13

Filename C:\Music\Royal Republic - 2010 - We Are The Royal\13 - Oioioi.wav

Pre-gap length 0:00:01.64

Peak level 98.8 %
Track quality 100.0 %
Test CRC 88878EF4
Copy CRC 88878EF4
Track not present in AccurateRip database
Copy OK

None of the tracks are present in the AccurateRip database

No errors occurred

End of status report
REM GENRE Rock 
REM DATE 2010
REM DISCID B508360D
REM COMMENT "ExactAudioCopy v0.99pb4"
FILE "01 - The Royal.flac" WAVE
TRACK 01 AUDIO
INDEX 01 00:00:00
FILE "02 - President's Daughter.flac" WAVE
TRACK 02 AUDIO
INDEX 01 00:00:00
FILE "03 - Walking Down The Line.flac" WAVE
TRACK 03 AUDIO
INDEX 01 00:00:00
FILE "04 - All Because Of You.flac" WAVE
TRACK 04 AUDIO
INDEX 01 00:00:00
FILE "05 - Good To Be Bad.flac" WAVE
TRACK 05 AUDIO
INDEX 01 00:00:00
FILE "06 - Full Steam Spacemachine.flac" WAVE
TRACK 06 AUDIO
INDEX 01 00:00:00
FILE "07 - Cry Baby Cry.flac" WAVE
TRACK 07 AUDIO
INDEX 01 00:00:00
FILE "08 - Tommy-Gun.flac" WAVE
TRACK 08 AUDIO
INDEX 01 00:00:00
FILE "09 - I Must Be Out Of My Mind.flac" WAVE
TRACK 09 AUDIO
INDEX 01 00:00:00
FILE "10 - Underwear.flac" WAVE
TRACK 10 AUDIO
INDEX 01 00:00:00
FILE "11 - 21st Century Gentlemen.flac" WAVE
TRACK 11 AUDIO
INDEX 01 00:00:00
FILE "12 - The End.flac" WAVE
TRACK 12 AUDIO
INDEX 01 00:00:00
FILE "13 - Oioioi.flac" WAVE
TRACK 13 AUDIO
INDEX 01 00:00:00
info [Профиль]  [ЛС] 

The Royal

Пол: Пол:Муж

Стаж: 10 лет

Сообщений: 673

Россия
Рейтинг

post 29-Май-2012 15:53 (спустя 1 минута) [-]0[+]

[Цитировать] 

                     
info [Профиль]  [ЛС] 

Weo

Пол: Пол:Муж

Стаж: 9 лет

Сообщений: 173

Россия
Рейтинг

post 29-Май-2012 18:56 (спустя 3 часа) [-]1[+]

[Цитировать] 

ГАН ТОМИ!
info [Профиль]  [ЛС] 
Показать сообщения:    
Ответить на тему

Текущее время: 12-Июл 23:20

Часовой пояс: GMT + 4



Вы не можете начинать темы
Вы не можете отвечать на сообщения
Вы не можете редактировать свои сообщения
Вы не можете удалять свои сообщения
Вы не можете голосовать в опросах
Вы не можете прикреплять файлы к сообщениям
Вы не можете скачивать файлы