Ошибка

(Hip-Hop) Belly - Sleepless Nights 1.5, 2012, FLAC (tracks + .cue), lossless

Ответить на тему
 
Автор Сообщение

Raxent

Пол: Пол:Муж

Стаж: 12 лет

Сообщений: 219

Рейтинг

post 15-Апр-2012 00:16 0[+]

[Цитировать] 

Dope D.O.D. - Branded

Год: April 10, 2012
Жанр: Hip-Hop
Страна: Canada
Аудиокодек: FLAC
Тип рипа: tracks + .cue
Битрейт: lossless
Продолжительность: 00:38:30
Источник: what.cd (sasafrass)
Трэклист:
01. I Want It All 2:51
02. I Don't Smoke (Feat. Snoop Dogg) 3:47
03. Back Against The Wall (Feat. Kobe) 3:12
04. Num8ers 3:52
05. Celebrate 3:28
06. Marijuana Thoughts 3:10
07. Hartwin Cole (Feat. Faber Drive) 3:13
08. Purple Drugs 4:11
09. To The Top (Feat. Ava) 3:15
10. Dreamville 3:12
11. Hot Girl (Feat. Snoop Dogg) (Bonus Track) 4:14


Код:

Exact Audio Copy V1.0 beta 3 from 29. August 2011

EAC extraction logfile from 24. April 2012, 21:31

Belly / Sleepless Nights 1.5

Used drive  : TSSTcorpCDDVDW TS-H653G   Adapter: 0  ID: 0

Read mode               : Secure
Utilize accurate stream : Yes
Defeat audio cache      : Yes
Make use of C2 pointers : No

Read offset correction                      : 6
Overread into Lead-In and Lead-Out          : No
Fill up missing offset samples with silence : Yes
Delete leading and trailing silent blocks   : No
Null samples used in CRC calculations       : Yes
Used interface                              : Native Win32 interface for Win NT & 2000
Gap handling                                : Appended to previous track

Used output format              : User Defined Encoder
Selected bitrate                : 1024 kBit/s
Quality                         : High
Add ID3 tag                     : No
Command line compressor         : D:\Program Files (x86)\FLAC\flac.exe
Additional command line options : -8 -V -T "ARTIST=%artist%" -T "TITLE=%title%" -T "ALBUM=%albumtitle%" -T "DATE=%year%" -T "TRACKNUMBER=%tracknr%" -T "GENRE=%genre%" -T "PERFORMER=%albuminterpret%" -T "COMPOSER=%composer%" %haslyrics%--tag-from-file=LYRICS="%lyricsfile%"%haslyrics% -T "ALBUMARTIST=%albumartist%" -T "DISCNUMBER=%cdnumber%" -T "TOTALDISCS=%totalcds%" -T "TOTALTRACKS=%numtracks%" -T "COMMENT=%comment%" %source% -o %dest%

TOC of the extracted CD

     Track |   Start  |  Length  | Start sector | End sector
    ---------------------------------------------------------
        1  |  0:00.00 |  2:51.04 |         0    |    12828
        2  |  2:51.04 |  3:47.66 |     12829    |    29919
        3  |  6:38.70 |  3:12.11 |     29920    |    44330
        4  |  9:51.06 |  3:52.01 |     44331    |    61731
        5  | 13:43.07 |  3:28.48 |     61732    |    77379
        6  | 17:11.55 |  3:10.56 |     77380    |    91685
        7  | 20:22.36 |  3:13.30 |     91686    |   106190
        8  | 23:35.66 |  4:11.21 |    106191    |   125036
        9  | 27:47.12 |  3:15.41 |    125037    |   139702
       10  | 31:02.53 |  3:12.56 |    139703    |   154158
       11  | 34:15.34 |  4:14.32 |    154159    |   173240

Track  1

     Filename D:\EAC Rips\Belly - Sleepless Nights 1.5 (2012)\Belly - Sleepless Nights 1.5 (2012) [FLAC]\01 - I Want it All.wav

     Pre-gap length  0:00:02.00

     Peak level 99.9 %
     Extraction speed 4.0 X
     Track quality 100.0 %
     Test CRC D8C6E6F9
     Copy CRC D8C6E6F9
     Track not present in AccurateRip database
     Copy OK

Track  2

     Filename D:\EAC Rips\Belly - Sleepless Nights 1.5 (2012)\Belly - Sleepless Nights 1.5 (2012) [FLAC]\02 - I Drink I Smoke.wav

     Peak level 99.9 %
     Extraction speed 4.5 X
     Track quality 100.0 %
     Test CRC 8D518878
     Copy CRC 8D518878
     Track not present in AccurateRip database
     Copy OK

Track  3

     Filename D:\EAC Rips\Belly - Sleepless Nights 1.5 (2012)\Belly - Sleepless Nights 1.5 (2012) [FLAC]\03 - Back Against The Wall.wav

     Peak level 99.9 %
     Extraction speed 4.8 X
     Track quality 100.0 %
     Test CRC 55942D90
     Copy CRC 55942D90
     Track not present in AccurateRip database
     Copy OK

Track  4

     Filename D:\EAC Rips\Belly - Sleepless Nights 1.5 (2012)\Belly - Sleepless Nights 1.5 (2012) [FLAC]\04 - Num8ers.wav

     Peak level 99.9 %
     Extraction speed 5.3 X
     Track quality 100.0 %
     Test CRC 19F006FE
     Copy CRC 19F006FE
     Track not present in AccurateRip database
     Copy OK

Track  5

     Filename D:\EAC Rips\Belly - Sleepless Nights 1.5 (2012)\Belly - Sleepless Nights 1.5 (2012) [FLAC]\05 - Celebrate.wav

     Peak level 99.9 %
     Extraction speed 5.5 X
     Track quality 100.0 %
     Test CRC 48D3BCD2
     Copy CRC 48D3BCD2
     Track not present in AccurateRip database
     Copy OK

Track  6

     Filename D:\EAC Rips\Belly - Sleepless Nights 1.5 (2012)\Belly - Sleepless Nights 1.5 (2012) [FLAC]\06 - Marijuana Thoughts.wav

     Peak level 99.9 %
     Extraction speed 5.7 X
     Track quality 100.0 %
     Test CRC 23ADE557
     Copy CRC 23ADE557
     Track not present in AccurateRip database
     Copy OK

Track  7

     Filename D:\EAC Rips\Belly - Sleepless Nights 1.5 (2012)\Belly - Sleepless Nights 1.5 (2012) [FLAC]\07 - Hartwin Cole.wav

     Peak level 99.9 %
     Extraction speed 6.0 X
     Track quality 100.0 %
     Test CRC 50F997BE
     Copy CRC 50F997BE
     Track not present in AccurateRip database
     Copy OK

Track  8

     Filename D:\EAC Rips\Belly - Sleepless Nights 1.5 (2012)\Belly - Sleepless Nights 1.5 (2012) [FLAC]\08 - Purple Drugs.wav

     Peak level 99.9 %
     Extraction speed 6.6 X
     Track quality 100.0 %
     Test CRC 5E4E9A0C
     Copy CRC 5E4E9A0C
     Track not present in AccurateRip database
     Copy OK

Track  9

     Filename D:\EAC Rips\Belly - Sleepless Nights 1.5 (2012)\Belly - Sleepless Nights 1.5 (2012) [FLAC]\09 - To The Top.wav

     Peak level 99.9 %
     Extraction speed 3.1 X
     Track quality 99.9 %
     Test CRC 822AB273
     Copy CRC 822AB273
     Track not present in AccurateRip database
     Copy OK

Track 10

     Filename D:\EAC Rips\Belly - Sleepless Nights 1.5 (2012)\Belly - Sleepless Nights 1.5 (2012) [FLAC]\10 - Dreamville.wav

     Peak level 99.9 %
     Extraction speed 6.7 X
     Track quality 100.0 %
     Test CRC 3D05B3F9
     Copy CRC 3D05B3F9
     Track not present in AccurateRip database
     Copy OK

Track 11

     Filename D:\EAC Rips\Belly - Sleepless Nights 1.5 (2012)\Belly - Sleepless Nights 1.5 (2012) [FLAC]\11 - Hot Girl.wav

     Peak level 100.0 %
     Extraction speed 7.2 X
     Track quality 100.0 %
     Test CRC F4061CF0
     Copy CRC F4061CF0
     Track not present in AccurateRip database
     Copy OK

None of the tracks are present in the AccurateRip database

No errors occurred

End of status report

---- CUETools DB Plugin V2.1.3

[CTDB TOCID: nRuXqBmRwCbt70LaePKNso6bXJg-] disk not present in database, Submit result: nRuXqBmRwCbt70LaePKNso6bXJg- has been uploaded

==== Log checksum 68E8C2D5A1DAF65F052232A7C18F605E2DE12EB553AA9851CA2D052632F9DC19 ====

Код:

REM GENRE Hip-Hop
REM DATE 2012
REM DISCID 8509050B
REM COMMENT "ExactAudioCopy v1.0b3"
PERFORMER "Belly"
TITLE "Sleepless Nights 1.5"
FILE "01 - I Want it All.wav" WAVE
  TRACK 01 AUDIO
    TITLE "I Want it All"
    PERFORMER "Belly"
    ISRC CACA61100019
    INDEX 01 00:00:00
FILE "02 - I Drink I Smoke.wav" WAVE
  TRACK 02 AUDIO
    TITLE "I Drink I Smoke"
    PERFORMER "Belly"
    ISRC CACA61100037
    INDEX 01 00:00:00
FILE "03 - Back Against The Wall.wav" WAVE
  TRACK 03 AUDIO
    TITLE "Back Against The Wall"
    PERFORMER "Belly"
    ISRC CACA61000116
    INDEX 01 00:00:00
FILE "04 - Num8ers.wav" WAVE
  TRACK 04 AUDIO
    TITLE "Num8ers"
    PERFORMER "Belly"
    ISRC CACA61000116
    INDEX 01 00:00:00
FILE "05 - Celebrate.wav" WAVE
  TRACK 05 AUDIO
    TITLE "Celebrate"
    PERFORMER "Belly"
    ISRC CACA61100022
    INDEX 01 00:00:00
FILE "06 - Marijuana Thoughts.wav" WAVE
  TRACK 06 AUDIO
    TITLE "Marijuana Thoughts"
    PERFORMER "Belly"
    ISRC CACA61100023
    INDEX 01 00:00:00
FILE "07 - Hartwin Cole.wav" WAVE
  TRACK 07 AUDIO
    TITLE "Hartwin Cole"
    PERFORMER "Belly"
    ISRC CACA61200003
    INDEX 01 00:00:00
FILE "08 - Purple Drugs.wav" WAVE
  TRACK 08 AUDIO
    TITLE "Purple Drugs"
    PERFORMER "Belly"
    ISRC CACA61100067
    INDEX 01 00:00:00
FILE "09 - To The Top.wav" WAVE
  TRACK 09 AUDIO
    TITLE "To The Top"
    PERFORMER "Belly"
    ISRC CACA61000020
    INDEX 01 00:00:00
FILE "10 - Dreamville.wav" WAVE
  TRACK 10 AUDIO
    TITLE "Dreamville"
    PERFORMER "Belly"
    ISRC CACA61100024
    INDEX 01 00:00:00
FILE "11 - Hot Girl.wav" WAVE
  TRACK 11 AUDIO
    TITLE "Hot Girl"
    PERFORMER "Belly"
    ISRC CACA60900029
    INDEX 01 00:00:00



info [Профиль]  [ЛС] 

Raxent

Пол: Пол:Муж

Стаж: 12 лет

Сообщений: 219

Рейтинг

post 08-Май-2012 09:06 (спустя 23 дня) [-]0[+]

[Цитировать] 

(Hip-Hop) Belly - Sleepless Nights 1.5, 2012, MP3 (tracks), 320 kbps
info [Профиль]  [ЛС] 

post 08-Май-2012 09:06 (спустя 18 секунд) [-]0[+]

Топик был перенесен из форума Оформление раздач в форум Зарубежный Rap, Hip-Hop, R'n'B (lossless)

saGambit
 
Показать сообщения:    
Ответить на тему

Текущее время: 05-Июл 02:00

Часовой пояс: GMT + 4



Вы не можете начинать темы
Вы не можете отвечать на сообщения
Вы не можете редактировать свои сообщения
Вы не можете удалять свои сообщения
Вы не можете голосовать в опросах
Вы не можете прикреплять файлы к сообщениям
Вы не можете скачивать файлы