Ошибка

(Electronic, Breakbeat, Big Beat) The Chemical Brothers - Don't Think [Live] - 2012, FLAC (tracks+.cue), lossless

Ответить на тему
 
Автор Сообщение

kossmos

Пол: Пол:Муж

Стаж: 12 лет

Сообщений: 269

Украина
Рейтинг

post 29-Мар-2012 05:49 0[+]

[Цитировать] 

The Chemical Brothers - Don't Think [Live]


pic="http://i35.fastpic.ru/big/2012/0328/36/143d801bec95700bd523a7afaf10b936.png"


Жанр: Electronic, Breakbeat, Big Beat
Год издания данного носителя: 2012
Лейбл: EMI
Аудио кодек: FLAC
Тип рипа: tracks+.cue
Битрейт аудио: lossless
Продолжительность: 01:18:57
Источник (релизер): What.CD (Actionist)
Полиграфия: Отсутствует

Треклист:
01. Another World / Do It Again / Get Yourself High (7:22)
02. Horse Power / Chemical Beats (9:50)
03. Swoon / Star Guitar (10:59)
04. Three Little Birdies Down Beats / Hey Boy Hey Girl (5:34)
05. Don't Think / Out Of Control / Setting Sun (10:12)
06. Saturate (7:38)
07. Believe (5:34)
08. Escape Velocity / The Golden Path (8:34)
09. Superflash (6:02)
10. Leave Home / Galvanize (2:18)
11. Block Rockin' Beats (4:51)
X Lossless Decoder version 20120226 (139.1) 

XLD extraction logfile from 2012-03-27 21:21:29 -0600

The Chemical Brothers / Don't Think

Used drive : HL-DT-ST DVDRW GSA-S10N (revision AP09)

Ripper mode : XLD Secure Ripper
Disable audio cache : OK for the drive with a cache less than 1375KiB
Make use of C2 pointers : NO
Read offset correction : 667
Max retry count : 100
Gap status : Analyzed, Appended

TOC of the extracted CD
Track | Start | Length | Start sector | End sector
---------------------------------------------------------
1 | 00:00:00 | 07:21:73 | 0 | 33147
2 | 07:21:73 | 09:50:13 | 33148 | 77410
3 | 17:12:11 | 10:59:10 | 77411 | 126845
4 | 28:11:21 | 05:34:07 | 126846 | 151902
5 | 33:45:28 | 10:12:01 | 151903 | 197803
6 | 43:57:29 | 07:38:12 | 197804 | 232165
7 | 51:35:41 | 05:34:58 | 232166 | 257273
8 | 57:10:24 | 08:34:49 | 257274 | 295872
9 | 65:44:73 | 06:02:55 | 295873 | 323077
10 | 71:47:53 | 02:18:44 | 323078 | 333471
11 | 74:06:22 | 04:51:34 | 333472 | 355330

AccurateRip Summary
Disc not found in AccurateRip DB.

All Tracks
Album gain : -10.07 dB
Peak : 1.000000
Statistics
Read error : 0
Jitter error (maybe fixed) : 0
Retry sector count : 0
Damaged sector count : 0

Track 01
Filename : ~/Music/GLORIOUS FLAC/The Chemical Brothers/(2012) Don't Think/01 Another World Ъ Do It Again Ъ Get Yourself High.flac
Pre-gap length : 00:02:00

Track gain : -9.73 dB
Peak : 1.000000
CRC32 hash (test run) : 43D6C62F
CRC32 hash : 43D6C62F
CRC32 hash (skip zero) : CFB7E5F8
AccurateRip signature : 5F677C77
->Track not present in AccurateRip database.
Statistics
Read error : 0
Jitter error (maybe fixed) : 0
Retry sector count : 0
Damaged sector count : 0

Track 02
Filename : ~/Music/GLORIOUS FLAC/The Chemical Brothers/(2012) Don't Think/02 Horse Power Ъ Chemical Beats.flac

Track gain : -9.72 dB
Peak : 1.000000
CRC32 hash (test run) : 4FA407E9
CRC32 hash : 4FA407E9
CRC32 hash (skip zero) : 441FE9E6
AccurateRip signature : E7B03B62
->Track not present in AccurateRip database.
Statistics
Read error : 0
Jitter error (maybe fixed) : 0
Retry sector count : 0
Damaged sector count : 0

Track 03
Filename : ~/Music/GLORIOUS FLAC/The Chemical Brothers/(2012) Don't Think/03 Swoon Ъ Star Guitar.flac

Track gain : -10.00 dB
Peak : 1.000000
CRC32 hash (test run) : 59AE0E34
CRC32 hash : 59AE0E34
CRC32 hash (skip zero) : 313E0597
AccurateRip signature : C94D1E97
->Track not present in AccurateRip database.
Statistics
Read error : 0
Jitter error (maybe fixed) : 0
Retry sector count : 0
Damaged sector count : 0

Track 04
Filename : ~/Music/GLORIOUS FLAC/The Chemical Brothers/(2012) Don't Think/04 Three Little Birdies Down Beats Ъ Hey Boy Hey Girl.flac

Track gain : -10.21 dB
Peak : 1.000000
CRC32 hash (test run) : AA81F661
CRC32 hash : AA81F661
CRC32 hash (skip zero) : C22C2330
AccurateRip signature : 685DBD98
->Track not present in AccurateRip database.
Statistics
Read error : 0
Jitter error (maybe fixed) : 0
Retry sector count : 0
Damaged sector count : 0

Track 05
Filename : ~/Music/GLORIOUS FLAC/The Chemical Brothers/(2012) Don't Think/05 Don't Think / Out of Control Ъ Setting Sun.flac

Track gain : -10.39 dB
Peak : 1.000000
CRC32 hash (test run) : 4A394119
CRC32 hash : 4A394119
CRC32 hash (skip zero) : 8AF68FE0
AccurateRip signature : EFC452FB
->Track not present in AccurateRip database.
Statistics
Read error : 0
Jitter error (maybe fixed) : 0
Retry sector count : 0
Damaged sector count : 0

Track 06
Filename : ~/Music/GLORIOUS FLAC/The Chemical Brothers/(2012) Don't Think/06 Saturate.flac

Track gain : -10.34 dB
Peak : 1.000000
CRC32 hash (test run) : 637EB167
CRC32 hash : 637EB167
CRC32 hash (skip zero) : 5C56DCC4
AccurateRip signature : 5FD82468
->Track not present in AccurateRip database.
Statistics
Read error : 0
Jitter error (maybe fixed) : 0
Retry sector count : 0
Damaged sector count : 0

Track 07
Filename : ~/Music/GLORIOUS FLAC/The Chemical Brothers/(2012) Don't Think/07 Believe.flac

Track gain : -10.01 dB
Peak : 1.000000
CRC32 hash (test run) : 2E334E28
CRC32 hash : 2E334E28
CRC32 hash (skip zero) : 709393F5
AccurateRip signature : 4107E6D0
->Track not present in AccurateRip database.
Statistics
Read error : 0
Jitter error (maybe fixed) : 0
Retry sector count : 0
Damaged sector count : 0

Track 08
Filename : ~/Music/GLORIOUS FLAC/The Chemical Brothers/(2012) Don't Think/08 Escape Velocity Ъ The Golden Path.flac

Track gain : -10.17 dB
Peak : 1.000000
CRC32 hash (test run) : 97BB4510
CRC32 hash : 97BB4510
CRC32 hash (skip zero) : 464ED4A9
AccurateRip signature : 985C9042
->Track not present in AccurateRip database.
Statistics
Read error : 0
Jitter error (maybe fixed) : 0
Retry sector count : 0
Damaged sector count : 0

Track 09
Filename : ~/Music/GLORIOUS FLAC/The Chemical Brothers/(2012) Don't Think/09 Superflash.flac

Track gain : -9.66 dB
Peak : 1.000000
CRC32 hash (test run) : 23823AF7
CRC32 hash : 23823AF7
CRC32 hash (skip zero) : 251AEB28
AccurateRip signature : FBE601B3
->Track not present in AccurateRip database.
Statistics
Read error : 0
Jitter error (maybe fixed) : 0
Retry sector count : 0
Damaged sector count : 0

Track 10
Filename : ~/Music/GLORIOUS FLAC/The Chemical Brothers/(2012) Don't Think/10 Leave Home Ъ Galvanize.flac

Track gain : -9.87 dB
Peak : 1.000000
CRC32 hash (test run) : 8E3ACE7A
CRC32 hash : 8E3ACE7A
CRC32 hash (skip zero) : A0D3E0A5
AccurateRip signature : D80522E3
->Track not present in AccurateRip database.
Statistics
Read error : 0
Jitter error (maybe fixed) : 0
Retry sector count : 0
Damaged sector count : 0

Track 11
Filename : ~/Music/GLORIOUS FLAC/The Chemical Brothers/(2012) Don't Think/11 Block Rockin' Beats.flac

Track gain : -10.36 dB
Peak : 1.000000
CRC32 hash (test run) : B5FEE2B2
CRC32 hash : B5FEE2B2
CRC32 hash (skip zero) : 3A2E3DF0
AccurateRip signature : 99450FA5
->Track not present in AccurateRip database.
Statistics
Read error : 0
Jitter error (maybe fixed) : 0
Retry sector count : 0
Damaged sector count : 0

No errors occurred

End of status report
TITLE "Don't Think" 
PERFORMER "The Chemical Brothers"
CATALOG 5099960277725
REM GENRE "Electronic"
REM DATE "2012"
REM DISCID A012810B
REM REPLAYGAIN_ALBUM_GAIN -10.07 dB
REM REPLAYGAIN_ALBUM_PEAK 1.000000
FILE "01 Another World Ъ Do It Again Ъ Get Yourself High.flac" WAVE
TRACK 01 AUDIO
TITLE "Another World / Do It Again / Get Yourself High"
ISRC GBAAA1100789
REM REPLAYGAIN_TRACK_GAIN -9.73 dB
REM REPLAYGAIN_TRACK_PEAK 1.000000
INDEX 01 00:00:00
FILE "02 Horse Power Ъ Chemical Beats.flac" WAVE
TRACK 02 AUDIO
TITLE "Horse Power / Chemical Beats"
ISRC GBAAA1100793
REM REPLAYGAIN_TRACK_GAIN -9.72 dB
REM REPLAYGAIN_TRACK_PEAK 1.000000
INDEX 01 00:00:00
FILE "03 Swoon Ъ Star Guitar.flac" WAVE
TRACK 03 AUDIO
TITLE "Swoon / Star Guitar"
ISRC GBAAA1100795
REM REPLAYGAIN_TRACK_GAIN -10.00 dB
REM REPLAYGAIN_TRACK_PEAK 1.000000
INDEX 01 00:00:00
FILE "04 Three Little Birdies Down Beats Ъ Hey Boy Hey Girl.flac" WAVE
TRACK 04 AUDIO
TITLE "Three Little Birdies Down Beats / Hey Boy Hey Girl"
ISRC GBAAA1100797
REM REPLAYGAIN_TRACK_GAIN -10.21 dB
REM REPLAYGAIN_TRACK_PEAK 1.000000
INDEX 01 00:00:00
FILE "05 Don't Think Ъ Out of Control Ъ Setting Sun.flac" WAVE
TRACK 05 AUDIO
TITLE "Don't Think / Out of Control / Setting Sun"
ISRC GBAAA1100799
REM REPLAYGAIN_TRACK_GAIN -10.39 dB
REM REPLAYGAIN_TRACK_PEAK 1.000000
INDEX 01 00:00:00
FILE "06 Saturate.flac" WAVE
TRACK 06 AUDIO
TITLE "Saturate"
ISRC GBAAA1100803
REM REPLAYGAIN_TRACK_GAIN -10.34 dB
REM REPLAYGAIN_TRACK_PEAK 1.000000
INDEX 01 00:00:00
FILE "07 Believe.flac" WAVE
TRACK 07 AUDIO
TITLE "Believe"
ISRC GBAAA1100804
REM REPLAYGAIN_TRACK_GAIN -10.01 dB
REM REPLAYGAIN_TRACK_PEAK 1.000000
INDEX 01 00:00:00
FILE "08 Escape Velocity Ъ The Golden Path.flac" WAVE
TRACK 08 AUDIO
TITLE "Escape Velocity / The Golden Path"
ISRC GBAAA1100805
REM REPLAYGAIN_TRACK_GAIN -10.17 dB
REM REPLAYGAIN_TRACK_PEAK 1.000000
INDEX 01 00:00:00
FILE "09 Superflash.flac" WAVE
TRACK 09 AUDIO
TITLE "Superflash"
ISRC GBAAA1100806
REM REPLAYGAIN_TRACK_GAIN -9.66 dB
REM REPLAYGAIN_TRACK_PEAK 1.000000
INDEX 01 00:00:00
FILE "10 Leave Home Ъ Galvanize.flac" WAVE
TRACK 10 AUDIO
TITLE "Leave Home / Galvanize"
ISRC GBAAA1100807
REM REPLAYGAIN_TRACK_GAIN -9.87 dB
REM REPLAYGAIN_TRACK_PEAK 1.000000
INDEX 01 00:00:00
FILE "11 Block Rockin' Beats.flac" WAVE
TRACK 11 AUDIO
TITLE "Block Rockin' Beats"
ISRC GBAAA1100808
REM REPLAYGAIN_TRACK_GAIN -10.36 dB
REM REPLAYGAIN_TRACK_PEAK 1.000000
INDEX 01 00:00:00
info [Профиль]  [ЛС] 

kislotnyk

Пол: Пол:Муж

Стаж: 12 лет

Сообщений: 90

Украина
Рейтинг

post 29-Мар-2012 16:55 (спустя 11 часов) [-]0[+]

[Цитировать] 

Этот диск идет вроде в комплекте с DVD\blu-ray.
Не предвидится в ближайшее время релизы этих видео-дисков?
info [Профиль]  [ЛС] 

kossmos

Пол: Пол:Муж

Стаж: 12 лет

Сообщений: 269

Украина
Рейтинг

post 30-Мар-2012 04:25 (спустя 11 часов) [-]0[+]

[Цитировать] 

kislotnyk писал(а):

Этот диск идет вроде в комплекте с DVD\blu-ray.
Не предвидится в ближайшее время релизы этих видео-дисков?
уже есть Blu-ray на рутрекере.

_________________
info [Профиль]  [ЛС] 

kislotnyk

Пол: Пол:Муж

Стаж: 12 лет

Сообщений: 90

Украина
Рейтинг

post 30-Мар-2012 10:17 (спустя 5 часов) [-]0[+]

[Цитировать] 

kossmos писал(а):

kislotnyk писал(а):

Этот диск идет вроде в комплекте с DVD\blu-ray.
Не предвидится в ближайшее время релизы этих видео-дисков?
уже есть Blu-ray на рутрекере.
Оу ши! Вот это я завтыкал.
Спасибо за наводку
info [Профиль]  [ЛС] 

Resistance

Пол: Пол:Муж

Стаж: 12 лет

Сообщений: 3640

Россия
Рейтинг

post 30-Мар-2012 10:38 (спустя 20 минут) [-]0[+]

[Цитировать] 

Уже и здесь есть - http://tapochek.net/viewforum.php?f=522
info [Профиль]  [ЛС] 
Показать сообщения:    
Ответить на тему

Текущее время: 16-Май 20:06

Часовой пояс: GMT + 4



Вы не можете начинать темы
Вы не можете отвечать на сообщения
Вы не можете редактировать свои сообщения
Вы не можете удалять свои сообщения
Вы не можете голосовать в опросах
Вы не можете прикреплять файлы к сообщениям
Вы не можете скачивать файлы