Ошибка

(Rock) Pink Floyd – The Wall (Immersion Box Set) - 2012, FLAC (tracks+.cue), lossless

Ответить на тему
 
Автор Сообщение

Resistance

Пол: Пол:Муж

Стаж: 10 лет

Сообщений: 3640

Россия
Рейтинг

post 07-Мар-2012 11:38 1[+]

[Цитировать] 

Pink Floyd – The Wall (Immersion Box Set)


pic="http://i27.fastpic.ru/big/2012/0226/a9/8e3f8cf123dbc027a9ebc37be247cfa9.jpg"


Жанр: Rock
Год издания данного носителя: 2012
Страна-производитель носителя: UK
Лейбл: EMI
Каталоговый номер: 5099902943923
Аудио кодек: FLAC
Тип рипа: tracks+.cue
Битрейт аудио: lossless
Продолжительность: 05:15:22
Полиграфия: Отсутствует
CD 1
01. In The Flesh? (3:20)
02. The Thin Ice (2:27)
03. Another Brick In The Wall, Part 1 (3:12)
04. The Happiest Days Of Our Lives (1:51)
05. Another Brick In The Wall, Part 2 (3:59)
06. Mother (5:35)
07. Goodbye Blue Sky (2:47)
08. Empty Spaces (2:08)
09. Young Lust (3:30)
10. One Of My Turns (3:37)
11. Don't Leave Me Now (4:16)
12. Another Brick In The Wall, Part 3 (1:14)
13. Goodbye Cruel World (1:17)
CD 2
01. Hey You (4:40)
02. Is There Anybody Out There? (2:42)
03. Nobody Home (3:23)
04. Vera (1:33)
05. Bring The Boys Back Home (1:27)
06. Comfortably Numb (6:22)
07. The Show Must Go On (1:37)
08. In The Flesh! (4:16)
09. Run Like Hell (4:24)
10. Waiting For The Worms (3:57)
11. Stop (0:31)
12. The Trial (5:19)
13. Outside The Wall (1:46)
CD 3
01. Master of Ceremonies (1:14)
02. In the Flesh? (3:00)
03. The Thin Ice (2:49)
04. Another Brick in the Wall, Pt. 1 (4:09)
05. The Happiest Days of Our Lives (1:45)
06. Another Brick in the Wall, Pt. 2 (6:19)
07. Mother (7:55)
08. Goodbye Blue Sky (3:14)
09. Empty Spaces (2:16)
10. What Shall We Do Now? (1:39)
11. Young Lust (5:19)
12. One of My Turns (3:42)
13. Don't Leave Me Now (4:01)
14. Another Brick in the Wall, Pt. 3 (1:21)
15. The Last Few Bricks (3:26)
16. Goodbye Cruel World (1:42)
CD 4
01. Hey You (4:56)
02. Is There Anybody Out There? (3:09)
03. Nobody Home (3:17)
04. Vera (1:23)
05. Bring The Boys Back Home (1:25)
06. Comfortably Numb (7:25)
07. The Show Must Go On (2:35)
08. Mc; Atmos (0:38)
09. In The Flesh (4:22)
10. Run Like Hell (7:04)
11. Waiting For The Worms (4:14)
12. Stop (0:30)
13. The Trial (6:03)
14. Outside The Wall (4:32)
CD 5
01.Prelude (Vera Lynn) - Roger Waters Original Demo (0:24)
02.Another Brick In The Wall, Part 2 - Roger Waters Original Demo (1:04)
03.Mother - Roger Waters Original Demo (0:23)
04.Young Lust - Roger Waters Original Demo (0:14)
05.Another Brick In The Wall, Part 2 - Roger Waters Original Demo (0:19)
06.Empty Spaces - Roger Waters Original Demo (0:19)
07.Mother - Roger Waters Original Demo (0:08)
08.Backs To The Wall - Roger Waters Original Demo (0:36)
09.Don't Leave Me Now - Roger Waters Original Demo (0:28)
10.Goodbye Blue Sky - Roger Waters Original Demo (0:40)
11.Don't Leave Me Now - Roger Waters Original Demo (0:13)
12.Another Brick In The Wall, Part 3 - Roger Waters Original Demo (0:38)
13.Goodbye Cruel World - Roger Waters Original Demo (0:25)
14.Hey You - Roger Waters Original Demo (1:09)
15.Is There Anybody Out There - Roger Waters Original Demo (1:23)
16.Vera - Roger Waters Original Demo (0:28)
17.Bring The Boys Back Home - Roger Waters Original Demo (0:38)
18.The Show Must Go On - Roger Waters Original Demo (0:52)
19.Waiting For The Worms - Roger Waters Original Demo (1:17)
20.Run Like Hell - Roger Waters Original Demo (0:51)
21.The Trial - Roger Waters Original Demo (0:35)
22.Outside The Wall - Roger Waters Original Demo (1:04)
23.Prelude (Vera Lynn) - Roger Waters Original Demo (0:56)
24.Another Brick In The Wall, Part 1 - Band Demo (4:49)
25.The Thin Ice - Band Demo (3:32)
26.Goodbye Blue Sky - Band Demo (2:23)
27.Teacher, Teacher - Band Demo (2:50)
28.Another Brick In The Wall, Part 2 - Band Demo (1:31)
29.Empty Spaces - Band Demo (1:53)
30.Young Lust - Band Demo (4:27)
31.Mother - Band Demo (4:39)
32.Don't Leave Me Now - Band Demo (4:35)
33.Sexual Revolution - Band Demo (5:00)
34.Another Brick In The Wall, Part 3 - Band Demo (1:26)
35.Goodbye Cruel World - Band Demo (1:13)
36.In The Flesh - Band Demo (3:25)
37.The Thin Ice - Band Demo (2:36)
38.Another Brick In The Wall, Part 1 - Band Demo (3:42)
39.The Happiest Days Of Your Lives - Band Demo (1:44)
40.Another Brick In The Wall, Part 2 - Band Demo (1:57)
41.Mother - Band Demo (4:37)
CD 6
01.Is There Anybody Out There (Roger Waters Original Demo) (1:53)
02.Vera (Roger Waters Original Demo) (2:19)
03.Bring The Boys Back Home (Roger Waters Original Demo) (0:43)
04.Hey You (Band Demo) (4:07)
05.The Doctor (Comfortably Numb - Band Demo) (3:15)
06.In The Flesh (Band Demo) (4:35)
07.Run Like Hell (Band Demo) (3:08)
08.Waiting For The Worms (Band Demo) (3:54)
09.The Trail (Band Demo) (4:06)
10.The Show Must Go On (Band Demo) (2:07)
11.Outside The Wall (Band Demo) (1:19)
12.The Thin Ice (reprise - Band Demo) (1:32)
13.Outside The Wall (Band Demo) (1:53)
14.It's Never Too Late (Band Demo) (1:32)
15.The Doctor (Comfortably Numb - Band Demo) (3:20)
16.One Of My Turns (Band Demo) (2:30)
17.Don't Leave Me Now (Band Demo) (4:05)
18.Empty Spaces (Band Demo) (0:51)
19.Backs To The Wall (Band Demo) (1:33)
20.Another Brick In The Wall, Part 3 (Band Demo) (1:23)
21.Goodbye Cruel World (Band Demo) (1:06)
22.Comfortably Numb (David Gilmour Original Demo) (3:15)
23.Run Like Hell (David Gilmour Original Demo) (3:03)
Exact Audio Copy V1.0 beta 3 from 29. August 2011 

EAC extraction logfile from 25. February 2012, 17:46

Pink Floyd / The Wall (Immersion) (CD 1)

Used drive : TSSTcorpDVD+-RW TS-L633A Adapter: 2 ID: 0

Read mode : Secure
Utilize accurate stream : Yes
Defeat audio cache : Yes
Make use of C2 pointers : No

Read offset correction : 6
Overread into Lead-In and Lead-Out : No
Fill up missing offset samples with silence : Yes
Delete leading and trailing silent blocks : No
Null samples used in CRC calculations : Yes
Used interface : Native Win32 interface for Win NT & 2000
Gap handling : Appended to previous track

Used output format : User Defined Encoder
Selected bitrate : 1024 kBit/s
Quality : High
Add ID3 tag : No
Command line compressor : C:\Program Files\Exact Audio Copy\FLAC\FLAC.EXE
Additional command line options : -8 -V -T "ARTIST=%artist%" -T "TITLE=%title%" -T "ALBUM=%albumtitle%" -T "DATE=%year%" -T "TRACKNUMBER=%tracknr%" -T "GENRE=%genre%" -T "PERFORMER=%albuminterpret%" -T "COMPOSER=%composer%" %haslyrics%--tag-from-file=LYRICS="%lyricsfile%"%haslyrics% -T "ALBUMARTIST=%albumartist%" -T "DISCNUMBER=%cdnumber%" -T "TOTALDISCS=%totalcds%" -T "TOTALTRACKS=%numtracks%" -T "COMMENT=%comment%" %source% -o %dest%

TOC of the extracted CD

Track | Start | Length | Start sector | End sector
---------------------------------------------------------
1 | 0:00.00 | 3:20.30 | 0 | 15029
2 | 3:20.30 | 2:26.52 | 15030 | 26031
3 | 5:47.07 | 3:11.56 | 26032 | 40412
4 | 8:58.63 | 1:50.63 | 40413 | 48725
5 | 10:49.51 | 3:58.67 | 48726 | 66642
6 | 14:48.43 | 5:34.55 | 66643 | 91747
7 | 20:23.23 | 2:47.26 | 91748 | 104298
8 | 23:10.49 | 2:07.54 | 104299 | 113877
9 | 25:18.28 | 3:29.73 | 113878 | 129625
10 | 28:48.26 | 3:36.60 | 129626 | 145885
11 | 32:25.11 | 4:15.70 | 145886 | 165080
12 | 36:41.06 | 1:14.30 | 165081 | 170660
13 | 37:55.36 | 1:17.29 | 170661 | 176464

Track 1

Filename E:\eacrips\Pink Floyd - 2012 - The Wall (Immersion)\Disc 1\01 In The Flesh.wav

Pre-gap length 0:00:02.00

Peak level 100.0 %
Extraction speed 2.2 X
Track quality 100.0 %
Test CRC 118D85B7
Copy CRC 118D85B7
Accurately ripped (confidence 14) [6ECBB718] (AR v2)
Copy OK

Track 2

Filename E:\eacrips\Pink Floyd - 2012 - The Wall (Immersion)\Disc 1\02 The Thin Ice.wav

Peak level 100.0 %
Extraction speed 1.8 X
Track quality 99.9 %
Test CRC F75EFD4E
Copy CRC F75EFD4E
Accurately ripped (confidence 14) [0B9CC31C] (AR v2)
Copy OK

Track 3

Filename E:\eacrips\Pink Floyd - 2012 - The Wall (Immersion)\Disc 1\03 Another Brick In The Wall, Part 1.wav

Peak level 100.0 %
Extraction speed 2.6 X
Track quality 100.0 %
Test CRC 945DDD12
Copy CRC 945DDD12
Accurately ripped (confidence 14) [03739E5C] (AR v2)
Copy OK

Track 4

Filename E:\eacrips\Pink Floyd - 2012 - The Wall (Immersion)\Disc 1\04 The Happiest Days Of Our Lives.wav

Peak level 100.0 %
Extraction speed 2.3 X
Track quality 100.0 %
Test CRC ECE1E4E2
Copy CRC ECE1E4E2
Accurately ripped (confidence 14) [7BF67BB1] (AR v2)
Copy OK

Track 5

Filename E:\eacrips\Pink Floyd - 2012 - The Wall (Immersion)\Disc 1\05 Another Brick In The Wall, Part 2.wav

Peak level 100.0 %
Extraction speed 2.9 X
Track quality 100.0 %
Test CRC 89FDD380
Copy CRC 89FDD380
Accurately ripped (confidence 14) [FF9E4CF7] (AR v2)
Copy OK

Track 6

Filename E:\eacrips\Pink Floyd - 2012 - The Wall (Immersion)\Disc 1\06 Mother.wav

Peak level 100.0 %
Extraction speed 3.3 X
Track quality 100.0 %
Test CRC 3DD683B6
Copy CRC 3DD683B6
Accurately ripped (confidence 14) [CA83C527] (AR v2)
Copy OK

Track 7

Filename E:\eacrips\Pink Floyd - 2012 - The Wall (Immersion)\Disc 1\07 Goodbye Blue Sky.wav

Peak level 67.1 %
Extraction speed 3.0 X
Track quality 100.0 %
Test CRC 6E6C2356
Copy CRC 6E6C2356
Accurately ripped (confidence 14) [8A10FD02] (AR v2)
Copy OK

Track 8

Filename E:\eacrips\Pink Floyd - 2012 - The Wall (Immersion)\Disc 1\08 Empty Spaces.wav

Peak level 67.6 %
Extraction speed 2.8 X
Track quality 100.0 %
Test CRC 73B0BF05
Copy CRC 73B0BF05
Accurately ripped (confidence 14) [4A74E824] (AR v2)
Copy OK

Track 9

Filename E:\eacrips\Pink Floyd - 2012 - The Wall (Immersion)\Disc 1\09 Young Lust.wav

Peak level 100.0 %
Extraction speed 3.3 X
Track quality 100.0 %
Test CRC 78CEC6B5
Copy CRC 78CEC6B5
Accurately ripped (confidence 14) [4F5075F3] (AR v2)
Copy OK

Track 10

Filename E:\eacrips\Pink Floyd - 2012 - The Wall (Immersion)\Disc 1\10 One Of My Turns.wav

Peak level 100.0 %
Extraction speed 2.9 X
Track quality 99.9 %
Test CRC A6303DDA
Copy CRC A6303DDA
Accurately ripped (confidence 14) [A20CB2E8] (AR v2)
Copy OK

Track 11

Filename E:\eacrips\Pink Floyd - 2012 - The Wall (Immersion)\Disc 1\11 Don't Leave Now.wav

Peak level 100.0 %
Extraction speed 3.1 X
Track quality 99.9 %
Test CRC 62E9CF7B
Copy CRC 62E9CF7B
Accurately ripped (confidence 14) [BC0815CE] (AR v2)
Copy OK

Track 12

Filename E:\eacrips\Pink Floyd - 2012 - The Wall (Immersion)\Disc 1\12 Another Brick In The Wall, Part 3.wav

Peak level 100.0 %
Extraction speed 2.7 X
Track quality 100.0 %
Test CRC 8A7FF30E
Copy CRC 8A7FF30E
Accurately ripped (confidence 14) [A6B10E2C] (AR v2)
Copy OK

Track 13

Filename E:\eacrips\Pink Floyd - 2012 - The Wall (Immersion)\Disc 1\13 Goodbye Cruel World.wav

Peak level 33.0 %
Extraction speed 1.9 X
Track quality 99.8 %
Test CRC 981D1CBF
Copy CRC 981D1CBF
Accurately ripped (confidence 14) [7D8F6EED] (AR v2)
Copy OK

All tracks accurately ripped

No errors occurred

End of status report

==== Log checksum 97308E7A0A015EDBD5008BC95EB3F33BE33A499894B4B81225F58FEAA3F1AF93 ====
Exact Audio Copy V1.0 beta 3 from 29. August 2011 

EAC extraction logfile from 25. February 2012, 21:21

Pink Floyd / The Wall (Immersion) (CD 2)

Used drive : TSSTcorpDVD+-RW TS-L633A Adapter: 2 ID: 0

Read mode : Secure
Utilize accurate stream : Yes
Defeat audio cache : Yes
Make use of C2 pointers : No

Read offset correction : 6
Overread into Lead-In and Lead-Out : No
Fill up missing offset samples with silence : Yes
Delete leading and trailing silent blocks : No
Null samples used in CRC calculations : Yes
Used interface : Native Win32 interface for Win NT & 2000
Gap handling : Appended to previous track

Used output format : User Defined Encoder
Selected bitrate : 1024 kBit/s
Quality : High
Add ID3 tag : No
Command line compressor : C:\Program Files\Exact Audio Copy\FLAC\FLAC.EXE
Additional command line options : -8 -V -T "ARTIST=%artist%" -T "TITLE=%title%" -T "ALBUM=%albumtitle%" -T "DATE=%year%" -T "TRACKNUMBER=%tracknr%" -T "GENRE=%genre%" -T "PERFORMER=%albuminterpret%" -T "COMPOSER=%composer%" %haslyrics%--tag-from-file=LYRICS="%lyricsfile%"%haslyrics% -T "ALBUMARTIST=%albumartist%" -T "DISCNUMBER=%cdnumber%" -T "TOTALDISCS=%totalcds%" -T "TOTALTRACKS=%numtracks%" -T "COMMENT=%comment%" %source% -o %dest%

TOC of the extracted CD

Track | Start | Length | Start sector | End sector
---------------------------------------------------------
1 | 0:00.00 | 4:40.33 | 0 | 21032
2 | 4:40.33 | 2:41.68 | 21033 | 33175
3 | 7:22.26 | 3:22.67 | 33176 | 48392
4 | 10:45.18 | 1:33.26 | 48393 | 55393
5 | 12:18.44 | 1:27.14 | 55394 | 61932
6 | 13:45.58 | 6:22.24 | 61933 | 90606
7 | 20:08.07 | 1:36.40 | 90607 | 97846
8 | 21:44.47 | 4:15.50 | 97847 | 117021
9 | 26:00.22 | 4:23.42 | 117022 | 136788
10 | 30:23.64 | 3:57.04 | 136789 | 154567
11 | 34:20.68 | 0:30.60 | 154568 | 156877
12 | 34:51.53 | 5:18.47 | 156878 | 180774
13 | 40:10.25 | 1:46.04 | 180775 | 188728

Track 1

Filename E:\eacrips\Pink Floyd - 2012 - The Wall (Immersion)\Disc 2\01 Hey You.wav

Pre-gap length 0:00:02.00

Peak level 100.0 %
Extraction speed 2.4 X
Track quality 100.0 %
Test CRC 6F21E306
Copy CRC 6F21E306
Accurately ripped (confidence 13) [2CB2FE81] (AR v2)
Copy OK

Track 2

Filename E:\eacrips\Pink Floyd - 2012 - The Wall (Immersion)\Disc 2\02 Is There Anybody Out There.wav

Peak level 86.3 %
Extraction speed 2.4 X
Track quality 100.0 %
Test CRC E18145E9
Copy CRC E18145E9
Accurately ripped (confidence 12) [B57C11F6] (AR v2)
Copy OK

Track 3

Filename E:\eacrips\Pink Floyd - 2012 - The Wall (Immersion)\Disc 2\03 Nobody Home.wav

Peak level 72.0 %
Extraction speed 2.6 X
Track quality 100.0 %
Test CRC 9DE6DFD5
Copy CRC 9DE6DFD5
Accurately ripped (confidence 12) [8DE891B3] (AR v2)
Copy OK

Track 4

Filename E:\eacrips\Pink Floyd - 2012 - The Wall (Immersion)\Disc 2\04 Vera.wav

Peak level 63.6 %
Extraction speed 2.2 X
Track quality 100.0 %
Test CRC AC750FA8
Copy CRC AC750FA8
Accurately ripped (confidence 12) [958CEF71] (AR v2)
Copy OK

Track 5

Filename E:\eacrips\Pink Floyd - 2012 - The Wall (Immersion)\Disc 2\05 Bring The Boys Back Home.wav

Peak level 84.7 %
Extraction speed 2.2 X
Track quality 100.0 %
Test CRC 24336B07
Copy CRC 24336B07
Accurately ripped (confidence 12) [3B17D1E7] (AR v2)
Copy OK

Track 6

Filename E:\eacrips\Pink Floyd - 2012 - The Wall (Immersion)\Disc 2\06 Comfortably Numb.wav

Peak level 100.0 %
Extraction speed 3.3 X
Track quality 100.0 %
Test CRC 65EDB110
Copy CRC 65EDB110
Accurately ripped (confidence 12) [CAA128AF] (AR v2)
Copy OK

Track 7

Filename E:\eacrips\Pink Floyd - 2012 - The Wall (Immersion)\Disc 2\07 The Show Must Go On.wav

Peak level 93.0 %
Extraction speed 2.5 X
Track quality 100.0 %
Test CRC B9DD5840
Copy CRC B9DD5840
Accurately ripped (confidence 12) [6D29E686] (AR v2)
Copy OK

Track 8

Filename E:\eacrips\Pink Floyd - 2012 - The Wall (Immersion)\Disc 2\08 In The Flesh!.wav

Peak level 100.0 %
Extraction speed 3.5 X
Track quality 100.0 %
Test CRC 66DF84C2
Copy CRC 66DF84C2
Accurately ripped (confidence 12) [5B50A4BD] (AR v2)
Copy OK

Track 9

Filename E:\eacrips\Pink Floyd - 2012 - The Wall (Immersion)\Disc 2\09 Run Like Hell.wav

Peak level 100.0 %
Extraction speed 3.6 X
Track quality 100.0 %
Test CRC C318FAE9
Copy CRC C318FAE9
Accurately ripped (confidence 12) [9AD59380] (AR v2)
Copy OK

Track 10

Filename E:\eacrips\Pink Floyd - 2012 - The Wall (Immersion)\Disc 2\10 Waiting For The Worms.wav

Peak level 100.0 %
Extraction speed 3.0 X
Track quality 99.9 %
Test CRC DE6EB33B
Copy CRC DE6EB33B
Accurately ripped (confidence 12) [2DE45329] (AR v2)
Copy OK

Track 11

Filename E:\eacrips\Pink Floyd - 2012 - The Wall (Immersion)\Disc 2\11 Stop.wav

Peak level 44.2 %
Extraction speed 1.6 X
Track quality 100.0 %
Test CRC EAC7F8F8
Copy CRC EAC7F8F8
Accurately ripped (confidence 12) [C7FCEE15] (AR v2)
Copy OK

Track 12

Filename E:\eacrips\Pink Floyd - 2012 - The Wall (Immersion)\Disc 2\12 The Trial.wav

Peak level 100.0 %
Extraction speed 4.0 X
Track quality 100.0 %
Test CRC 848A9A69
Copy CRC 848A9A69
Accurately ripped (confidence 12) [5D610218] (AR v2)
Copy OK

Track 13

Filename E:\eacrips\Pink Floyd - 2012 - The Wall (Immersion)\Disc 2\13 Outside The Wall.wav

Peak level 17.9 %
Extraction speed 3.2 X
Track quality 100.0 %
Test CRC 9D7996BB
Copy CRC 9D7996BB
Accurately ripped (confidence 13) [53F6D80B] (AR v2)
Copy OK

All tracks accurately ripped

No errors occurred

End of status report

==== Log checksum FC7BD738B532609BB13C8CCD0BAD81F7E66DA9EB1DCDFB9B46B33AFC40B56E8A ====
Exact Audio Copy V1.0 beta 3 from 29. August 2011 

EAC extraction logfile from 25. February 2012, 22:12

Pink Floyd / The Wall (Immersion) (CD3)

Used drive : TSSTcorpDVD+-RW TS-L633A Adapter: 2 ID: 0

Read mode : Secure
Utilize accurate stream : Yes
Defeat audio cache : Yes
Make use of C2 pointers : No

Read offset correction : 6
Overread into Lead-In and Lead-Out : No
Fill up missing offset samples with silence : Yes
Delete leading and trailing silent blocks : No
Null samples used in CRC calculations : Yes
Used interface : Native Win32 interface for Win NT & 2000
Gap handling : Appended to previous track

Used output format : User Defined Encoder
Selected bitrate : 1024 kBit/s
Quality : High
Add ID3 tag : No
Command line compressor : C:\Program Files\Exact Audio Copy\FLAC\FLAC.EXE
Additional command line options : -8 -V -T "ARTIST=%artist%" -T "TITLE=%title%" -T "ALBUM=%albumtitle%" -T "DATE=%year%" -T "TRACKNUMBER=%tracknr%" -T "GENRE=%genre%" -T "PERFORMER=%albuminterpret%" -T "COMPOSER=%composer%" %haslyrics%--tag-from-file=LYRICS="%lyricsfile%"%haslyrics% -T "ALBUMARTIST=%albumartist%" -T "DISCNUMBER=%cdnumber%" -T "TOTALDISCS=%totalcds%" -T "TOTALTRACKS=%numtracks%" -T "COMMENT=%comment%" %source% -o %dest%

TOC of the extracted CD

Track | Start | Length | Start sector | End sector
---------------------------------------------------------
1 | 0:00.00 | 1:14.22 | 0 | 5571
2 | 1:14.22 | 2:59.53 | 5572 | 19049
3 | 4:14.00 | 2:49.33 | 19050 | 31757
4 | 7:03.33 | 4:08.41 | 31758 | 50398
5 | 11:11.74 | 1:44.50 | 50399 | 58248
6 | 12:56.49 | 6:18.47 | 58249 | 86645
7 | 19:15.21 | 7:54.67 | 86646 | 122262
8 | 27:10.13 | 3:14.26 | 122263 | 136838
9 | 30:24.39 | 2:15.41 | 136839 | 147004
10 | 32:40.05 | 1:38.53 | 147005 | 154407
11 | 34:18.58 | 5:18.48 | 154408 | 178305
12 | 39:37.31 | 3:41.59 | 178306 | 194939
13 | 43:19.15 | 4:01.32 | 194940 | 213046
14 | 47:20.47 | 1:20.70 | 213047 | 219116
15 | 48:41.42 | 3:25.39 | 219117 | 234530
16 | 52:07.06 | 1:42.15 | 234531 | 242195

Track 1

Filename E:\eacrips\Pink Floyd - 2012 - The Wall (Immersion)\Disc 3\01 Master of Ceremonies.wav

Pre-gap length 0:00:02.00

Peak level 33.3 %
Extraction speed 1.6 X
Track quality 100.0 %
Test CRC 50F1F452
Copy CRC 50F1F452
Track not present in AccurateRip database
Copy OK

Track 2

Filename E:\eacrips\Pink Floyd - 2012 - The Wall (Immersion)\Disc 3\02 In the Flesh.wav

Peak level 100.0 %
Extraction speed 2.2 X
Track quality 100.0 %
Test CRC 52197120
Copy CRC 52197120
Track not present in AccurateRip database
Copy OK

Track 3

Filename E:\eacrips\Pink Floyd - 2012 - The Wall (Immersion)\Disc 3\03 The Thin Ice.wav

Peak level 100.0 %
Extraction speed 2.4 X
Track quality 100.0 %
Test CRC C2D05AA5
Copy CRC C2D05AA5
Track not present in AccurateRip database
Copy OK

Track 4

Filename E:\eacrips\Pink Floyd - 2012 - The Wall (Immersion)\Disc 3\04 Another Brick in the Wall, Pt. 1.wav

Peak level 75.5 %
Extraction speed 2.7 X
Track quality 100.0 %
Test CRC F0BD0429
Copy CRC F0BD0429
Track not present in AccurateRip database
Copy OK

Track 5

Filename E:\eacrips\Pink Floyd - 2012 - The Wall (Immersion)\Disc 3\05 The Happiest Days of Our Lives.wav

Peak level 99.8 %
Extraction speed 2.4 X
Track quality 100.0 %
Test CRC 4D88F914
Copy CRC 4D88F914
Track not present in AccurateRip database
Copy OK

Track 6

Filename E:\eacrips\Pink Floyd - 2012 - The Wall (Immersion)\Disc 3\06 Another Brick in the Wall, Pt. 2.wav

Peak level 100.0 %
Extraction speed 3.2 X
Track quality 100.0 %
Test CRC 1054DD9D
Copy CRC 1054DD9D
Track not present in AccurateRip database
Copy OK

Track 7

Filename E:\eacrips\Pink Floyd - 2012 - The Wall (Immersion)\Disc 3\07 Mother.wav

Peak level 100.0 %
Extraction speed 3.8 X
Track quality 100.0 %
Test CRC 04130D3A
Copy CRC 04130D3A
Track not present in AccurateRip database
Copy OK

Track 8

Filename E:\eacrips\Pink Floyd - 2012 - The Wall (Immersion)\Disc 3\08 Goodbye Blue Sky.wav

Peak level 88.3 %
Extraction speed 3.5 X
Track quality 100.0 %
Test CRC 4F651AF8
Copy CRC 4F651AF8
Track not present in AccurateRip database
Copy OK

Track 9

Filename E:\eacrips\Pink Floyd - 2012 - The Wall (Immersion)\Disc 3\09 Empty Spaces.wav

Peak level 64.3 %
Extraction speed 3.3 X
Track quality 100.0 %
Test CRC EB41E0A7
Copy CRC EB41E0A7
Track not present in AccurateRip database
Copy OK

Track 10

Filename E:\eacrips\Pink Floyd - 2012 - The Wall (Immersion)\Disc 3\10 What Shall We Do Now.wav

Peak level 100.0 %
Extraction speed 2.9 X
Track quality 100.0 %
Test CRC D44B6BC6
Copy CRC D44B6BC6
Track not present in AccurateRip database
Copy OK

Track 11

Filename E:\eacrips\Pink Floyd - 2012 - The Wall (Immersion)\Disc 3\11 Young Lust.wav

Peak level 100.0 %
Extraction speed 4.0 X
Track quality 100.0 %
Test CRC 2C087260
Copy CRC 2C087260
Track not present in AccurateRip database
Copy OK

Track 12

Filename E:\eacrips\Pink Floyd - 2012 - The Wall (Immersion)\Disc 3\12 One of My Turns.wav

Peak level 100.0 %
Extraction speed 3.1 X
Track quality 99.9 %
Test CRC 0466C3B5
Copy CRC 0466C3B5
Track not present in AccurateRip database
Copy OK

Track 13

Filename E:\eacrips\Pink Floyd - 2012 - The Wall (Immersion)\Disc 3\13 Don't Leave Me Now.wav

Peak level 100.0 %
Extraction speed 4.2 X
Track quality 100.0 %
Test CRC 23F7BDBF
Copy CRC 23F7BDBF
Track not present in AccurateRip database
Copy OK

Track 14

Filename E:\eacrips\Pink Floyd - 2012 - The Wall (Immersion)\Disc 3\14 Another Brick in the Wall, Pt. 3.wav

Peak level 100.0 %
Extraction speed 3.0 X
Track quality 100.0 %
Test CRC A170EF9B
Copy CRC A170EF9B
Track not present in AccurateRip database
Copy OK

Track 15

Filename E:\eacrips\Pink Floyd - 2012 - The Wall (Immersion)\Disc 3\15 The Last Few Bricks.wav

Peak level 100.0 %
Extraction speed 3.3 X
Track quality 99.9 %
Test CRC B53487C7
Copy CRC B53487C7
Track not present in AccurateRip database
Copy OK

Track 16

Filename E:\eacrips\Pink Floyd - 2012 - The Wall (Immersion)\Disc 3\16 Goodbye Cruel World.wav

Peak level 58.8 %
Extraction speed 3.3 X
Track quality 100.0 %
Test CRC 17094EBE
Copy CRC 17094EBE
Track not present in AccurateRip database
Copy OK

None of the tracks are present in the AccurateRip database

No errors occurred

End of status report

==== Log checksum 68CF495A798E7DC3F64D9F6541B83332263C628872B763DDE36B4A0116105013 ====
Exact Audio Copy V1.0 beta 3 from 29. August 2011 

EAC extraction logfile from 25. February 2012, 23:00

Pink Floyd / The Wall (Immersion) (CD4)

Used drive : TSSTcorpDVD+-RW TS-L633A Adapter: 2 ID: 0

Read mode : Secure
Utilize accurate stream : Yes
Defeat audio cache : Yes
Make use of C2 pointers : No

Read offset correction : 6
Overread into Lead-In and Lead-Out : No
Fill up missing offset samples with silence : Yes
Delete leading and trailing silent blocks : No
Null samples used in CRC calculations : Yes
Used interface : Native Win32 interface for Win NT & 2000
Gap handling : Appended to previous track

Used output format : User Defined Encoder
Selected bitrate : 1024 kBit/s
Quality : High
Add ID3 tag : No
Command line compressor : C:\Program Files\Exact Audio Copy\FLAC\FLAC.EXE
Additional command line options : -8 -V -T "ARTIST=%artist%" -T "TITLE=%title%" -T "ALBUM=%albumtitle%" -T "DATE=%year%" -T "TRACKNUMBER=%tracknr%" -T "GENRE=%genre%" -T "PERFORMER=%albuminterpret%" -T "COMPOSER=%composer%" %haslyrics%--tag-from-file=LYRICS="%lyricsfile%"%haslyrics% -T "ALBUMARTIST=%albumartist%" -T "DISCNUMBER=%cdnumber%" -T "TOTALDISCS=%totalcds%" -T "TOTALTRACKS=%numtracks%" -T "COMMENT=%comment%" %source% -o %dest%

TOC of the extracted CD

Track | Start | Length | Start sector | End sector
---------------------------------------------------------
1 | 0:00.00 | 4:55.66 | 0 | 22190
2 | 4:55.66 | 3:08.48 | 22191 | 36338
3 | 8:04.39 | 3:16.70 | 36339 | 51108
4 | 11:21.34 | 1:22.59 | 51109 | 57317
5 | 12:44.18 | 1:25.07 | 57318 | 63699
6 | 14:09.25 | 7:25.22 | 63700 | 97096
7 | 21:34.47 | 2:34.60 | 97097 | 108706
8 | 24:09.32 | 0:38.08 | 108707 | 111564
9 | 24:47.40 | 4:21.53 | 111565 | 131192
10 | 29:09.18 | 7:03.69 | 131193 | 162986
11 | 36:13.12 | 4:14.11 | 162987 | 182047
12 | 40:27.23 | 0:30.17 | 182048 | 184314
13 | 40:57.40 | 6:02.61 | 184315 | 211525
14 | 47:00.26 | 4:32.28 | 211526 | 231953

Track 1

Filename E:\eacrips\Pink Floyd - 2012 - The Wall (Immersion)\Disc 4\01 Hey You.wav

Pre-gap length 0:00:02.00

Peak level 100.0 %
Extraction speed 2.4 X
Track quality 100.0 %
Test CRC 7B2D565E
Copy CRC 7B2D565E
Track not present in AccurateRip database
Copy OK

Track 2

Filename E:\eacrips\Pink Floyd - 2012 - The Wall (Immersion)\Disc 4\02 Is There Anybody Out There.wav

Peak level 94.3 %
Extraction speed 2.4 X
Track quality 100.0 %
Test CRC AE151EB2
Copy CRC AE151EB2
Track not present in AccurateRip database
Copy OK

Track 3

Filename E:\eacrips\Pink Floyd - 2012 - The Wall (Immersion)\Disc 4\03 Nobody Home.wav

Peak level 77.0 %
Extraction speed 2.7 X
Track quality 100.0 %
Test CRC AFFDA383
Copy CRC AFFDA383
Track not present in AccurateRip database
Copy OK

Track 4

Filename E:\eacrips\Pink Floyd - 2012 - The Wall (Immersion)\Disc 4\04 Vera.wav

Peak level 100.0 %
Extraction speed 2.2 X
Track quality 100.0 %
Test CRC EAD6602A
Copy CRC EAD6602A
Track not present in AccurateRip database
Copy OK

Track 5

Filename E:\eacrips\Pink Floyd - 2012 - The Wall (Immersion)\Disc 4\05 Bring The Boys Back Home.wav

Peak level 78.8 %
Extraction speed 2.2 X
Track quality 100.0 %
Test CRC C3D34D95
Copy CRC C3D34D95
Track not present in AccurateRip database
Copy OK

Track 6

Filename E:\eacrips\Pink Floyd - 2012 - The Wall (Immersion)\Disc 4\06 Comfortably Numb.wav

Peak level 100.0 %
Extraction speed 3.4 X
Track quality 100.0 %
Test CRC EA26E5D8
Copy CRC EA26E5D8
Track not present in AccurateRip database
Copy OK

Track 7

Filename E:\eacrips\Pink Floyd - 2012 - The Wall (Immersion)\Disc 4\07 The Show Must Go On.wav

Peak level 100.0 %
Extraction speed 3.0 X
Track quality 100.0 %
Test CRC A41A26C6
Copy CRC A41A26C6
Track not present in AccurateRip database
Copy OK

Track 8

Filename E:\eacrips\Pink Floyd - 2012 - The Wall (Immersion)\Disc 4\08 Mc; Atmos.wav

Peak level 26.6 %
Extraction speed 1.7 X
Track quality 100.0 %
Test CRC 66E91934
Copy CRC 66E91934
Track not present in AccurateRip database
Copy OK

Track 9

Filename E:\eacrips\Pink Floyd - 2012 - The Wall (Immersion)\Disc 4\09 In The Flesh.wav

Peak level 100.0 %
Extraction speed 3.5 X
Track quality 100.0 %
Test CRC 937FD354
Copy CRC 937FD354
Track not present in AccurateRip database
Copy OK

Track 10

Filename E:\eacrips\Pink Floyd - 2012 - The Wall (Immersion)\Disc 4\10 Run Like Hell.wav

Peak level 100.0 %
Extraction speed 3.9 X
Track quality 100.0 %
Test CRC F31E72F8
Copy CRC F31E72F8
Track not present in AccurateRip database
Copy OK

Track 11

Filename E:\eacrips\Pink Floyd - 2012 - The Wall (Immersion)\Disc 4\11 Waiting For The Worms.wav

Peak level 100.0 %
Extraction speed 3.9 X
Track quality 100.0 %
Test CRC 1E20D087
Copy CRC 1E20D087
Track not present in AccurateRip database
Copy OK

Track 12

Filename E:\eacrips\Pink Floyd - 2012 - The Wall (Immersion)\Disc 4\12 Stop.wav

Peak level 100.0 %
Extraction speed 0.9 X
Track quality 99.6 %
Test CRC 766FA39A
Copy CRC 766FA39A
Track not present in AccurateRip database
Copy OK

Track 13

Filename E:\eacrips\Pink Floyd - 2012 - The Wall (Immersion)\Disc 4\13 The Trial.wav

Peak level 100.0 %
Extraction speed 4.2 X
Track quality 100.0 %
Test CRC 8FFC6A7F
Copy CRC 8FFC6A7F
Track not present in AccurateRip database
Copy OK

Track 14

Filename E:\eacrips\Pink Floyd - 2012 - The Wall (Immersion)\Disc 4\14 Outside The Wall.wav

Peak level 82.4 %
Extraction speed 4.2 X
Track quality 100.0 %
Test CRC 532AE894
Copy CRC 532AE894
Track not present in AccurateRip database
Copy OK

None of the tracks are present in the AccurateRip database

No errors occurred

End of status report

==== Log checksum C63D27E2386B2FD5EBCA04908D7F4BE402FA759A67FF87411D58118F447C5705 ====
Exact Audio Copy V1.0 beta 3 from 29. August 2011 

EAC extraction logfile from 25. February 2012, 19:08

Pink Floyd / The Wall (Immersion) (CD5)

Used drive : TSSTcorpDVD+-RW TS-L633A Adapter: 2 ID: 0

Read mode : Secure
Utilize accurate stream : Yes
Defeat audio cache : Yes
Make use of C2 pointers : No

Read offset correction : 6
Overread into Lead-In and Lead-Out : No
Fill up missing offset samples with silence : Yes
Delete leading and trailing silent blocks : No
Null samples used in CRC calculations : Yes
Used interface : Native Win32 interface for Win NT & 2000
Gap handling : Appended to previous track

Used output format : User Defined Encoder
Selected bitrate : 1024 kBit/s
Quality : High
Add ID3 tag : No
Command line compressor : C:\Program Files\Exact Audio Copy\FLAC\FLAC.EXE
Additional command line options : -8 -V -T "ARTIST=%artist%" -T "TITLE=%title%" -T "ALBUM=%albumtitle%" -T "DATE=%year%" -T "TRACKNUMBER=%tracknr%" -T "GENRE=%genre%" -T "PERFORMER=%albuminterpret%" -T "COMPOSER=%composer%" %haslyrics%--tag-from-file=LYRICS="%lyricsfile%"%haslyrics% -T "ALBUMARTIST=%albumartist%" -T "DISCNUMBER=%cdnumber%" -T "TOTALDISCS=%totalcds%" -T "TOTALTRACKS=%numtracks%" -T "COMMENT=%comment%" %source% -o %dest%

TOC of the extracted CD

Track | Start | Length | Start sector | End sector
---------------------------------------------------------
1 | 0:00.00 | 0:24.09 | 0 | 1808
2 | 0:24.09 | 1:04.26 | 1809 | 6634
3 | 1:28.35 | 0:22.67 | 6635 | 8351
4 | 1:51.27 | 0:13.49 | 8352 | 9375
5 | 2:05.01 | 0:18.60 | 9376 | 10785
6 | 2:23.61 | 0:19.15 | 10786 | 12225
7 | 2:43.01 | 0:08.14 | 12226 | 12839
8 | 2:51.15 | 0:35.50 | 12840 | 15514
9 | 3:26.65 | 0:28.07 | 15515 | 17621
10 | 3:54.72 | 0:40.00 | 17622 | 20621
11 | 4:34.72 | 0:12.73 | 20622 | 21594
12 | 4:47.70 | 0:37.43 | 21595 | 24412
13 | 5:25.38 | 0:24.41 | 24413 | 26253
14 | 5:50.04 | 1:09.33 | 26254 | 31461
15 | 6:59.37 | 1:22.65 | 31462 | 37676
16 | 8:22.27 | 0:27.63 | 37677 | 39764
17 | 8:50.15 | 0:38.21 | 39765 | 42635
18 | 9:28.36 | 0:51.60 | 42636 | 46520
19 | 10:20.21 | 1:17.27 | 46521 | 52322
20 | 11:37.48 | 0:50.42 | 52323 | 56114
21 | 12:28.15 | 0:34.58 | 56115 | 58722
22 | 13:02.73 | 1:03.47 | 58723 | 63494
23 | 14:06.45 | 0:55.50 | 63495 | 67669
24 | 15:02.20 | 4:49.27 | 67670 | 89371
25 | 19:51.47 | 3:31.59 | 89372 | 105255
26 | 23:23.31 | 2:22.60 | 105256 | 115965
27 | 25:46.16 | 2:50.12 | 115966 | 128727
28 | 28:36.28 | 1:31.09 | 128728 | 135561
29 | 30:07.37 | 1:53.36 | 135562 | 144072
30 | 32:00.73 | 4:26.57 | 144073 | 164079
31 | 36:27.55 | 4:38.52 | 164080 | 184981
32 | 41:06.32 | 4:34.72 | 184982 | 205603
33 | 45:41.29 | 5:00.26 | 205604 | 228129
34 | 50:41.55 | 1:26.01 | 228130 | 234580
35 | 52:07.56 | 1:13.26 | 234581 | 240081
36 | 53:21.07 | 3:25.23 | 240082 | 255479
37 | 56:46.30 | 2:35.58 | 255480 | 267162
38 | 59:22.13 | 3:41.39 | 267163 | 283776
39 | 63:03.52 | 1:44.01 | 283777 | 291577
40 | 64:47.53 | 1:57.01 | 291578 | 300353
41 | 66:44.54 | 4:36.65 | 300354 | 321118

Track 1

Filename E:\eacrips\Pink Floyd - 2012 - The Wall (Immersion)\Disc 5\01 PROGRAMME 1 - Prelude (Vera Lynn) - Roger Waters Original Demo.wav

Pre-gap length 0:00:02.00

Peak level 33.0 %
Extraction speed 0.9 X
Track quality 100.0 %
Test CRC 3AE1ED06
Copy CRC 3AE1ED06
Track not present in AccurateRip database
Copy OK

Track 2

Filename E:\eacrips\Pink Floyd - 2012 - The Wall (Immersion)\Disc 5\02 PROGRAMME 1 - Another Brick In The Wall, Part 2 - Roger Waters Original Demo.wav

Peak level 48.2 %
Extraction speed 1.6 X
Track quality 100.0 %
Test CRC DB7B9A19
Copy CRC DB7B9A19
Track not present in AccurateRip database
Copy OK

Track 3

Filename E:\eacrips\Pink Floyd - 2012 - The Wall (Immersion)\Disc 5\03 PROGRAMME 1 - Mother - Roger Waters Original Demo.wav

Peak level 64.2 %
Extraction speed 0.5 X
Track quality 99.5 %
Test CRC 9E22D0C5
Copy CRC 9E22D0C5
Track not present in AccurateRip database
Copy OK

Track 4

Filename E:\eacrips\Pink Floyd - 2012 - The Wall (Immersion)\Disc 5\04 PROGRAMME 1 - Young Lust - Roger Waters Original Demo.wav

Peak level 37.6 %
Extraction speed 0.6 X
Track quality 100.0 %
Test CRC 4A2CB186
Copy CRC 4A2CB186
Track not present in AccurateRip database
Copy OK

Track 5

Filename E:\eacrips\Pink Floyd - 2012 - The Wall (Immersion)\Disc 5\05 PROGRAMME 1 - Another Brick In The Wall, Part 2 - Roger Waters Original Demo.wav

Peak level 39.9 %
Extraction speed 0.8 X
Track quality 100.0 %
Test CRC D8BC48D8
Copy CRC D8BC48D8
Track not present in AccurateRip database
Copy OK

Track 6

Filename E:\eacrips\Pink Floyd - 2012 - The Wall (Immersion)\Disc 5\06 PROGRAMME 1 - Empty Spaces - Roger Waters Original Demo.wav

Peak level 33.7 %
Extraction speed 0.8 X
Track quality 100.0 %
Test CRC 3FE8AD38
Copy CRC 3FE8AD38
Track not present in AccurateRip database
Copy OK

Track 7

Filename E:\eacrips\Pink Floyd - 2012 - The Wall (Immersion)\Disc 5\07 PROGRAMME 1 - Mother - Roger Waters Original Demo.wav

Peak level 60.1 %
Extraction speed 0.4 X
Track quality 100.0 %
Test CRC 7D0EBE91
Copy CRC 7D0EBE91
Track not present in AccurateRip database
Copy OK

Track 8

Filename E:\eacrips\Pink Floyd - 2012 - The Wall (Immersion)\Disc 5\08 PROGRAMME 1 - Backs To The Wall - Roger Waters Original Demo.wav

Peak level 39.6 %
Extraction speed 1.2 X
Track quality 100.0 %
Test CRC 253598A6
Copy CRC 253598A6
Track not present in AccurateRip database
Copy OK

Track 9

Filename E:\eacrips\Pink Floyd - 2012 - The Wall (Immersion)\Disc 5\09 PROGRAMME 1 - Don't Leave Me Now - Roger Waters Original Demo.wav

Peak level 39.2 %
Extraction speed 1.1 X
Track quality 100.0 %
Test CRC EF793C0B
Copy CRC EF793C0B
Track not present in AccurateRip database
Copy OK

Track 10

Filename E:\eacrips\Pink Floyd - 2012 - The Wall (Immersion)\Disc 5\10 PROGRAMME 1 - Goodbye Blue Sky - Roger Waters Original Demo.wav

Peak level 51.8 %
Extraction speed 1.4 X
Track quality 100.0 %
Test CRC 36ABE765
Copy CRC 36ABE765
Track not present in AccurateRip database
Copy OK

Track 11

Filename E:\eacrips\Pink Floyd - 2012 - The Wall (Immersion)\Disc 5\11 PROGRAMME 1 - Don't Leave Me Now - Roger Waters Original Demo.wav

Peak level 41.8 %
Extraction speed 0.3 X
Track quality 99.1 %
Test CRC 1E2C2C35
Copy CRC 1E2C2C35
Track not present in AccurateRip database
Copy OK

Track 12

Filename E:\eacrips\Pink Floyd - 2012 - The Wall (Immersion)\Disc 5\12 PROGRAMME 1 - Another Brick In The Wall, Part 3 - Roger Waters Original Demo.wav

Peak level 55.0 %
Extraction speed 1.3 X
Track quality 100.0 %
Test CRC 5FE97D0A
Copy CRC 5FE97D0A
Track not present in AccurateRip database
Copy OK

Track 13

Filename E:\eacrips\Pink Floyd - 2012 - The Wall (Immersion)\Disc 5\13 PROGRAMME 1 - Goodbye Cruel World - Roger Waters Original Demo.wav

Peak level 21.5 %
Extraction speed 0.6 X
Track quality 99.5 %
Test CRC 64FC66DA
Copy CRC 64FC66DA
Track not present in AccurateRip database
Copy OK

Track 14

Filename E:\eacrips\Pink Floyd - 2012 - The Wall (Immersion)\Disc 5\14 PROGRAMME 1 - Hey You - Roger Waters Original Demo.wav

Peak level 47.7 %
Extraction speed 1.9 X
Track quality 100.0 %
Test CRC 762A8630
Copy CRC 762A8630
Track not present in AccurateRip database
Copy OK

Track 15

Filename E:\eacrips\Pink Floyd - 2012 - The Wall (Immersion)\Disc 5\15 PROGRAMME 1 - Is There Anybody Out There - Roger Waters Original Demo.wav

Peak level 66.6 %
Extraction speed 2.0 X
Track quality 100.0 %
Test CRC DD12DBD9
Copy CRC DD12DBD9
Track not present in AccurateRip database
Copy OK

Track 16

Filename E:\eacrips\Pink Floyd - 2012 - The Wall (Immersion)\Disc 5\16 PROGRAMME 1 - Vera - Roger Waters Original Demo.wav

Peak level 57.7 %
Extraction speed 0.7 X
Track quality 99.6 %
Test CRC 035C14B7
Copy CRC 035C14B7
Track not present in AccurateRip database
Copy OK

Track 17

Filename E:\eacrips\Pink Floyd - 2012 - The Wall (Immersion)\Disc 5\17 PROGRAMME 1 - Bring The Boys Back Home - Roger Waters Original Demo.wav

Peak level 51.0 %
Extraction speed 1.4 X
Track quality 100.0 %
Test CRC CBF2668C
Copy CRC CBF2668C
Track not present in AccurateRip database
Copy OK

Track 18

Filename E:\eacrips\Pink Floyd - 2012 - The Wall (Immersion)\Disc 5\18 PROGRAMME 1 - The Show Must Go On - Roger Waters Original Demo.wav

Peak level 45.3 %
Extraction speed 1.1 X
Track quality 99.7 %
Test CRC 5B674D82
Copy CRC 5B674D82
Track not present in AccurateRip database
Copy OK

Track 19

Filename E:\eacrips\Pink Floyd - 2012 - The Wall (Immersion)\Disc 5\19 PROGRAMME 1 - Waiting For The Worms - Roger Waters Original Demo.wav

Peak level 53.9 %
Extraction speed 1.5 X
Track quality 99.8 %
Test CRC 266C6D06
Copy CRC 266C6D06
Track not present in AccurateRip database
Copy OK

Track 20

Filename E:\eacrips\Pink Floyd - 2012 - The Wall (Immersion)\Disc 5\20 PROGRAMME 1 - Run Like Hell - Roger Waters Original Demo.wav

Peak level 52.5 %
Extraction speed 1.7 X
Track quality 100.0 %
Test CRC F1E3CBFB
Copy CRC F1E3CBFB
Track not present in AccurateRip database
Copy OK

Track 21

Filename E:\eacrips\Pink Floyd - 2012 - The Wall (Immersion)\Disc 5\21 PROGRAMME 1 - The Trial - Roger Waters Original Demo.wav

Peak level 41.9 %
Extraction speed 1.4 X
Track quality 100.0 %
Test CRC 3F053DB2
Copy CRC 3F053DB2
Track not present in AccurateRip database
Copy OK

Track 22

Filename E:\eacrips\Pink Floyd - 2012 - The Wall (Immersion)\Disc 5\22 PROGRAMME 1 - Outside The Wall - Roger Waters Original Demo.wav

Peak level 38.6 %
Extraction speed 2.0 X
Track quality 100.0 %
Test CRC A1997D42
Copy CRC A1997D42
Track not present in AccurateRip database
Copy OK

Track 23

Filename E:\eacrips\Pink Floyd - 2012 - The Wall (Immersion)\Disc 5\23 PROGRAMME 2 - Prelude (Vera Lynn) - Roger Waters Original Demo.wav

Peak level 71.9 %
Extraction speed 1.8 X
Track quality 100.0 %
Test CRC 71C3FB2C
Copy CRC 71C3FB2C
Track not present in AccurateRip database
Copy OK

Track 24

Filename E:\eacrips\Pink Floyd - 2012 - The Wall (Immersion)\Disc 5\24 PROGRAMME 2 - Another Brick In The Wall, Part 1 - Band Demo.wav

Peak level 95.0 %
Extraction speed 3.1 X
Track quality 100.0 %
Test CRC 5EF9B004
Copy CRC 5EF9B004
Track not present in AccurateRip database
Copy OK

Track 25

Filename E:\eacrips\Pink Floyd - 2012 - The Wall (Immersion)\Disc 5\25 PROGRAMME 2 - The Thin Ice - Band Demo.wav

Peak level 60.2 %
Extraction speed 2.6 X
Track quality 99.9 %
Test CRC F3487444
Copy CRC F3487444
Track not present in AccurateRip database
Copy OK

Track 26

Filename E:\eacrips\Pink Floyd - 2012 - The Wall (Immersion)\Disc 5\26 PROGRAMME 2 - Goodbye Blue Sky - Band Demo.wav

Peak level 62.9 %
Extraction speed 3.0 X
Track quality 100.0 %
Test CRC 4AC89461
Copy CRC 4AC89461
Track not present in AccurateRip database
Copy OK

Track 27

Filename E:\eacrips\Pink Floyd - 2012 - The Wall (Immersion)\Disc 5\27 PROGRAMME 2 - Teacher, Teacher - Band Demo.wav

Peak level 70.3 %
Extraction speed 3.2 X
Track quality 100.0 %
Test CRC F9E56D0B
Copy CRC F9E56D0B
Track not present in AccurateRip database
Copy OK

Track 28

Filename E:\eacrips\Pink Floyd - 2012 - The Wall (Immersion)\Disc 5\28 PROGRAMME 2 - Another Brick In The Wall, Part 2 - Band Demo.wav

Peak level 43.1 %
Extraction speed 2.7 X
Track quality 100.0 %
Test CRC 20D947F2
Copy CRC 20D947F2
Track not present in AccurateRip database
Copy OK

Track 29

Filename E:\eacrips\Pink Floyd - 2012 - The Wall (Immersion)\Disc 5\29 PROGRAMME 2 - Empty Spaces - Band Demo.wav

Peak level 44.0 %
Extraction speed 2.9 X
Track quality 100.0 %
Test CRC A34E2F0E
Copy CRC A34E2F0E
Track not present in AccurateRip database
Copy OK

Track 30

Filename E:\eacrips\Pink Floyd - 2012 - The Wall (Immersion)\Disc 5\30 PROGRAMME 2 - Young Lust - Band Demo.wav

Peak level 89.3 %
Extraction speed 3.7 X
Track quality 100.0 %
Test CRC 08F30394
Copy CRC 08F30394
Track not present in AccurateRip database
Copy OK

Track 31

Filename E:\eacrips\Pink Floyd - 2012 - The Wall (Immersion)\Disc 5\31 PROGRAMME 2 - Mother - Band Demo.wav

Peak level 71.6 %
Extraction speed 3.9 X
Track quality 100.0 %
Test CRC 183FCD76
Copy CRC 183FCD76
Track not present in AccurateRip database
Copy OK

Track 32

Filename E:\eacrips\Pink Floyd - 2012 - The Wall (Immersion)\Disc 5\32 PROGRAMME 2 - Don't Leave Me Now - Band Demo.wav

Peak level 69.1 %
Extraction speed 4.0 X
Track quality 100.0 %
Test CRC EEEF649F
Copy CRC EEEF649F
Track not present in AccurateRip database
Copy OK

Track 33

Filename E:\eacrips\Pink Floyd - 2012 - The Wall (Immersion)\Disc 5\33 PROGRAMME 2 - Sexual Revolution - Band Demo.wav

Peak level 67.3 %
Extraction speed 4.1 X
Track quality 100.0 %
Test CRC 896BF7C0
Copy CRC 896BF7C0
Track not present in AccurateRip database
Copy OK

Track 34

Filename E:\eacrips\Pink Floyd - 2012 - The Wall (Immersion)\Disc 5\34 PROGRAMME 2 - Another Brick In The Wall, Part 3 - Band Demo.wav

Peak level 84.1 %
Extraction speed 2.0 X
Track quality 99.8 %
Test CRC D66AC3C9
Copy CRC D66AC3C9
Track not present in AccurateRip database
Copy OK

Track 35

Filename E:\eacrips\Pink Floyd - 2012 - The Wall (Immersion)\Disc 5\35 PROGRAMME 2 - Goodbye Cruel World - Band Demo.wav

Peak level 13.9 %
Extraction speed 1.8 X
Track quality 99.8 %
Test CRC ED37780A
Copy CRC ED37780A
Track not present in AccurateRip database
Copy OK

Track 36

Filename E:\eacrips\Pink Floyd - 2012 - The Wall (Immersion)\Disc 5\36 PROGRAMME 3 - In The Flesh - Band Demo.wav

Peak level 82.2 %
Extraction speed 4.1 X
Track quality 100.0 %
Test CRC 6FA919EA
Copy CRC 6FA919EA
Track not present in AccurateRip database
Copy OK

Track 37

Filename E:\eacrips\Pink Floyd - 2012 - The Wall (Immersion)\Disc 5\37 PROGRAMME 3 - The Thin Ice - Band Demo.wav

Peak level 53.5 %
Extraction speed 3.8 X
Track quality 100.0 %
Test CRC 54148924
Copy CRC 54148924
Track not present in AccurateRip database
Copy OK

Track 38

Filename E:\eacrips\Pink Floyd - 2012 - The Wall (Immersion)\Disc 5\38 PROGRAMME 3 - Another Brick In The Wall, Part 1 - Band Demo.wav

Peak level 63.9 %
Extraction speed 4.1 X
Track quality 100.0 %
Test CRC 0D240736
Copy CRC 0D240736
Track not present in AccurateRip database
Copy OK

Track 39

Filename E:\eacrips\Pink Floyd - 2012 - The Wall (Immersion)\Disc 5\39 PROGRAMME 3 - The Happiest Days Of Your Lives - Band Demo.wav

Peak level 62.1 %
Extraction speed 3.4 X
Track quality 100.0 %
Test CRC E73DB2C6
Copy CRC E73DB2C6
Track not present in AccurateRip database
Copy OK

Track 40

Filename E:\eacrips\Pink Floyd - 2012 - The Wall (Immersion)\Disc 5\40 PROGRAMME 3 - Another Brick In The Wall, Part 2 - Band Demo.wav

Peak level 58.7 %
Extraction speed 3.7 X
Track quality 100.0 %
Test CRC 1C01151D
Copy CRC 1C01151D
Track not present in AccurateRip database
Copy OK

Track 41

Filename E:\eacrips\Pink Floyd - 2012 - The Wall (Immersion)\Disc 5\41 PROGRAMME 3 - Mother - Band Demo.wav

Peak level 49.0 %
Extraction speed 3.8 X
Track quality 99.9 %
Test CRC 2F33D299
Copy CRC 2F33D299
Track not present in AccurateRip database
Copy OK

None of the tracks are present in the AccurateRip database

No errors occurred

End of status report

==== Log checksum 9FE227B82B7BC4F1413025F746C1F2B6E5CA363DAB115D9AABC99D2950D483B9 ====
Exact Audio Copy V1.0 beta 3 from 29. August 2011 

EAC extraction logfile from 25. February 2012, 20:20

Pink Floyd / The Wall (Immersion) (CD6)

Used drive : TSSTcorpDVD+-RW TS-L633A Adapter: 2 ID: 0

Read mode : Secure
Utilize accurate stream : Yes
Defeat audio cache : Yes
Make use of C2 pointers : No

Read offset correction : 6
Overread into Lead-In and Lead-Out : No
Fill up missing offset samples with silence : Yes
Delete leading and trailing silent blocks : No
Null samples used in CRC calculations : Yes
Used interface : Native Win32 interface for Win NT & 2000
Gap handling : Appended to previous track

Used output format : User Defined Encoder
Selected bitrate : 1024 kBit/s
Quality : High
Add ID3 tag : No
Command line compressor : C:\Program Files\Exact Audio Copy\FLAC\FLAC.EXE
Additional command line options : -8 -V -T "ARTIST=%artist%" -T "TITLE=%title%" -T "ALBUM=%albumtitle%" -T "DATE=%year%" -T "TRACKNUMBER=%tracknr%" -T "GENRE=%genre%" -T "PERFORMER=%albuminterpret%" -T "COMPOSER=%composer%" %haslyrics%--tag-from-file=LYRICS="%lyricsfile%"%haslyrics% -T "ALBUMARTIST=%albumartist%" -T "DISCNUMBER=%cdnumber%" -T "TOTALDISCS=%totalcds%" -T "TOTALTRACKS=%numtracks%" -T "COMMENT=%comment%" %source% -o %dest%

TOC of the extracted CD

Track | Start | Length | Start sector | End sector
---------------------------------------------------------
1 | 0:00.00 | 1:53.37 | 0 | 8511
2 | 1:53.37 | 2:19.30 | 8512 | 18966
3 | 4:12.67 | 0:43.24 | 18967 | 22215
4 | 4:56.16 | 4:06.51 | 22216 | 40716
5 | 9:02.67 | 3:15.00 | 40717 | 55341
6 | 12:17.67 | 4:35.19 | 55342 | 75985
7 | 16:53.11 | 3:07.38 | 75986 | 90048
8 | 20:00.49 | 3:53.56 | 90049 | 107579
9 | 23:54.30 | 4:05.43 | 107580 | 125997
10 | 27:59.73 | 2:07.32 | 125998 | 135554
11 | 30:07.30 | 1:19.03 | 135555 | 141482
12 | 31:26.33 | 1:31.68 | 141483 | 148375
13 | 32:58.26 | 1:53.17 | 148376 | 156867
14 | 34:51.43 | 1:32.30 | 156868 | 163797
15 | 36:23.73 | 3:19.44 | 163798 | 178766
16 | 39:43.42 | 2:29.60 | 178767 | 190001
17 | 42:13.27 | 4:04.64 | 190002 | 208365
18 | 46:18.16 | 0:51.33 | 208366 | 212223
19 | 47:09.49 | 1:33.35 | 212224 | 219233
20 | 48:43.09 | 1:22.65 | 219234 | 225448
21 | 50:05.74 | 1:06.34 | 225449 | 230432
22 | 51:12.33 | 3:14.39 | 230433 | 245021
23 | 54:26.72 | 3:02.51 | 245022 | 258722

Track 1

Filename E:\eacrips\Pink Floyd - 2012 - The Wall (Immersion)\Disc 6\01 PROGRAMME 1 - Is There Anybody Out There (Roger Waters Original Demo).wav

Pre-gap length 0:00:02.00

Peak level 40.6 %
Extraction speed 1.4 X
Track quality 99.9 %
Test CRC 3D7E61DB
Copy CRC 3D7E61DB
Track not present in AccurateRip database
Copy OK

Track 2

Filename E:\eacrips\Pink Floyd - 2012 - The Wall (Immersion)\Disc 6\02 PROGRAMME 1 - Vera (Roger Waters Original Demo).wav

Peak level 44.6 %
Extraction speed 2.1 X
Track quality 100.0 %
Test CRC 426F289C
Copy CRC 426F289C
Track not present in AccurateRip database
Copy OK

Track 3

Filename E:\eacrips\Pink Floyd - 2012 - The Wall (Immersion)\Disc 6\03 PROGRAMME 1 - Bring The Boys Back Home (Roger Waters Original Demo).wav

Peak level 56.0 %
Extraction speed 1.4 X
Track quality 100.0 %
Test CRC 264E8D7A
Copy CRC 264E8D7A
Track not present in AccurateRip database
Copy OK

Track 4

Filename E:\eacrips\Pink Floyd - 2012 - The Wall (Immersion)\Disc 6\04 PROGRAMME 1 - Hey You (Band Demo).wav

Peak level 81.0 %
Extraction speed 2.2 X
Track quality 99.9 %
Test CRC D281CC61
Copy CRC D281CC61
Track not present in AccurateRip database
Copy OK

Track 5

Filename E:\eacrips\Pink Floyd - 2012 - The Wall (Immersion)\Disc 6\05 PROGRAMME 1 - The Doctor (Comfortably Numb - Band Demo).wav

Peak level 77.5 %
Extraction speed 2.7 X
Track quality 100.0 %
Test CRC 914814D4
Copy CRC 914814D4
Track not present in AccurateRip database
Copy OK

Track 6

Filename E:\eacrips\Pink Floyd - 2012 - The Wall (Immersion)\Disc 6\06 PROGRAMME 1 - In The Flesh (Band Demo).wav

Peak level 78.2 %
Extraction speed 3.0 X
Track quality 100.0 %
Test CRC A3CE499C
Copy CRC A3CE499C
Track not present in AccurateRip database
Copy OK

Track 7

Filename E:\eacrips\Pink Floyd - 2012 - The Wall (Immersion)\Disc 6\07 PROGRAMME 1 - Run Like Hell (Band Demo).wav

Peak level 70.4 %
Extraction speed 2.9 X
Track quality 100.0 %
Test CRC 3E38E645
Copy CRC 3E38E645
Track not present in AccurateRip database
Copy OK

Track 8

Filename E:\eacrips\Pink Floyd - 2012 - The Wall (Immersion)\Disc 6\08 PROGRAMME 1 - Waiting For The Worms (Band Demo).wav

Peak level 73.3 %
Extraction speed 3.2 X
Track quality 100.0 %
Test CRC E39853EC
Copy CRC E39853EC
Track not present in AccurateRip database
Copy OK

Track 9

Filename E:\eacrips\Pink Floyd - 2012 - The Wall (Immersion)\Disc 6\09 PROGRAMME 1 - The Trail (Band Demo).wav

Peak level 71.7 %
Extraction speed 3.4 X
Track quality 100.0 %
Test CRC 1632697A
Copy CRC 1632697A
Track not present in AccurateRip database
Copy OK

Track 10

Filename E:\eacrips\Pink Floyd - 2012 - The Wall (Immersion)\Disc 6\10 PROGRAMME 1 - The Show Must Go On (Band Demo).wav

Peak level 67.6 %
Extraction speed 3.0 X
Track quality 100.0 %
Test CRC 7A024994
Copy CRC 7A024994
Track not present in AccurateRip database
Copy OK

Track 11

Filename E:\eacrips\Pink Floyd - 2012 - The Wall (Immersion)\Disc 6\11 PROGRAMME 1 - Outside The Wall (Band Demo).wav

Peak level 20.7 %
Extraction speed 1.8 X
Track quality 99.8 %
Test CRC 06EBCE27
Copy CRC 06EBCE27
Track not present in AccurateRip database
Copy OK

Track 12

Filename E:\eacrips\Pink Floyd - 2012 - The Wall (Immersion)\Disc 6\12 PROGRAMME 1 - The Thin Ice (reprise - Band Demo).wav

Peak level 79.0 %
Extraction speed 2.8 X
Track quality 100.0 %
Test CRC E7240FAB
Copy CRC E7240FAB
Track not present in AccurateRip database
Copy OK

Track 13

Filename E:\eacrips\Pink Floyd - 2012 - The Wall (Immersion)\Disc 6\13 PROGRAMME 2 - Outside The Wall (Band Demo).wav

Peak level 47.2 %
Extraction speed 2.2 X
Track quality 99.9 %
Test CRC F7A01CEF
Copy CRC F7A01CEF
Track not present in AccurateRip database
Copy OK

Track 14

Filename E:\eacrips\Pink Floyd - 2012 - The Wall (Immersion)\Disc 6\14 PROGRAMME 2 - It's Never Too Late (Band Demo).wav

Peak level 78.8 %
Extraction speed 2.9 X
Track quality 100.0 %
Test CRC 3D700ACD
Copy CRC 3D700ACD
Track not present in AccurateRip database
Copy OK

Track 15

Filename E:\eacrips\Pink Floyd - 2012 - The Wall (Immersion)\Disc 6\15 PROGRAMME 2 - The Doctor (Comfortably Numb - Band Demo).wav

Peak level 71.1 %
Extraction speed 3.6 X
Track quality 100.0 %
Test CRC A6EF16BD
Copy CRC A6EF16BD
Track not present in AccurateRip database
Copy OK

Track 16

Filename E:\eacrips\Pink Floyd - 2012 - The Wall (Immersion)\Disc 6\16 PROGRAMME 3 - One Of My Turns (Band Demo).wav

Peak level 58.4 %
Extraction speed 3.6 X
Track quality 100.0 %
Test CRC DE733976
Copy CRC DE733976
Track not present in AccurateRip database
Copy OK

Track 17

Filename E:\eacrips\Pink Floyd - 2012 - The Wall (Immersion)\Disc 6\17 PROGRAMME 3 - Don't Leave Me Now (Band Demo).wav

Peak level 92.0 %
Extraction speed 4.1 X
Track quality 100.0 %
Test CRC 055BF8EA
Copy CRC 055BF8EA
Track not present in AccurateRip database
Copy OK

Track 18

Filename E:\eacrips\Pink Floyd - 2012 - The Wall (Immersion)\Disc 6\18 PROGRAMME 3 - Empty Spaces (Band Demo).wav

Peak level 68.7 %
Extraction speed 1.5 X
Track quality 99.7 %
Test CRC F37052EB
Copy CRC F37052EB
Track not present in AccurateRip database
Copy OK

Track 19

Filename E:\eacrips\Pink Floyd - 2012 - The Wall (Immersion)\Disc 6\19 PROGRAMME 3 - Backs To The Wall (Band Demo).wav

Peak level 67.7 %
Extraction speed 3.2 X
Track quality 100.0 %
Test CRC A6561E66
Copy CRC A6561E66
Track not present in AccurateRip database
Copy OK

Track 20

Filename E:\eacrips\Pink Floyd - 2012 - The Wall (Immersion)\Disc 6\20 PROGRAMME 3 - Another Brick In The Wall, Part 3 (Band Demo).wav

Peak level 83.5 %
Extraction speed 3.1 X
Track quality 100.0 %
Test CRC 539F8672
Copy CRC 539F8672
Track not present in AccurateRip database
Copy OK

Track 21

Filename E:\eacrips\Pink Floyd - 2012 - The Wall (Immersion)\Disc 6\21 PROGRAMME 3 - Goodbye Cruel World (Band Demo).wav

Peak level 34.8 %
Extraction speed 2.9 X
Track quality 100.0 %
Test CRC A874A6DB
Copy CRC A874A6DB
Track not present in AccurateRip database
Copy OK

Track 22

Filename E:\eacrips\Pink Floyd - 2012 - The Wall (Immersion)\Disc 6\22 PROGRAMME 4 - Comfortably Numb (David Gilmour Original Demo).wav

Peak level 34.6 %
Extraction speed 3.3 X
Track quality 99.9 %
Test CRC 67A9381D
Copy CRC 67A9381D
Track not present in AccurateRip database
Copy OK

Track 23

Filename E:\eacrips\Pink Floyd - 2012 - The Wall (Immersion)\Disc 6\23 PROGRAMME 4 - Run Like Hell (David Gilmour Original Demo).wav

Peak level 31.2 %
Extraction speed 4.2 X
Track quality 100.0 %
Test CRC 4B368CB2
Copy CRC 4B368CB2
Track not present in AccurateRip database
Copy OK

None of the tracks are present in the AccurateRip database

No errors occurred

End of status report

==== Log checksum 372F5810A60B4BACE09B9159A0E58CBF874B6802844ADBEC68046B76D6C4B1C0 ====
REM GENRE "Progressive Rock" 
REM DATE 1979
REM DISCID 9609300D
REM COMMENT "ExactAudioCopy v1.0b3"
PERFORMER "Pink Floyd"
TITLE "The Wall (Immersion) (CD 1)"
FILE "01 In The Flesh.wav" WAVE
TRACK 01 AUDIO
TITLE "In The Flesh?"
PERFORMER "Pink Floyd"
ISRC GA]IJ1100095
INDEX 01 00:00:00
FILE "02 The Thin Ice.wav" WAVE
TRACK 02 AUDIO
TITLE "The Thin Ice"
PERFORMER "Pink Floyd"
ISRC GA]IJ1100096
INDEX 01 00:00:00
FILE "03 Another Brick In The Wall, Part 1.wav" WAVE
TRACK 03 AUDIO
TITLE "Another Brick In The Wall, Part 1"
PERFORMER "Pink Floyd"
ISRC GA]IJ1100097
INDEX 01 00:00:00
FILE "04 The Happiest Days Of Our Lives.wav" WAVE
TRACK 04 AUDIO
TITLE "The Happiest Days Of Our Lives"
PERFORMER "Pink Floyd"
ISRC GA]IJ1100098
INDEX 01 00:00:00
FILE "05 Another Brick In The Wall, Part 2.wav" WAVE
TRACK 05 AUDIO
TITLE "Another Brick In The Wall, Part 2"
PERFORMER "Pink Floyd"
ISRC GA]IJ1100098
INDEX 01 00:00:00
FILE "06 Mother.wav" WAVE
TRACK 06 AUDIO
TITLE "Mother"
PERFORMER "Pink Floyd"
ISRC GA]IJ1100100
INDEX 01 00:00:00
FILE "07 Goodbye Blue Sky.wav" WAVE
TRACK 07 AUDIO
TITLE "Goodbye Blue Sky"
PERFORMER "Pink Floyd"
ISRC GA]IJ1100101
INDEX 01 00:00:00
FILE "08 Empty Spaces.wav" WAVE
TRACK 08 AUDIO
TITLE "Empty Spaces"
PERFORMER "Pink Floyd"
ISRC GA]IJ1100102
INDEX 01 00:00:00
FILE "09 Young Lust.wav" WAVE
TRACK 09 AUDIO
TITLE "Young Lust"
PERFORMER "Pink Floyd"
ISRC GA]IJ1100103
INDEX 01 00:00:00
FILE "10 One Of My Turns.wav" WAVE
TRACK 10 AUDIO
TITLE "One Of My Turns"
PERFORMER "Pink Floyd"
ISRC GA]IJ1100104
INDEX 01 00:00:00
FILE "11 Don't Leave Now.wav" WAVE
TRACK 11 AUDIO
TITLE "Don't Leave Now"
PERFORMER "Pink Floyd"
ISRC GA]IJ1100105
INDEX 01 00:00:00
FILE "12 Another Brick In The Wall, Part 3.wav" WAVE
TRACK 12 AUDIO
TITLE "Another Brick In The Wall, Part 3"
PERFORMER "Pink Floyd"
ISRC GA]IJ1100106
INDEX 01 00:00:00
FILE "13 Goodbye Cruel World.wav" WAVE
TRACK 13 AUDIO
TITLE "Goodbye Cruel World"
PERFORMER "Pink Floyd"
ISRC GA]IJ1100107
INDEX 01 00:00:00
REM GENRE "Progressive Rock" 
REM DATE 1979
REM DISCID 9409D40D
REM COMMENT "ExactAudioCopy v1.0b3"
PERFORMER "Pink Floyd"
TITLE "The Wall (Immersion) (CD 2)"
FILE "01 Hey You.wav" WAVE
TRACK 01 AUDIO
TITLE "Hey You"
PERFORMER "Pink Floyd"
ISRC GA]IJ1100108
INDEX 01 00:00:00
FILE "02 Is There Anybody Out There.wav" WAVE
TRACK 02 AUDIO
TITLE "Is There Anybody Out There?"
PERFORMER "Pink Floyd"
ISRC GA]IJ1100109
INDEX 01 00:00:00
FILE "03 Nobody Home.wav" WAVE
TRACK 03 AUDIO
TITLE "Nobody Home"
PERFORMER "Pink Floyd"
ISRC GA]IJ1100110
INDEX 01 00:00:00
FILE "04 Vera.wav" WAVE
TRACK 04 AUDIO
TITLE "Vera"
PERFORMER "Pink Floyd"
ISRC GA]IJ1100110
INDEX 01 00:00:00
FILE "05 Bring The Boys Back Home.wav" WAVE
TRACK 05 AUDIO
TITLE "Bring The Boys Back Home"
PERFORMER "Pink Floyd"
ISRC GA]IJ1100112
INDEX 01 00:00:00
FILE "06 Comfortably Numb.wav" WAVE
TRACK 06 AUDIO
TITLE "Comfortably Numb"
PERFORMER "Pink Floyd"
ISRC GA]IJ1100113
INDEX 01 00:00:00
FILE "07 The Show Must Go On.wav" WAVE
TRACK 07 AUDIO
TITLE "The Show Must Go On"
PERFORMER "Pink Floyd"
ISRC GA]IJ1100114
INDEX 01 00:00:00
FILE "08 In The Flesh!.wav" WAVE
TRACK 08 AUDIO
TITLE "In The Flesh!"
PERFORMER "Pink Floyd"
ISRC GA]IJ1100115
INDEX 01 00:00:00
FILE "09 Run Like Hell.wav" WAVE
TRACK 09 AUDIO
TITLE "Run Like Hell"
PERFORMER "Pink Floyd"
ISRC GA]IJ1100116
INDEX 01 00:00:00
FILE "10 Waiting For The Worms.wav" WAVE
TRACK 10 AUDIO
TITLE "Waiting For The Worms"
PERFORMER "Pink Floyd"
ISRC GA]IJ1100117
INDEX 01 00:00:00
FILE "11 Stop.wav" WAVE
TRACK 11 AUDIO
TITLE "Stop"
PERFORMER "Pink Floyd"
ISRC GA]IJ1100118
INDEX 01 00:00:00
FILE "12 The Trial.wav" WAVE
TRACK 12 AUDIO
TITLE "The Trial"
PERFORMER "Pink Floyd"
ISRC GA]IJ1100119
INDEX 01 00:00:00
FILE "13 Outside The Wall.wav" WAVE
TRACK 13 AUDIO
TITLE "Outside The Wall"
PERFORMER "Pink Floyd"
ISRC GA]IJ1100120
INDEX 01 00:00:00
REM GENRE Rock 
REM DISCID DF0C9D10
REM COMMENT "ExactAudioCopy v1.0b3"
PERFORMER "Pink Floyd"
TITLE "The Wall (Immersion) (CD3)"
FILE "01 Master of Ceremonies.wav" WAVE
TRACK 01 AUDIO
TITLE "Master of Ceremonies"
PERFORMER "Pink Floyd"
ISRC GA]IJ1100143
INDEX 01 00:00:00
FILE "02 In the Flesh.wav" WAVE
TRACK 02 AUDIO
TITLE "In the Flesh?"
PERFORMER "Pink Floyd"
ISRC GA]IJ1100144
INDEX 01 00:00:00
FILE "03 The Thin Ice.wav" WAVE
TRACK 03 AUDIO
TITLE "The Thin Ice"
PERFORMER "Pink Floyd"
ISRC GA]IJ1100145
INDEX 01 00:00:00
FILE "04 Another Brick in the Wall, Pt. 1.wav" WAVE
TRACK 04 AUDIO
TITLE "Another Brick in the Wall, Pt. 1"
PERFORMER "Pink Floyd"
ISRC GA]IJ1100145
INDEX 01 00:00:00
FILE "05 The Happiest Days of Our Lives.wav" WAVE
TRACK 05 AUDIO
TITLE "The Happiest Days of Our Lives"
PERFORMER "Pink Floyd"
ISRC GA]IJ1100147
INDEX 01 00:00:00
FILE "06 Another Brick in the Wall, Pt. 2.wav" WAVE
TRACK 06 AUDIO
TITLE "Another Brick in the Wall, Pt. 2"
PERFORMER "Pink Floyd"
ISRC GA]IJ1100148
INDEX 01 00:00:00
FILE "07 Mother.wav" WAVE
TRACK 07 AUDIO
TITLE "Mother"
PERFORMER "Pink Floyd"
ISRC GA]IJ1100149
INDEX 01 00:00:00
FILE "08 Goodbye Blue Sky.wav" WAVE
TRACK 08 AUDIO
TITLE "Goodbye Blue Sky"
PERFORMER "Pink Floyd"
ISRC GA]IJ1100149
INDEX 01 00:00:00
FILE "09 Empty Spaces.wav" WAVE
TRACK 09 AUDIO
TITLE "Empty Spaces"
PERFORMER "Pink Floyd"
ISRC GA]IJ1100151
INDEX 01 00:00:00
FILE "10 What Shall We Do Now.wav" WAVE
TRACK 10 AUDIO
TITLE "What Shall We Do Now?"
PERFORMER "Pink Floyd"
ISRC GA]IJ1100152
INDEX 01 00:00:00
FILE "11 Young Lust.wav" WAVE
TRACK 11 AUDIO
TITLE "Young Lust"
PERFORMER "Pink Floyd"
ISRC GA]IJ1100153
INDEX 01 00:00:00
FILE "12 One of My Turns.wav" WAVE
TRACK 12 AUDIO
TITLE "One of My Turns"
PERFORMER "Pink Floyd"
ISRC GA]IJ1100154
INDEX 01 00:00:00
FILE "13 Don't Leave Me Now.wav" WAVE
TRACK 13 AUDIO
TITLE "Don't Leave Me Now"
PERFORMER "Pink Floyd"
ISRC GA]IJ1100155
INDEX 01 00:00:00
FILE "14 Another Brick in the Wall, Pt. 3.wav" WAVE
TRACK 14 AUDIO
TITLE "Another Brick in the Wall, Pt. 3"
PERFORMER "Pink Floyd"
ISRC GA]IJ1100155
INDEX 01 00:00:00
FILE "15 The Last Few Bricks.wav" WAVE
TRACK 15 AUDIO
TITLE "The Last Few Bricks"
PERFORMER "Pink Floyd"
ISRC GA]IJ1100157
INDEX 01 00:00:00
FILE "16 Goodbye Cruel World.wav" WAVE
TRACK 16 AUDIO
TITLE "Goodbye Cruel World"
PERFORMER "Pink Floyd"
ISRC GA]IJ1100157
INDEX 01 00:00:00
REM GENRE Blues 
REM DATE 1981
REM DISCID DB0C140E
REM COMMENT "ExactAudioCopy v1.0b3"
PERFORMER "Pink Floyd"
TITLE "The Wall (Immersion) (CD4)"
FILE "01 Hey You.wav" WAVE
TRACK 01 AUDIO
TITLE "Hey You"
PERFORMER "Pink Floyd"
ISRC GA]IJ1100159
INDEX 01 00:00:00
FILE "02 Is There Anybody Out There.wav" WAVE
TRACK 02 AUDIO
TITLE "Is There Anybody Out There?"
PERFORMER "Pink Floyd"
ISRC GA]IJ1100160
INDEX 01 00:00:00
FILE "03 Nobody Home.wav" WAVE
TRACK 03 AUDIO
TITLE "Nobody Home"
PERFORMER "Pink Floyd"
ISRC GA]IJ1100161
INDEX 01 00:00:00
FILE "04 Vera.wav" WAVE
TRACK 04 AUDIO
TITLE "Vera"
PERFORMER "Pink Floyd"
ISRC GA]IJ1100162
INDEX 01 00:00:00
FILE "05 Bring The Boys Back Home.wav" WAVE
TRACK 05 AUDIO
TITLE "Bring The Boys Back Home"
PERFORMER "Pink Floyd"
ISRC GA]IJ1100162
INDEX 01 00:00:00
FILE "06 Comfortably Numb.wav" WAVE
TRACK 06 AUDIO
TITLE "Comfortably Numb"
PERFORMER "Pink Floyd"
ISRC GA]IJ1100164
INDEX 01 00:00:00
FILE "07 The Show Must Go On.wav" WAVE
TRACK 07 AUDIO
TITLE "The Show Must Go On"
PERFORMER "Pink Floyd"
ISRC GA]IJ1100165
INDEX 01 00:00:00
FILE "08 Mc; Atmos.wav" WAVE
TRACK 08 AUDIO
TITLE "Mc; Atmos"
PERFORMER "Pink Floyd"
ISRC GA]IJ1100165
INDEX 01 00:00:00
FILE "09 In The Flesh.wav" WAVE
TRACK 09 AUDIO
TITLE "In The Flesh"
PERFORMER "Pink Floyd"
ISRC GA]IJ1100167
INDEX 01 00:00:00
FILE "10 Run Like Hell.wav" WAVE
TRACK 10 AUDIO
TITLE "Run Like Hell"
PERFORMER "Pink Floyd"
ISRC GA]IJ1100168
INDEX 01 00:00:00
FILE "11 Waiting For The Worms.wav" WAVE
TRACK 11 AUDIO
TITLE "Waiting For The Worms"
PERFORMER "Pink Floyd"
ISRC GA]IJ1100169
INDEX 01 00:00:00
FILE "12 Stop.wav" WAVE
TRACK 12 AUDIO
TITLE "Stop"
PERFORMER "Pink Floyd"
ISRC GA]IJ1100170
INDEX 01 00:00:00
FILE "13 The Trial.wav" WAVE
TRACK 13 AUDIO
TITLE "The Trial"
PERFORMER "Pink Floyd"
ISRC GA]IJ1100171
INDEX 01 00:00:00
FILE "14 Outside The Wall.wav" WAVE
TRACK 14 AUDIO
TITLE "Outside The Wall"
PERFORMER "Pink Floyd"
ISRC GA]IJ1100171
INDEX 01 00:00:00
REM GENRE Rock 
REM DATE 1979
REM DISCID 2C10B929
REM COMMENT "ExactAudioCopy v1.0b3"
PERFORMER "Pink Floyd"
TITLE "The Wall (Immersion) (CD5)"
FILE "01 PROGRAMME 1 - Prelude (Vera Lynn) - Roger Waters Original Demo.wav" WAVE
TRACK 01 AUDIO
TITLE "PROGRAMME 1 - Prelude (Vera Lynn) - Roger Waters Original Demo"
PERFORMER "Pink Floyd"
ISRC GA]IJ1100209
INDEX 01 00:00:00
FILE "02 PROGRAMME 1 - Another Brick In The Wall, Part 2 - Roger Waters Original Demo.wav" WAVE
TRACK 02 AUDIO
TITLE "PROGRAMME 1 - Another Brick In The Wall, Part 2 - Roger Waters Original Demo"
PERFORMER "Pink Floyd"
ISRC GA]IJ1100210
INDEX 01 00:00:00
FILE "03 PROGRAMME 1 - Mother - Roger Waters Original Demo.wav" WAVE
TRACK 03 AUDIO
TITLE "PROGRAMME 1 - Mother - Roger Waters Original Demo"
PERFORMER "Pink Floyd"
ISRC GA]IJ1100211
INDEX 01 00:00:00
FILE "04 PROGRAMME 1 - Young Lust - Roger Waters Original Demo.wav" WAVE
TRACK 04 AUDIO
TITLE "PROGRAMME 1 - Young Lust - Roger Waters Original Demo"
PERFORMER "Pink Floyd"
ISRC GA]IJ1100212
INDEX 01 00:00:00
FILE "05 PROGRAMME 1 - Another Brick In The Wall, Part 2 - Roger Waters Original Demo.wav" WAVE
TRACK 05 AUDIO
TITLE "PROGRAMME 1 - Another Brick In The Wall, Part 2 - Roger Waters Original Demo"
PERFORMER "Pink Floyd"
ISRC GA]IJ1100213
INDEX 01 00:00:00
FILE "06 PROGRAMME 1 - Empty Spaces - Roger Waters Original Demo.wav" WAVE
TRACK 06 AUDIO
TITLE "PROGRAMME 1 - Empty Spaces - Roger Waters Original Demo"
PERFORMER "Pink Floyd"
ISRC GA]IJ1100213
INDEX 01 00:00:00
FILE "07 PROGRAMME 1 - Mother - Roger Waters Original Demo.wav" WAVE
TRACK 07 AUDIO
TITLE "PROGRAMME 1 - Mother - Roger Waters Original Demo"
PERFORMER "Pink Floyd"
ISRC GA]IJ1100215
INDEX 01 00:00:00
FILE "08 PROGRAMME 1 - Backs To The Wall - Roger Waters Original Demo.wav" WAVE
TRACK 08 AUDIO
TITLE "PROGRAMME 1 - Backs To The Wall - Roger Waters Original Demo"
PERFORMER "Pink Floyd"
ISRC GA]IJ1100216
INDEX 01 00:00:00
FILE "09 PROGRAMME 1 - Don't Leave Me Now - Roger Waters Original Demo.wav" WAVE
TRACK 09 AUDIO
TITLE "PROGRAMME 1 - Don't Leave Me Now - Roger Waters Original Demo"
PERFORMER "Pink Floyd"
ISRC GA]IJ1100217
INDEX 01 00:00:00
FILE "10 PROGRAMME 1 - Goodbye Blue Sky - Roger Waters Original Demo.wav" WAVE
TRACK 10 AUDIO
TITLE "PROGRAMME 1 - Goodbye Blue Sky - Roger Waters Original Demo"
PERFORMER "Pink Floyd"
ISRC GA]IJ1100217
INDEX 01 00:00:00
FILE "11 PROGRAMME 1 - Don't Leave Me Now - Roger Waters Original Demo.wav" WAVE
TRACK 11 AUDIO
TITLE "PROGRAMME 1 - Don't Leave Me Now - Roger Waters Original Demo"
PERFORMER "Pink Floyd"
ISRC GA]IJ1100219
INDEX 01 00:00:00
FILE "12 PROGRAMME 1 - Another Brick In The Wall, Part 3 - Roger Waters Original Demo.wav" WAVE
TRACK 12 AUDIO
TITLE "PROGRAMME 1 - Another Brick In The Wall, Part 3 - Roger Waters Original Demo"
PERFORMER "Pink Floyd"
ISRC GA]IJ1100220
INDEX 01 00:00:00
FILE "13 PROGRAMME 1 - Goodbye Cruel World - Roger Waters Original Demo.wav" WAVE
TRACK 13 AUDIO
TITLE "PROGRAMME 1 - Goodbye Cruel World - Roger Waters Original Demo"
PERFORMER "Pink Floyd"
ISRC GA]IJ1100221
INDEX 01 00:00:00
FILE "14 PROGRAMME 1 - Hey You - Roger Waters Original Demo.wav" WAVE
TRACK 14 AUDIO
TITLE "PROGRAMME 1 - Hey You - Roger Waters Original Demo"
PERFORMER "Pink Floyd"
ISRC GA]IJ1100222
INDEX 01 00:00:00
FILE "15 PROGRAMME 1 - Is There Anybody Out There - Roger Waters Original Demo.wav" WAVE
TRACK 15 AUDIO
TITLE "PROGRAMME 1 - Is There Anybody Out There - Roger Waters Original Demo"
PERFORMER "Pink Floyd"
ISRC GA]IJ1100222
INDEX 01 00:00:00
FILE "16 PROGRAMME 1 - Vera - Roger Waters Original Demo.wav" WAVE
TRACK 16 AUDIO
TITLE "PROGRAMME 1 - Vera - Roger Waters Original Demo"
PERFORMER "Pink Floyd"
ISRC GA]IJ1100224
INDEX 01 00:00:00
FILE "17 PROGRAMME 1 - Bring The Boys Back Home - Roger Waters Original Demo.wav" WAVE
TRACK 17 AUDIO
TITLE "PROGRAMME 1 - Bring The Boys Back Home - Roger Waters Original Demo"
PERFORMER "Pink Floyd"
ISRC GA]IJ1100225
INDEX 01 00:00:00
FILE "18 PROGRAMME 1 - The Show Must Go On - Roger Waters Original Demo.wav" WAVE
TRACK 18 AUDIO
TITLE "PROGRAMME 1 - The Show Must Go On - Roger Waters Original Demo"
PERFORMER "Pink Floyd"
ISRC GA]IJ1100226
INDEX 01 00:00:00
FILE "19 PROGRAMME 1 - Waiting For The Worms - Roger Waters Original Demo.wav" WAVE
TRACK 19 AUDIO
TITLE "PROGRAMME 1 - Waiting For The Worms - Roger Waters Original Demo"
PERFORMER "Pink Floyd"
ISRC GA]IJ1100227
INDEX 01 00:00:00
FILE "20 PROGRAMME 1 - Run Like Hell - Roger Waters Original Demo.wav" WAVE
TRACK 20 AUDIO
TITLE "PROGRAMME 1 - Run Like Hell - Roger Waters Original Demo"
PERFORMER "Pink Floyd"
ISRC GA]IJ1100228
INDEX 01 00:00:00
FILE "21 PROGRAMME 1 - The Trial - Roger Waters Original Demo.wav" WAVE
TRACK 21 AUDIO
TITLE "PROGRAMME 1 - The Trial - Roger Waters Original Demo"
PERFORMER "Pink Floyd"
ISRC GA]IJ1100229
INDEX 01 00:00:00
FILE "22 PROGRAMME 1 - Outside The Wall - Roger Waters Original Demo.wav" WAVE
TRACK 22 AUDIO
TITLE "PROGRAMME 1 - Outside The Wall - Roger Waters Original Demo"
PERFORMER "Pink Floyd"
ISRC GA]IJ1100229
INDEX 01 00:00:00
FILE "23 PROGRAMME 2 - Prelude (Vera Lynn) - Roger Waters Original Demo.wav" WAVE
TRACK 23 AUDIO
TITLE "PROGRAMME 2 - Prelude (Vera Lynn) - Roger Waters Original Demo"
PERFORMER "Pink Floyd"
ISRC GA]IJ1100231
INDEX 01 00:00:00
FILE "24 PROGRAMME 2 - Another Brick In The Wall, Part 1 - Band Demo.wav" WAVE
TRACK 24 AUDIO
TITLE "PROGRAMME 2 - Another Brick In The Wall, Part 1 - Band Demo"
PERFORMER "Pink Floyd"
ISRC GA]IJ1100208
INDEX 01 00:00:00
FILE "25 PROGRAMME 2 - The Thin Ice - Band Demo.wav" WAVE
TRACK 25 AUDIO
TITLE "PROGRAMME 2 - The Thin Ice - Band Demo"
PERFORMER "Pink Floyd"
ISRC GA]IJ1100232
INDEX 01 00:00:00
FILE "26 PROGRAMME 2 - Goodbye Blue Sky - Band Demo.wav" WAVE
TRACK 26 AUDIO
TITLE "PROGRAMME 2 - Goodbye Blue Sky - Band Demo"
PERFORMER "Pink Floyd"
ISRC GA]IJ1100233
INDEX 01 00:00:00
FILE "27 PROGRAMME 2 - Teacher, Teacher - Band Demo.wav" WAVE
TRACK 27 AUDIO
TITLE "PROGRAMME 2 - Teacher, Teacher - Band Demo"
PERFORMER "Pink Floyd"
ISRC GA]IJ1100234
INDEX 01 00:00:00
FILE "28 PROGRAMME 2 - Another Brick In The Wall, Part 2 - Band Demo.wav" WAVE
TRACK 28 AUDIO
TITLE "PROGRAMME 2 - Another Brick In The Wall, Part 2 - Band Demo"
PERFORMER "Pink Floyd"
ISRC GA]IJ1100235
INDEX 01 00:00:00
FILE "29 PROGRAMME 2 - Empty Spaces - Band Demo.wav" WAVE
TRACK 29 AUDIO
TITLE "PROGRAMME 2 - Empty Spaces - Band Demo"
PERFORMER "Pink Floyd"
ISRC GA]IJ1100236
INDEX 01 00:00:00
FILE "30 PROGRAMME 2 - Young Lust - Band Demo.wav" WAVE
TRACK 30 AUDIO
TITLE "PROGRAMME 2 - Young Lust - Band Demo"
PERFORMER "Pink Floyd"
ISRC GA]IJ1100236
INDEX 01 00:00:00
FILE "31 PROGRAMME 2 - Mother - Band Demo.wav" WAVE
TRACK 31 AUDIO
TITLE "PROGRAMME 2 - Mother - Band Demo"
PERFORMER "Pink Floyd"
ISRC GA]IJ1100237
INDEX 01 00:00:00
FILE "32 PROGRAMME 2 - Don't Leave Me Now - Band Demo.wav" WAVE
TRACK 32 AUDIO
TITLE "PROGRAMME 2 - Don't Leave Me Now - Band Demo"
PERFORMER "Pink Floyd"
ISRC GA]IJ1100239
INDEX 01 00:00:00
FILE "33 PROGRAMME 2 - Sexual Revolution - Band Demo.wav" WAVE
TRACK 33 AUDIO
TITLE "PROGRAMME 2 - Sexual Revolution - Band Demo"
PERFORMER "Pink Floyd"
ISRC GA]IJ1100239
INDEX 01 00:00:00
FILE "34 PROGRAMME 2 - Another Brick In The Wall, Part 3 - Band Demo.wav" WAVE
TRACK 34 AUDIO
TITLE "PROGRAMME 2 - Another Brick In The Wall, Part 3 - Band Demo"
PERFORMER "Pink Floyd"
ISRC GA]IJ1100241
INDEX 01 00:00:00
FILE "35 PROGRAMME 2 - Goodbye Cruel World - Band Demo.wav" WAVE
TRACK 35 AUDIO
TITLE "PROGRAMME 2 - Goodbye Cruel World - Band Demo"
PERFORMER "Pink Floyd"
ISRC GA]IJ1100242
INDEX 01 00:00:00
FILE "36 PROGRAMME 3 - In The Flesh - Band Demo.wav" WAVE
TRACK 36 AUDIO
TITLE "PROGRAMME 3 - In The Flesh - Band Demo"
PERFORMER "Pink Floyd"
ISRC GA]IJ1100243
INDEX 01 00:00:00
FILE "37 PROGRAMME 3 - The Thin Ice - Band Demo.wav" WAVE
TRACK 37 AUDIO
TITLE "PROGRAMME 3 - The Thin Ice - Band Demo"
PERFORMER "Pink Floyd"
ISRC GA]IJ1100244
INDEX 01 00:00:00
FILE "38 PROGRAMME 3 - Another Brick In The Wall, Part 1 - Band Demo.wav" WAVE
TRACK 38 AUDIO
TITLE "PROGRAMME 3 - Another Brick In The Wall, Part 1 - Band Demo"
PERFORMER "Pink Floyd"
ISRC GA]IJ1100245
INDEX 01 00:00:00
FILE "39 PROGRAMME 3 - The Happiest Days Of Your Lives - Band Demo.wav" WAVE
TRACK 39 AUDIO
TITLE "PROGRAMME 3 - The Happiest Days Of Your Lives - Band Demo"
PERFORMER "Pink Floyd"
ISRC GA]IJ1100245
INDEX 01 00:00:00
FILE "40 PROGRAMME 3 - Another Brick In The Wall, Part 2 - Band Demo.wav" WAVE
TRACK 40 AUDIO
TITLE "PROGRAMME 3 - Another Brick In The Wall, Part 2 - Band Demo"
PERFORMER "Pink Floyd"
ISRC GA]IJ1100247
INDEX 01 00:00:00
FILE "41 PROGRAMME 3 - Mother - Band Demo.wav" WAVE
TRACK 41 AUDIO
TITLE "PROGRAMME 3 - Mother - Band Demo"
PERFORMER "Pink Floyd"
ISRC GA]IJ1100248
INDEX 01 00:00:00
REM GENRE "Progressive Rock" 
REM DATE 1979
REM DISCID 4A0D7917
REM COMMENT "ExactAudioCopy v1.0b3"
PERFORMER "Pink Floyd"
TITLE "The Wall (Immersion) (CD6)"
FILE "01 PROGRAMME 1 - Is There Anybody Out There (Roger Waters Original Demo).wav" WAVE
TRACK 01 AUDIO
TITLE "PROGRAMME 1 - Is There Anybody Out There (Roger Waters Original Demo)"
PERFORMER "Pink Floyd"
ISRC GA]IJ1100249
INDEX 01 00:00:00
FILE "02 PROGRAMME 1 - Vera (Roger Waters Original Demo).wav" WAVE
TRACK 02 AUDIO
TITLE "PROGRAMME 1 - Vera (Roger Waters Original Demo)"
PERFORMER "Pink Floyd"
ISRC GA]IJ1100250
INDEX 01 00:00:00
FILE "03 PROGRAMME 1 - Bring The Boys Back Home (Roger Waters Original Demo).wav" WAVE
TRACK 03 AUDIO
TITLE "PROGRAMME 1 - Bring The Boys Back Home (Roger Waters Original Demo)"
PERFORMER "Pink Floyd"
ISRC GA]IJ1100251
INDEX 01 00:00:00
FILE "04 PROGRAMME 1 - Hey You (Band Demo).wav" WAVE
TRACK 04 AUDIO
TITLE "PROGRAMME 1 - Hey You (Band Demo)"
PERFORMER "Pink Floyd"
ISRC GA]IJ1100252
INDEX 01 00:00:00
FILE "05 PROGRAMME 1 - The Doctor (Comfortably Numb - Band Demo).wav" WAVE
TRACK 05 AUDIO
TITLE "PROGRAMME 1 - The Doctor (Comfortably Numb - Band Demo)"
PERFORMER "Pink Floyd"
ISRC GA]IJ1100253
INDEX 01 00:00:00
FILE "06 PROGRAMME 1 - In The Flesh (Band Demo).wav" WAVE
TRACK 06 AUDIO
TITLE "PROGRAMME 1 - In The Flesh (Band Demo)"
PERFORMER "Pink Floyd"
ISRC GA]IJ1100254
INDEX 01 00:00:00
FILE "07 PROGRAMME 1 - Run Like Hell (Band Demo).wav" WAVE
TRACK 07 AUDIO
TITLE "PROGRAMME 1 - Run Like Hell (Band Demo)"
PERFORMER "Pink Floyd"
ISRC GA]IJ1100255
INDEX 01 00:00:00
FILE "08 PROGRAMME 1 - Waiting For The Worms (Band Demo).wav" WAVE
TRACK 08 AUDIO
TITLE "PROGRAMME 1 - Waiting For The Worms (Band Demo)"
PERFORMER "Pink Floyd"
ISRC GA]IJ1100256
INDEX 01 00:00:00
FILE "09 PROGRAMME 1 - The Trail (Band Demo).wav" WAVE
TRACK 09 AUDIO
TITLE "PROGRAMME 1 - The Trail (Band Demo)"
PERFORMER "Pink Floyd"
ISRC GA]IJ1100257
INDEX 01 00:00:00
FILE "10 PROGRAMME 1 - The Show Must Go On (Band Demo).wav" WAVE
TRACK 10 AUDIO
TITLE "PROGRAMME 1 - The Show Must Go On (Band Demo)"
PERFORMER "Pink Floyd"
ISRC GA]IJ1100258
INDEX 01 00:00:00
FILE "11 PROGRAMME 1 - Outside The Wall (Band Demo).wav" WAVE
TRACK 11 AUDIO
TITLE "PROGRAMME 1 - Outside The Wall (Band Demo)"
PERFORMER "Pink Floyd"
ISRC GA]IJ1100259
INDEX 01 00:00:00
FILE "12 PROGRAMME 1 - The Thin Ice (reprise - Band Demo).wav" WAVE
TRACK 12 AUDIO
TITLE "PROGRAMME 1 - The Thin Ice (reprise - Band Demo)"
PERFORMER "Pink Floyd"
ISRC GA]IJ1100260
INDEX 01 00:00:00
FILE "13 PROGRAMME 2 - Outside The Wall (Band Demo).wav" WAVE
TRACK 13 AUDIO
TITLE "PROGRAMME 2 - Outside The Wall (Band Demo)"
PERFORMER "Pink Floyd"
ISRC GA]IJ1100261
INDEX 01 00:00:00
FILE "14 PROGRAMME 2 - It's Never Too Late (Band Demo).wav" WAVE
TRACK 14 AUDIO
TITLE "PROGRAMME 2 - It's Never Too Late (Band Demo)"
PERFORMER "Pink Floyd"
ISRC GA]IJ1100262
INDEX 01 00:00:00
FILE "15 PROGRAMME 2 - The Doctor (Comfortably Numb - Band Demo).wav" WAVE
TRACK 15 AUDIO
TITLE "PROGRAMME 2 - The Doctor (Comfortably Numb - Band Demo)"
PERFORMER "Pink Floyd"
ISRC GA]IJ1100263
INDEX 01 00:00:00
FILE "16 PROGRAMME 3 - One Of My Turns (Band Demo).wav" WAVE
TRACK 16 AUDIO
TITLE "PROGRAMME 3 - One Of My Turns (Band Demo)"
PERFORMER "Pink Floyd"
ISRC GA]IJ1100264
INDEX 01 00:00:00
FILE "17 PROGRAMME 3 - Don't Leave Me Now (Band Demo).wav" WAVE
TRACK 17 AUDIO
TITLE "PROGRAMME 3 - Don't Leave Me Now (Band Demo)"
PERFORMER "Pink Floyd"
ISRC GA]IJ1100265
INDEX 01 00:00:00
FILE "18 PROGRAMME 3 - Empty Spaces (Band Demo).wav" WAVE
TRACK 18 AUDIO
TITLE "PROGRAMME 3 - Empty Spaces (Band Demo)"
PERFORMER "Pink Floyd"
ISRC GA]IJ1100266
INDEX 01 00:00:00
FILE "19 PROGRAMME 3 - Backs To The Wall (Band Demo).wav" WAVE
TRACK 19 AUDIO
TITLE "PROGRAMME 3 - Backs To The Wall (Band Demo)"
PERFORMER "Pink Floyd"
ISRC GA]IJ1100267
INDEX 01 00:00:00
FILE "20 PROGRAMME 3 - Another Brick In The Wall, Part 3 (Band Demo).wav" WAVE
TRACK 20 AUDIO
TITLE "PROGRAMME 3 - Another Brick In The Wall, Part 3 (Band Demo)"
PERFORMER "Pink Floyd"
ISRC GA]IJ1100267
INDEX 01 00:00:00
FILE "21 PROGRAMME 3 - Goodbye Cruel World (Band Demo).wav" WAVE
TRACK 21 AUDIO
TITLE "PROGRAMME 3 - Goodbye Cruel World (Band Demo)"
PERFORMER "Pink Floyd"
ISRC GA]IJ1100268
INDEX 01 00:00:00
FILE "22 PROGRAMME 4 - Comfortably Numb (David Gilmour Original Demo).wav" WAVE
TRACK 22 AUDIO
TITLE "PROGRAMME 4 - Comfortably Numb (David Gilmour Original Demo)"
PERFORMER "Pink Floyd"
ISRC GA]IJ1100270
INDEX 01 00:00:00
FILE "23 PROGRAMME 4 - Run Like Hell (David Gilmour Original Demo).wav" WAVE
TRACK 23 AUDIO
TITLE "PROGRAMME 4 - Run Like Hell (David Gilmour Original Demo)"
PERFORMER "Pink Floyd"
ISRC GA]IJ1100271
INDEX 01 00:00:00
info [Профиль]  [ЛС] 

agerage

Пол: Пол:Муж

Стаж: 10 лет

Сообщений: 836

Япония
Рейтинг

post 08-Мар-2012 04:39 (спустя 17 часов) [-]0[+]

[Цитировать] 

Смотрю впервые выпустили демо записи, спасибо скачаем!
info [Профиль]  [ЛС] 
Показать сообщения:    
Ответить на тему

Текущее время: 12-Июл 22:34

Часовой пояс: GMT + 4



Вы не можете начинать темы
Вы не можете отвечать на сообщения
Вы не можете редактировать свои сообщения
Вы не можете удалять свои сообщения
Вы не можете голосовать в опросах
Вы не можете прикреплять файлы к сообщениям
Вы не можете скачивать файлы