Ошибка

(Orchestral) E.S. Posthumus - Makara - 2010, FLAC (tracks+.cue), lossless

Ответить на тему
 
Автор Сообщение

Rock Star

Пол: Пол:Муж

Стаж: 10 лет

Сообщений: 780

Рейтинг

post 05-Дек-2011 17:51 0[+]

[Цитировать] 

pic="http://s002.youpic.su/pictures/1323032400/399c8506f8b8c7bff9e9c4e3fa088959.jpg"
E.S. Posthumus - Makara

Жанр: Electronic|Rock|Ambient|Orchestral Год издания данного носителя: 2010 Страна-производитель носителя: US Тип релиза: tracks+.cue
Аудио кодек: flac Битрейт аудио: lossless Продолжительность: 59:51 Лейбл: Wigshop Records Каталоговый номер: WS2238

1. Kalki
2. Varuna
3. Unstoppable
4. Durga
5. Manju
6. Kuvera
7. Ushas
8. Lavanya
9. Vishnu
10. Indra
11. Arise
12. Saint Matthew Passion
13. Krosah
14. Anumati
15. Moonlight Sonata

Код:

Exact Audio Copy V0.99 prebeta 5 from 4. May 2009

EAC extraction logfile from 14. February 2010, 21:11

E. S. Posthumus / Makara

Used drive  : TSSTcorpCDDVDW SH-S202J   Adapter: 0  ID: 0

Read mode               : Secure
Utilize accurate stream : Yes
Defeat audio cache      : Yes
Make use of C2 pointers : No

Read offset correction                      : 6
Overread into Lead-In and Lead-Out          : No
Fill up missing offset samples with silence : Yes
Delete leading and trailing silent blocks   : No
Null samples used in CRC calculations       : Yes
Used interface                              : Native Win32 interface for Win NT & 2000
Gap handling                                : Appended to previous track

Used output format              : User Defined Encoder
Selected bitrate                : 1024 kBit/s
Quality                         : High
Add ID3 tag                     : No
Command line compressor         : C:\Program Files (x86)\Exact Audio Copy\FLAC\FLAC.EXE
Additional command line options : -V -8 -T "artist=%a" -T "title=%t" -T "album=%g" -T "date=%y" -T "tracknumber=%n" -T "genre=%m" %s 

TOC of the extracted CD

     Track |   Start  |  Length  | Start sector | End sector
    ---------------------------------------------------------
        1  |  0:00.00 |  3:05.29 |         0    |    13903   
        2  |  3:05.29 |  4:17.36 |     13904    |    33214   
        3  |  7:22.65 |  3:04.56 |     33215    |    47070   
        4  | 10:27.46 |  3:41.22 |     47071    |    63667   
        5  | 14:08.68 |  4:18.06 |     63668    |    83023   
        6  | 18:26.74 |  4:05.19 |     83024    |   101417   
        7  | 22:32.18 |  3:55.22 |    101418    |   119064   
        8  | 26:27.40 |  3:57.11 |    119065    |   136850   
        9  | 30:24.51 |  3:38.16 |    136851    |   153216   
       10  | 34:02.67 |  4:18.28 |    153217    |   172594   
       11  | 38:21.20 |  4:12.12 |    172595    |   191506   
       12  | 42:33.32 |  3:38.10 |    191507    |   207866   
       13  | 46:11.42 |  4:50.15 |    207867    |   229631   
       14  | 51:01.57 |  3:19.25 |    229632    |   244581   
       15  | 54:21.07 |  5:30.13 |    244582    |   269344   

Track  1

     Filename I:\01 E. S. Posthumus - Kalki.wav

     Pre-gap length  0:00:02.00

     Peak level 98.8 %
     Track quality 100.0 %
     Test CRC 26D79643
     Copy CRC 26D79643
     Track not present in AccurateRip database
     Copy OK

Track  2

     Filename I:\02 E. S. Posthumus - Varuna.wav

     Peak level 98.8 %
     Track quality 100.0 %
     Test CRC 77E9E686
     Copy CRC 77E9E686
     Track not present in AccurateRip database
     Copy OK

Track  3

     Filename I:\03 E. S. Posthumus - Unstoppable.wav

     Peak level 98.8 %
     Track quality 100.0 %
     Test CRC A68E069F
     Copy CRC A68E069F
     Track not present in AccurateRip database
     Copy OK

Track  4

     Filename I:\04 E. S. Posthumus - Durga.wav

     Peak level 100.0 %
     Track quality 100.0 %
     Test CRC 87D485E2
     Copy CRC 87D485E2
     Track not present in AccurateRip database
     Copy OK

Track  5

     Filename I:\05 E. S. Posthumus - Manju.wav

     Peak level 98.8 %
     Track quality 100.0 %
     Test CRC E6DF3BCA
     Copy CRC E6DF3BCA
     Track not present in AccurateRip database
     Copy OK

Track  6

     Filename I:\06 E. S. Posthumus - Kuvera.wav

     Peak level 100.0 %
     Track quality 100.0 %
     Test CRC 92DA3877
     Copy CRC 92DA3877
     Track not present in AccurateRip database
     Copy OK

Track  7

     Filename I:\07 E. S. Posthumus - Ushas.wav

     Peak level 98.8 %
     Track quality 100.0 %
     Test CRC A39CD64A
     Copy CRC A39CD64A
     Track not present in AccurateRip database
     Copy OK

Track  8

     Filename I:\08 E. S. Posthumus - Lavanya.wav

     Peak level 98.8 %
     Track quality 100.0 %
     Test CRC 3A3C43AF
     Copy CRC 3A3C43AF
     Track not present in AccurateRip database
     Copy OK

Track  9

     Filename I:\09 E. S. Posthumus - Vishnu.wav

     Peak level 100.0 %
     Track quality 100.0 %
     Test CRC 629DFE95
     Copy CRC 629DFE95
     Track not present in AccurateRip database
     Copy OK

Track 10

     Filename I:\10 E. S. Posthumus - Indra.wav

     Peak level 98.8 %
     Track quality 99.9 %
     Test CRC 6AC89616
     Copy CRC 6AC89616
     Track not present in AccurateRip database
     Copy OK

Track 11

     Filename I:\11 E. S. Posthumus - Arise.wav

     Pre-gap length  0:00:00.01

     Peak level 98.8 %
     Track quality 100.0 %
     Test CRC 7C6F4B49
     Copy CRC 7C6F4B49
     Track not present in AccurateRip database
     Copy OK

Track 12

     Filename I:\12 E. S. Posthumus - Saint Matthew Passion.wav

     Peak level 98.8 %
     Track quality 99.9 %
     Test CRC 19836C63
     Copy CRC 19836C63
     Track not present in AccurateRip database
     Copy OK

Track 13

     Filename I:\13 E. S. Posthumus - Krosah.wav

     Peak level 98.8 %
     Track quality 99.9 %
     Test CRC 4D0732EC
     Copy CRC 4D0732EC
     Track not present in AccurateRip database
     Copy OK

Track 14

     Filename I:\14 E. S. Posthumus - Anumati.wav

     Peak level 98.8 %
     Track quality 100.0 %
     Test CRC 87C3AFA7
     Copy CRC 87C3AFA7
     Track not present in AccurateRip database
     Copy OK

Track 15

     Filename I:\15 E. S. Posthumus - Moonlight Sonata.wav

     Peak level 98.8 %
     Track quality 100.0 %
     Test CRC 30A726FA
     Copy CRC 30A726FA
     Track not present in AccurateRip database
     Copy OK

None of the tracks are present in the AccurateRip database

No errors occurred

End of status report

Код:

REM GENRE Orchestral
REM DATE 2010
REM DISCID CB0E070F
REM COMMENT "ExactAudioCopy v0.99pb5"
FILE "01 E. S. Posthumus - Kalki.wav" WAVE
  TRACK 01 AUDIO
    INDEX 01 00:00:00
FILE "02 E. S. Posthumus - Varuna.wav" WAVE
  TRACK 02 AUDIO
    INDEX 01 00:00:00
FILE "03 E. S. Posthumus - Unstoppable.wav" WAVE
  TRACK 03 AUDIO
    INDEX 01 00:00:00
FILE "04 E. S. Posthumus - Durga.wav" WAVE
  TRACK 04 AUDIO
    INDEX 01 00:00:00
FILE "05 E. S. Posthumus - Manju.wav" WAVE
  TRACK 05 AUDIO
    INDEX 01 00:00:00
FILE "06 E. S. Posthumus - Kuvera.wav" WAVE
  TRACK 06 AUDIO
    INDEX 01 00:00:00
FILE "07 E. S. Posthumus - Ushas.wav" WAVE
  TRACK 07 AUDIO
    INDEX 01 00:00:00
FILE "08 E. S. Posthumus - Lavanya.wav" WAVE
  TRACK 08 AUDIO
    INDEX 01 00:00:00
FILE "09 E. S. Posthumus - Vishnu.wav" WAVE
  TRACK 09 AUDIO
    INDEX 01 00:00:00
FILE "10 E. S. Posthumus - Indra.wav" WAVE
  TRACK 10 AUDIO
    INDEX 01 00:00:00
  TRACK 11 AUDIO
    INDEX 00 04:18:27
FILE "11 E. S. Posthumus - Arise.wav" WAVE
    INDEX 01 00:00:00
FILE "12 E. S. Posthumus - Saint Matthew Passion.wav" WAVE
  TRACK 12 AUDIO
    INDEX 01 00:00:00
FILE "13 E. S. Posthumus - Krosah.wav" WAVE
  TRACK 13 AUDIO
    INDEX 01 00:00:00
FILE "14 E. S. Posthumus - Anumati.wav" WAVE
  TRACK 14 AUDIO
    INDEX 01 00:00:00
FILE "15 E. S. Posthumus - Moonlight Sonata.wav" WAVE
  TRACK 15 AUDIO
    INDEX 01 00:00:00
info [Профиль]  [ЛС] 

Zet1x

Пол: Пол:Муж

Стаж: 12 лет

Сообщений: 49

Украина
Рейтинг

post 05-Дек-2011 19:52 (спустя 2 часа 1 минута) [-]0[+]

[Цитировать] 

Спасибо, очень понравилось.

Порекомендуйте ещё в таком ключе.
info [Профиль]  [ЛС] 

Rock Star

Пол: Пол:Муж

Стаж: 10 лет

Сообщений: 780

Рейтинг

post 05-Дек-2011 20:29 (спустя 37 минут) [-]0[+]

[Цитировать] 

Zet1x
даже не знаю,послушайте другие альбомы
мне только их оркестр нравится,
info [Профиль]  [ЛС] 
Показать сообщения:    
Ответить на тему

Текущее время: 01-Июл 23:26

Часовой пояс: GMT + 4



Вы не можете начинать темы
Вы не можете отвечать на сообщения
Вы не можете редактировать свои сообщения
Вы не можете удалять свои сообщения
Вы не можете голосовать в опросах
Вы не можете прикреплять файлы к сообщениям
Вы не можете скачивать файлы