Ошибка

(Ambient techno) Boards of Canada - The Campfire Headphase [Japanese Edition] - 2005, FLAC (tracks+.cue), lossless

Ответить на тему
 
Автор Сообщение

SilverTea

Пол: Пол:Муж

Стаж: 13 лет

Сообщений: 80

Рейтинг

post 05-Ноя-2011 07:06 0[+]

[Цитировать] 

Boards of Canada - The Campfire Headphase [Japanese Edition]

Жанр: Ambient techno
Происхождение исполнителя: Edinburgh, Scotland
Год первого издания: 2005
Лейбл: Beat Records
Каталоговый номер: BRC-139
Страна-производитель носителя: Japan
Тип релиза: tracks+.cue
Аудио кодек: FLAC
Битрейт аудио: lossless
Продолжительность: 01:07:02
Источник: What.CD (gkl)

Треклист:
01. Into the Rainbow Vein
02. Chromakey Dreamcoat
03. Satellite Anthem Icarus
04. Peacock Tail
05. Dayvan Cowboy
06. A Moment of Clarity
07. '84 Pontiac Dream
08. Sherbet Head
09. Oscar See Through Red Eye
10. Ataronchronon
11. Hey Saturday Sun
12. Constants are Changing
13. Slow This Bird Down
14. Tears from the Compound Eye
15. Farewell Fire

Japanese Edition bonus track:
16. Macquarie Ridge

Код:

Exact Audio Copy V0.99 prebeta 3 from 28. July 2007

EAC extraction logfile from 26. January 2008, 17:47

Boards of Canada / The Campfire Headphase

Used drive  : SAMSUNG CDRW/DVD SM-352F   Adapter: 0  ID: 2

Read mode               : Secure
Utilize accurate stream : Yes
Defeat audio cache      : Yes
Make use of C2 pointers : No

Read offset correction                      : 6
Overread into Lead-In and Lead-Out          : No
Fill up missing offset samples with silence : Yes
Delete leading and trailing silent blocks   : No
Null samples used in CRC calculations       : Yes
Used interface                              : Installed external ASPI interface
Gap handling                                : Appended to previous track

Used output format              : User Defined Encoder
Selected bitrate                : 128 kBit/s
Quality                         : High
Add ID3 tag                     : No
Command line compressor         : C:\Program Files\FLAC\flac.exe
Additional command line options : -V -8 -T "artist=%a" -T "title=%t" -T "album=%g" -T "date=%y" -T "tracknumber=%n" -T "genre=%m" %s

TOC of the extracted CD

     Track |   Start  |  Length  | Start sector | End sector
    ---------------------------------------------------------
        1  |  0:00.00 |  0:44.21 |         0    |     3320   
        2  |  0:44.21 |  5:47.35 |      3321    |    29380   
        3  |  6:31.56 |  6:04.40 |     29381    |    56720   
        4  | 12:36.21 |  5:24.68 |     56721    |    81088   
        5  | 18:01.14 |  5:00.14 |     81089    |   103602   
        6  | 23:01.28 |  0:51.54 |    103603    |   107481   
        7  | 23:53.07 |  3:49.61 |    107482    |   124717   
        8  | 27:42.68 |  2:41.64 |    124718    |   136856   
        9  | 30:24.57 |  5:08.57 |    136857    |   160013   
       10  | 35:33.39 |  1:14.10 |    160014    |   165573   
       11  | 36:47.49 |  4:56.36 |    165574    |   187809   
       12  | 41:44.10 |  1:42.04 |    187810    |   195463   
       13  | 43:26.14 |  6:09.11 |    195464    |   223149   
       14  | 49:35.25 |  4:03.41 |    223150    |   241415   
       15  | 53:38.66 |  8:26.09 |    241416    |   279374   
       16  | 62:05.00 |  4:57.18 |    279375    |   301667   

Track  1

     Filename C:\Documents and Settings\User\Desktop\The Campfire Headphase (Japanese) [FLAC]\01 - Boards of Canada - Into the Rainbow Vein.wav

     Pre-gap length  0:00:02.00

     Peak level 40.4 %
     Track quality 100.0 %
     Test CRC 2409C60C
     Copy CRC 2409C60C
     Copy OK

Track  2

     Filename C:\Documents and Settings\User\Desktop\The Campfire Headphase (Japanese) [FLAC]\02 - Boards of Canada - Chromakey Dreamcoat.wav

     Pre-gap length  0:00:01.29

     Peak level 98.8 %
     Track quality 100.0 %
     Test CRC 51235370
     Copy CRC 51235370
     Copy OK

Track  3

     Filename C:\Documents and Settings\User\Desktop\The Campfire Headphase (Japanese) [FLAC]\03 - Boards of Canada - Satellite Anthem Icarus.wav

     Peak level 98.8 %
     Track quality 100.0 %
     Test CRC EB27989D
     Copy CRC EB27989D
     Copy OK

Track  4

     Filename C:\Documents and Settings\User\Desktop\The Campfire Headphase (Japanese) [FLAC]\04 - Boards of Canada - Peacock Tail.wav

     Peak level 98.8 %
     Track quality 100.0 %
     Test CRC 78A74BCD
     Copy CRC 78A74BCD
     Copy OK

Track  5

     Filename C:\Documents and Settings\User\Desktop\The Campfire Headphase (Japanese) [FLAC]\05 - Boards of Canada - Dayvan Cowboy.wav

     Pre-gap length  0:00:02.34

     Peak level 98.8 %
     Track quality 99.9 %
     Test CRC DFDB5831
     Copy CRC DFDB5831
     Copy OK

Track  6

     Filename C:\Documents and Settings\User\Desktop\The Campfire Headphase (Japanese) [FLAC]\06 - Boards of Canada - A Moment of Clarity.wav

     Peak level 18.2 %
     Track quality 100.0 %
     Test CRC 87039273
     Copy CRC 87039273
     Copy OK

Track  7

     Filename C:\Documents and Settings\User\Desktop\The Campfire Headphase (Japanese) [FLAC]\07 - Boards of Canada - '84 Pontiac Dream.wav

     Pre-gap length  0:00:00.14

     Peak level 98.8 %
     Track quality 99.9 %
     Test CRC 03E1B72E
     Copy CRC 03E1B72E
     Copy OK

Track  8

     Filename C:\Documents and Settings\User\Desktop\The Campfire Headphase (Japanese) [FLAC]\08 - Boards of Canada - Sherbet Head.wav

     Peak level 58.1 %
     Track quality 100.0 %
     Test CRC C6623ECB
     Copy CRC C6623ECB
     Copy OK

Track  9

     Filename C:\Documents and Settings\User\Desktop\The Campfire Headphase (Japanese) [FLAC]\09 - Boards of Canada - Oscar See Through Red Eye.wav

     Peak level 98.8 %
     Track quality 100.0 %
     Test CRC B73D1E30
     Copy CRC B73D1E30
     Copy OK

Track 10

     Filename C:\Documents and Settings\User\Desktop\The Campfire Headphase (Japanese) [FLAC]\10 - Boards of Canada - Ataronchronon.wav

     Peak level 41.3 %
     Track quality 100.0 %
     Test CRC 5D0F54D3
     Copy CRC 5D0F54D3
     Copy OK

Track 11

     Filename C:\Documents and Settings\User\Desktop\The Campfire Headphase (Japanese) [FLAC]\11 - Boards of Canada - Hey Saturday Sun.wav

     Peak level 88.1 %
     Track quality 100.0 %
     Test CRC 654C5DBA
     Copy CRC 654C5DBA
     Copy OK

Track 12

     Filename C:\Documents and Settings\User\Desktop\The Campfire Headphase (Japanese) [FLAC]\12 - Boards of Canada - Constants Are Changing.wav

     Peak level 34.7 %
     Track quality 100.0 %
     Test CRC 6F477BD7
     Copy CRC 6F477BD7
     Copy OK

Track 13

     Filename C:\Documents and Settings\User\Desktop\The Campfire Headphase (Japanese) [FLAC]\13 - Boards of Canada - Slow This Bird Down.wav

     Peak level 100.0 %
     Track quality 100.0 %
     Test CRC BF4BEE32
     Copy CRC BF4BEE32
     Copy OK

Track 14

     Filename C:\Documents and Settings\User\Desktop\The Campfire Headphase (Japanese) [FLAC]\14 - Boards of Canada - Tears From the Compound Eye.wav

     Peak level 44.6 %
     Track quality 100.0 %
     Test CRC DBBEB0AF
     Copy CRC DBBEB0AF
     Copy OK

Track 15

     Filename C:\Documents and Settings\User\Desktop\The Campfire Headphase (Japanese) [FLAC]\15 - Boards of Canada - Farewell Fire.wav

     Peak level 21.9 %
     Track quality 100.0 %
     Test CRC ED57DD46
     Copy CRC ED57DD46
     Copy OK

Track 16

     Filename C:\Documents and Settings\User\Desktop\The Campfire Headphase (Japanese) [FLAC]\16 - Boards of Canada - Macquarie Ridge.wav

     Pre-gap length  0:00:01.82

     Peak level 98.8 %
     Track quality 100.0 %
     Test CRC 80954E30
     Copy CRC 80954E30
     Copy OK

No errors occurred

End of status report

Код:

REM GENRE Electronic
REM DATE 2005
REM DISCID E10FB610
REM COMMENT "ExactAudioCopy v0.99pb3"
PERFORMER "Boards of Canada"
TITLE "The Campfire Headphase"
FILE "01 - Boards of Canada - Into the Rainbow Vein.wav" WAVE
  TRACK 01 AUDIO
    TITLE "Into the Rainbow Vein"
    PERFORMER "Boards of Canada"
    INDEX 01 00:00:00
  TRACK 02 AUDIO
    TITLE "Chromakey Dreamcoat"
    PERFORMER "Boards of Canada"
    INDEX 00 00:42:74
FILE "02 - Boards of Canada - Chromakey Dreamcoat.wav" WAVE
    INDEX 01 00:00:00
FILE "03 - Boards of Canada - Satellite Anthem Icarus.wav" WAVE
  TRACK 03 AUDIO
    TITLE "Satellite Anthem Icarus"
    PERFORMER "Boards of Canada"
    INDEX 01 00:00:00
FILE "04 - Boards of Canada - Peacock Tail.wav" WAVE
  TRACK 04 AUDIO
    TITLE "Peacock Tail"
    PERFORMER "Boards of Canada"
    INDEX 01 00:00:00
  TRACK 05 AUDIO
    TITLE "Dayvan Cowboy"
    PERFORMER "Boards of Canada"
    INDEX 00 05:22:42
FILE "05 - Boards of Canada - Dayvan Cowboy.wav" WAVE
    INDEX 01 00:00:00
FILE "06 - Boards of Canada - A Moment of Clarity.wav" WAVE
  TRACK 06 AUDIO
    TITLE "A Moment of Clarity"
    PERFORMER "Boards of Canada"
    INDEX 01 00:00:00
  TRACK 07 AUDIO
    TITLE "'84 Pontiac Dream"
    PERFORMER "Boards of Canada"
    INDEX 00 00:51:43
FILE "07 - Boards of Canada - '84 Pontiac Dream.wav" WAVE
    INDEX 01 00:00:00
FILE "08 - Boards of Canada - Sherbet Head.wav" WAVE
  TRACK 08 AUDIO
    TITLE "Sherbet Head"
    PERFORMER "Boards of Canada"
    INDEX 01 00:00:00
FILE "09 - Boards of Canada - Oscar See Through Red Eye.wav" WAVE
  TRACK 09 AUDIO
    TITLE "Oscar See Through Red Eye"
    PERFORMER "Boards of Canada"
    INDEX 01 00:00:00
FILE "10 - Boards of Canada - Ataronchronon.wav" WAVE
  TRACK 10 AUDIO
    TITLE "Ataronchronon"
    PERFORMER "Boards of Canada"
    INDEX 01 00:00:00
FILE "11 - Boards of Canada - Hey Saturday Sun.wav" WAVE
  TRACK 11 AUDIO
    TITLE "Hey Saturday Sun"
    PERFORMER "Boards of Canada"
    INDEX 01 00:00:00
FILE "12 - Boards of Canada - Constants Are Changing.wav" WAVE
  TRACK 12 AUDIO
    TITLE "Constants Are Changing"
    PERFORMER "Boards of Canada"
    INDEX 01 00:00:00
FILE "13 - Boards of Canada - Slow This Bird Down.wav" WAVE
  TRACK 13 AUDIO
    TITLE "Slow This Bird Down"
    PERFORMER "Boards of Canada"
    INDEX 01 00:00:00
FILE "14 - Boards of Canada - Tears From the Compound Eye.wav" WAVE
  TRACK 14 AUDIO
    TITLE "Tears From the Compound Eye"
    PERFORMER "Boards of Canada"
    INDEX 01 00:00:00
FILE "15 - Boards of Canada - Farewell Fire.wav" WAVE
  TRACK 15 AUDIO
    TITLE "Farewell Fire"
    PERFORMER "Boards of Canada"
    INDEX 01 00:00:00
  TRACK 16 AUDIO
    TITLE "Macquarie Ridge"
    PERFORMER "Boards of Canada"
    INDEX 00 08:24:22
FILE "16 - Boards of Canada - Macquarie Ridge.wav" WAVE
    INDEX 01 00:00:00

Код:

AUDIOCHECKER v2.0 beta (build 457) - by Dester - opdester@freemail.hu
~~~~~~~~~~~~~~~~~~~~~~~~~~~~~~~~~~
-=== DO NOT EDIT THIS FILE! ===-

Path: ...\Boards Of Canada - The Campfire Headphase

01 -=- 01 - Boards of Canada - Into the Rainbow Vein.flac -=- CDDA (100%)
02 -=- 02 - Boards of Canada - Chromakey Dreamcoat.flac -=- CDDA (100%)
03 -=- 03 - Boards of Canada - Satellite Anthem Icarus.flac -=- CDDA (100%)
04 -=- 04 - Boards of Canada - Peacock Tail.flac -=- CDDA (100%)
05 -=- 05 - Boards of Canada - Dayvan Cowboy.flac -=- CDDA (100%)
06 -=- 06 - Boards of Canada - A Moment of Clarity.flac -=- CDDA (99%)
07 -=- 07 - Boards of Canada - '84 Pontiac Dream.flac -=- CDDA (100%)
08 -=- 08 - Boards of Canada - Sherbet Head.flac -=- CDDA (100%)
09 -=- 09 - Boards of Canada - Oscar See Through Red Eye.flac -=- CDDA (100%)
10 -=- 10 - Boards of Canada - Ataronchronon.flac -=- CDDA (100%)
11 -=- 11 - Boards of Canada - Hey Saturday Sun.flac -=- CDDA (99%)
12 -=- 12 - Boards of Canada - Constants Are Changing.flac -=- CDDA (100%)
13 -=- 13 - Boards of Canada - Slow This Bird Down.flac -=- CDDA (99%)
14 -=- 14 - Boards of Canada - Tears From the Compound Eye.flac -=- CDDA (100%)
15 -=- 15 - Boards of Canada - Farewell Fire.flac -=- CDDA (99%)
16 -=- 16 - Boards of Canada - Macquarie Ridge.flac -=- CDDA (100%)

Summary 99,75% CDDA

4692948

info [Профиль]  [ЛС] 
Показать сообщения:    
Ответить на тему

Текущее время: 23-Май 00:17

Часовой пояс: GMT + 4



Вы не можете начинать темы
Вы не можете отвечать на сообщения
Вы не можете редактировать свои сообщения
Вы не можете удалять свои сообщения
Вы не можете голосовать в опросах
Вы не можете прикреплять файлы к сообщениям
Вы не можете скачивать файлы