Ошибка

(Шансон) Михаил Круг - Владимирский централ (1999) - 1999, FLAC (image+.cue)+covers, lossless

Тема закрыта
 
Автор Сообщение

quCvhI

Пол: Пол:Муж

Стаж: 9 лет 6 месяцев

Сообщений: 251

Россия
Рейтинг

post 04-Ноя-2011 09:45 1[+]

[Цитировать] 

Михаил Круг - Владимирский централ (1999) - 1999

Жанр: Шансон
Происхождение исполнителя: Россия, Тверь
Год издания данного носителя: 1999
Страна-производитель носителя: Россия
Тип релиза: image+.cue
Аудио кодек: FLAC
Битрейт аудио: lossless
Продолжительность: 00:57:27
Треклист:
01. Здравствуйте!
02. Пусти меня, мама
03. Водочку пьем...
04. Воробьи
05. Мадам
06. Владимирский централ
07. Девочка-пай 2
08. Роза
09. Доброго пути
10. Не спалила, любила
11. А сечку жрите сами
12. Электричка
13. Дороги
14. Жиган-Лимон
15. Кумовая
16. Все сбудется
17. Фраер

Код:

Exact Audio Copy V0.99 prebeta 4 from 23. January 2008
Отчёт EAC об извлечении, выполненном 1. февраля 2009, 22:49
М.КРУГ / ВЛАДИМИРСКИЙ ЦЕНТРАЛ
Дисковод: ASUS    DRW-2014L1   Adapter: 0  ID: 0
Режим чтения                 : Достоверность
Использование точного потока : Да
Отключение кэша аудио        : Да
Использование указателей C2  : Нет
Коррекция смещения при чтении                     : 6
Способность читать области Lead-in и Lead-out     : Нет
Заполнение пропущенных сэмплов тишиной            : Да
Удаление блоков с тишиной в начале и конце        : Нет
При вычислениях CRC использовались нулевые сэмплы : Да
Интерфейс                                         : Установленный внешний ASPI-интерфейс
Выходной формат : Внутренние WAV-операции
Формат сэмплов  : 44.100 Гц; 16 бит; стерео
TOC извлечённого CD
     Трек |   Старт  | Длительность | Начальный сектор | Конечный сектор
    ---------------------------------------------------------------------
       1  |  0:02.00 |    2:36.27   |         150      |      11876
       2  |  2:38.27 |    2:55.40   |       11877      |      25041
       3  |  5:33.67 |    3:03.00   |       25042      |      38766
       4  |  8:36.67 |    2:52.40   |       38767      |      51706
       5  | 11:29.32 |    4:15.65   |       51707      |      70896
       6  | 15:45.22 |    4:29.68   |       70897      |      91139
       7  | 20:15.15 |    4:01.73   |       91140      |     109287
       8  | 24:17.13 |    4:49.06   |      109288      |     130968
       9  | 29:06.19 |    2:22.21   |      130969      |     141639
      10  | 31:28.40 |    4:13.39   |      141640      |     160653
      11  | 35:42.04 |    2:51.46   |      160654      |     173524
      12  | 38:33.50 |    3:08.25   |      173525      |     187649
      13  | 41:42.00 |    4:41.26   |      187650      |     208750
      14  | 46:23.26 |    2:55.57   |      208751      |     221932
      15  | 49:19.08 |    2:58.02   |      221933      |     235284
      16  | 52:17.10 |    2:47.47   |      235285      |     247856
      17  | 55:04.57 |    2:56.20   |      247857      |     261076
Характеристики диапазона извлечения и сообщения об ошибках
Выбранный диапазон
     Имя файла E:\ФАЙЛЫ ТОРРЕНТЫ\М.КРУГ\М.КРУГ - ВЛАДИМИРСКИЙ ЦЕНТРАЛ\М.КРУГ - ВЛАДИМИРСКИЙ ЦЕНТРАЛ.wav
     Пиковый уровень 100.0 %
     Качество диапазона 99.9 %
     CRC копии 69342944
     Копирование... OK
Ошибок не произошло
AccurateRip: сводка
Трек  1  нет в базе данных
Трек  2  нет в базе данных
Трек  3  нет в базе данных
Трек  4  нет в базе данных
Трек  5  нет в базе данных
Трек  6  нет в базе данных
Трек  7  нет в базе данных
Трек  8  нет в базе данных
Трек  9  нет в базе данных
Трек 10  нет в базе данных
Трек 11  нет в базе данных
Трек 12  нет в базе данных
Трек 13  нет в базе данных
Трек 14  нет в базе данных
Трек 15  нет в базе данных
Трек 16  нет в базе данных
Трек 17  нет в базе данных
Ни одного трека нет в базе AccurateRip
Конец отчёта

Код:

REM GENRE Shanson
 REM DATE 1999
 REM DISCID 7D0BCB1A
 REM COMMENT "ExactAudioCopy v0.99pb1"
 PERFORMER "Михаил Круг"
 TITLE "Владимирский централ"
 FILE "Михаил Круг - Владимирский централ.wav" WAVE
   TRACK 01 AUDIO
     TITLE "Здравствуйте!"
     PERFORMER "Михаил Круг"
     FLAGS DCP
     INDEX 01 00:00:00
   TRACK 02 AUDIO
     TITLE "Пусти меня, мама"
     PERFORMER "Михаил Круг"
     FLAGS DCP
     INDEX 01 00:46:02
   TRACK 03 AUDIO
     TITLE "Водочку пьем..."
     PERFORMER "Михаил Круг"
     FLAGS DCP
     INDEX 01 04:46:03
   TRACK 04 AUDIO
     TITLE "Воробьи"
     PERFORMER "Михаил Круг"
     FLAGS DCP
     INDEX 01 05:32:06
   TRACK 05 AUDIO
     TITLE "Мадам"
     PERFORMER "Михаил Круг"
     FLAGS DCP
     INDEX 01 08:25:15
   TRACK 06 AUDIO
     TITLE "Владимирский центал"
     PERFORMER "Михаил Круг"
     FLAGS DCP
     INDEX 01 08:45:30
   TRACK 07 AUDIO
     TITLE "Девочка-пай 2"
     PERFORMER "Михаил Круг"
     FLAGS DCP
     INDEX 01 11:11:43
   TRACK 08 AUDIO
     TITLE "Роза"
     PERFORMER "Михаил Круг"
     FLAGS DCP
     INDEX 01 11:27:29
   TRACK 09 AUDIO
     TITLE "Доброго пути"
     PERFORMER "Михаил Круг"
     FLAGS DCP
     INDEX 01 15:20:54
   TRACK 10 AUDIO
     TITLE "Не спалила, любила"
     PERFORMER "Михаил Круг"
     FLAGS DCP
     INDEX 01 16:01:01
   TRACK 11 AUDIO
     TITLE "А сечку жрите сами"
     PERFORMER "Михаил Круг"
     FLAGS DCP
     INDEX 01 19:15:35
   TRACK 12 AUDIO
     TITLE "Электричка"
     PERFORMER "Михаил Круг"
     FLAGS DCP
     INDEX 01 19:36:65
   TRACK 13 AUDIO
     TITLE "Дороги"
     PERFORMER "Михаил Круг"
     FLAGS DCP
     INDEX 01 23:05:18
   TRACK 14 AUDIO
     TITLE "Жиган-лимон"
     PERFORMER "Михаил Круг"
     FLAGS DCP
     INDEX 01 23:21:21
   TRACK 15 AUDIO
     TITLE "Кумовая"
     PERFORMER "Михаил Круг"
     FLAGS DCP
     INDEX 01 27:10:47
   TRACK 16 AUDIO
     TITLE "Все сбудется"
     PERFORMER "Михаил Круг"
     FLAGS DCP
     INDEX 01 27:29:22
   TRACK 17 AUDIO
     TITLE "Фраер"
     PERFORMER "Михаил Круг"
     FLAGS DCP
     INDEX 01 29:45:42
 
Год первого издания: 1999
Полиграфия: присутствует
Тип рипа: image+.cue
info [Профиль]  [ЛС] 

quCvhI

Пол: Пол:Муж

Стаж: 9 лет 6 месяцев

Сообщений: 251

Россия
Рейтинг

post 04-Ноя-2011 09:46 (спустя 1 минута) [-]-3[+]

[Цитировать] 

Для ценителей музыки)
info [Профиль]  [ЛС] 

s1ddok

Пол: Пол:Муж

Стаж: 11 лет

Сообщений: 1667

Россия
Рейтинг

post 04-Ноя-2011 17:41 (спустя 7 часов) [-]0[+]

[Цитировать] 

quCvhI писал(а):

Для ценителей музыки)
сомнительное утверждение.

_________________
Got a sign on my dick that says : "bad bitches only" © Lil' Wayne
info [Профиль]  [ЛС] 

quCvhI

Пол: Пол:Муж

Стаж: 9 лет 6 месяцев

Сообщений: 251

Россия
Рейтинг

post 04-Ноя-2011 19:05 (спустя 1 час 23 минуты) [-]-9[+]

[Цитировать] 

s1ddok
Кому как) Если ты имеешь ввиду сам жанр или отдельно самого Круга, то соглашусь, это не всем близко, ну по крайней мере это намного лучше каких-нибудь *индосов
P.S. Хотя я имел ввиду качество)))
info [Профиль]  [ЛС] 

Raa

Пол: Пол:Муж

Стаж: 11 лет

Сообщений: 1099

Рейтинг

post 08-Ноя-2011 20:21 (спустя 4 дня) [-]0[+]

[Цитировать] 

quCvhI

Поглощено
(Шансон) Михаил Круг - Дискография (1994-2009) [34 релиза] - 1999-2009, FLAC (image+.cue)+covers, lossless
info [Профиль]  [ЛС] 

post 09-Ноя-2011 22:18 (спустя 1 день 1 час) [-]0[+]

Топик был перенесен из форума Отечественный шансон (lossless) в форум Архив (Шансон, Авторская и Военная песня)

Омикомс
 
Показать сообщения:    
Тема закрыта

Текущее время: 12-Апр 08:30

Часовой пояс: GMT + 4



Вы не можете начинать темы
Вы не можете отвечать на сообщения
Вы не можете редактировать свои сообщения
Вы не можете удалять свои сообщения
Вы не можете голосовать в опросах
Вы не можете прикреплять файлы к сообщениям
Вы не можете скачивать файлы