Ошибка

(Midwest Rap, Hip-Hop) Bad Meets Evil [Eminem & Royce Da 5'9''] - Hell: The Sequel [Deluxe Edition] - 2011, FLAC (tracks+.cue), lossless

Ответить на тему
 
Автор Сообщение

Raa

Пол: Пол:Муж

Стаж: 12 лет

Сообщений: 1099

Рейтинг

post 01-Июл-2011 00:40 0[+]

[Цитировать] 

Bad Meets Evil [Eminem & Royce Da 5'9''] - Hell: The Sequel
Жанр: Midwest Rap, Hip-Hop
Год издания диска: 2011
Страна-производитель диска: US
Страна: US
Издатель (лейбл): Shady/Interscope Records
Номер по каталогу: 0602527735870
Тип релиза: tracks+.cue
Аудио кодек: FLAC
Битрейт аудио: lossless
Продолжительность: 00:46:13

Трэклист:
01. Welcome 2 Hell (2:58)
02. Fastlane (4:10)
03. The Reunion (4:50)
04. Above The Law (3:30)
05. I'm On Everything (Feat. Mike Epps) (4:31)
06. A Kiss (4:34)
07. Lighters (Feat. Bruno Mars) (5:04)
08. Take From Me (3:26)
09. Loud Noises (Feat. Slaughterhouse) (4:20)
10. Living Proof (3:55)
11. Echo (4:55)

Код:

Exact Audio Copy V1.0 beta 1 from 15. November 2010
EAC extraction logfile from 24. June 2011, 13:23
Bad Meets Evil / Hell: The Sequel
Used drive  : ATAPI   iHAS124   Y   Adapter: 3  ID: 0
Read mode               : Secure
Utilize accurate stream : Yes
Defeat audio cache      : Yes
Make use of C2 pointers : No
Read offset correction                      : 48
Overread into Lead-In and Lead-Out          : No
Fill up missing offset samples with silence : Yes
Delete leading and trailing silent blocks   : No
Null samples used in CRC calculations       : Yes
Used interface                              : Native Win32 interface for Win NT & 2000
Gap handling                                : Appended to previous track
Used output format : Internal WAV Routines
Sample format      : 44.100 Hz; 16 Bit; Stereo
TOC of the extracted CD
     Track |   Start  |  Length  | Start sector | End sector
    ---------------------------------------------------------
        1  |  0:00.00 |  2:57.54 |         0    |    13328
        2  |  2:57.54 |  4:09.42 |     13329    |    32045
        3  |  7:07.21 |  4:50.31 |     32046    |    53826
        4  | 11:57.52 |  3:29.46 |     53827    |    69547
        5  | 15:27.23 |  4:31.13 |     69548    |    89885
        6  | 19:58.36 |  4:34.35 |     89886    |   110470
        7  | 24:32.71 |  5:03.61 |    110471    |   133256
        8  | 29:36.57 |  3:25.45 |    133257    |   148676
        9  | 33:02.27 |  4:20.33 |    148677    |   168209
       10  | 37:22.60 |  3:55.30 |    168210    |   185864
       11  | 41:18.15 |  4:55.05 |    185865    |   207994
Track  1
     Filename F:\something\Temp\01 - Welcome 2 Hell.wav
     Pre-gap length  0:00:02.00
     Peak level 98.8 %
     Extraction speed 2.2 X
     Track quality 100.0 %
     Test CRC 3AA406BE
     Copy CRC 3AA406BE
     Track not present in AccurateRip database
     Copy OK
Track  2
     Filename F:\something\Temp\02 - Fastlane.wav
     Peak level 98.8 %
     Extraction speed 2.6 X
     Track quality 100.0 %
     Test CRC D8CE6E8B
     Copy CRC D8CE6E8B
     Track not present in AccurateRip database
     Copy OK
Track  3
     Filename F:\something\Temp\03 - The Reunion.wav
     Peak level 98.8 %
     Extraction speed 2.9 X
     Track quality 100.0 %
     Test CRC BF657668
     Copy CRC BF657668
     Track not present in AccurateRip database
     Copy OK
Track  4
     Filename F:\something\Temp\04 - Above The Law.wav
     Peak level 98.8 %
     Extraction speed 3.0 X
     Track quality 100.0 %
     Test CRC E187C07A
     Copy CRC E187C07A
     Track not present in AccurateRip database
     Copy OK
Track  5
     Filename F:\something\Temp\05 - I'm On Everything (Feat. Mike Epps).wav
     Peak level 98.8 %
     Extraction speed 3.3 X
     Track quality 100.0 %
     Test CRC F01F1E2B
     Copy CRC F01F1E2B
     Track not present in AccurateRip database
     Copy OK
Track  6
     Filename F:\something\Temp\06 - A Kiss.wav
     Peak level 98.8 %
     Extraction speed 3.5 X
     Track quality 100.0 %
     Test CRC D5DE2BD9
     Copy CRC D5DE2BD9
     Track not present in AccurateRip database
     Copy OK
Track  7
     Filename F:\something\Temp\07 - Lighters (Feat. Bruno Mars).wav
     Peak level 99.8 %
     Extraction speed 3.4 X
     Track quality 99.9 %
     Test CRC BAA82CC9
     Copy CRC BAA82CC9
     Track not present in AccurateRip database
     Copy OK
Track  8
     Filename F:\something\Temp\08 - Take From Me.wav
     Peak level 98.8 %
     Extraction speed 3.7 X
     Track quality 100.0 %
     Test CRC B5E5DC0B
     Copy CRC B5E5DC0B
     Track not present in AccurateRip database
     Copy OK
Track  9
     Filename F:\something\Temp\09 - Loud Noises (Feat. Slaughterhouse).wav
     Peak level 99.9 %
     Extraction speed 4.0 X
     Track quality 100.0 %
     Test CRC 33FE1490
     Copy CRC 33FE1490
     Track not present in AccurateRip database
     Copy OK
Track 10
     Filename F:\something\Temp\10 - Living Proof.wav
     Peak level 98.9 %
     Extraction speed 4.1 X
     Track quality 100.0 %
     Test CRC 9219DD47
     Copy CRC 9219DD47
     Track not present in AccurateRip database
     Copy OK
Track 11
     Filename F:\something\Temp\11 - Echo.wav
     Peak level 99.4 %
     Extraction speed 4.4 X
     Track quality 100.0 %
     Test CRC EDE50AA8
     Copy CRC EDE50AA8
     Track not present in AccurateRip database
     Copy OK
None of the tracks are present in the AccurateRip database
No errors occurred
End of status report
==== Log checksum B0D9D2B2D425F9CF4EC48A4FD03071C31D6E86AC3BF8C4CDB859189FDFD35054 ====

Код:

REM GENRE Hip-Hop
REM DATE 2011
REM DISCID A10AD50B
REM COMMENT "ExactAudioCopy v1.0b1"
PERFORMER "Bad Meets Evil"
TITLE "Hell: The Sequel"
FILE "01 - Welcome 2 Hell.wav" WAVE
  TRACK 01 AUDIO
    TITLE "Welcome 2 Hell"
    PERFORMER "Bad Meets Evil"
    INDEX 01 00:00:00
FILE "02 - Fastlane.wav" WAVE
  TRACK 02 AUDIO
    TITLE "Fastlane"
    PERFORMER "Bad Meets Evil"
    INDEX 01 00:00:00
FILE "03 - The Reunion.wav" WAVE
  TRACK 03 AUDIO
    TITLE "The Reunion"
    PERFORMER "Bad Meets Evil"
    INDEX 01 00:00:00
FILE "04 - Above The Law.wav" WAVE
  TRACK 04 AUDIO
    TITLE "Above The Law"
    PERFORMER "Bad Meets Evil"
    INDEX 01 00:00:00
FILE "05 - I'm On Everything (Feat. Mike Epps).wav" WAVE
  TRACK 05 AUDIO
    TITLE "I'm On Everything (Feat. Mike Epps)"
    PERFORMER "Bad Meets Evil"
    INDEX 01 00:00:00
FILE "06 - A Kiss.wav" WAVE
  TRACK 06 AUDIO
    TITLE "A Kiss"
    PERFORMER "Bad Meets Evil"
    INDEX 01 00:00:00
FILE "07 - Lighters (Feat. Bruno Mars).wav" WAVE
  TRACK 07 AUDIO
    TITLE "Lighters (Feat. Bruno Mars)"
    PERFORMER "Bad Meets Evil"
    INDEX 01 00:00:00
FILE "08 - Take From Me.wav" WAVE
  TRACK 08 AUDIO
    TITLE "Take From Me"
    PERFORMER "Bad Meets Evil"
    INDEX 01 00:00:00
FILE "09 - Loud Noises (Feat. Slaughterhouse).wav" WAVE
  TRACK 09 AUDIO
    TITLE "Loud Noises (Feat. Slaughterhouse)"
    PERFORMER "Bad Meets Evil"
    INDEX 01 00:00:00
FILE "10 - Living Proof.wav" WAVE
  TRACK 10 AUDIO
    TITLE "Living Proof"
    PERFORMER "Bad Meets Evil"
    INDEX 01 00:00:00
FILE "11 - Echo.wav" WAVE
  TRACK 11 AUDIO
    TITLE "Echo"
    PERFORMER "Bad Meets Evil"
    INDEX 01 00:00:00
info [Профиль]  [ЛС] 

Wh1te

Пол: Пол:Муж

Стаж: 11 лет

Сообщений: 20

Россия
Рейтинг

post 01-Июл-2011 22:33 (спустя 21 час) [-]0[+]

[Цитировать] 

Fast Lane
хороша, и клип супер)
info [Профиль]  [ЛС] 

lord861

Пол: Пол:Муж

Стаж: 10 лет

Сообщений: 106

Рейтинг

post 07-Июл-2011 21:00 (спустя 5 дней) [-]0[+]

[Цитировать] 

Так я не понел. Это официальный альбом? Или просто несколько треков, угнаных со студий звукозаписи?
info [Профиль]  [ЛС] 

Raa

Пол: Пол:Муж

Стаж: 12 лет

Сообщений: 1099

Рейтинг

post 08-Июл-2011 00:45 (спустя 3 часа) [-]1[+]

[Цитировать] 

lord861
официальный альбом
info [Профиль]  [ЛС] 

gekko9

Стаж: 10 лет

Сообщений: 1

Предупреждений: 1

Рейтинг

post 16-Июл-2011 00:24 (спустя 7 дней) [-]0[+]

[Цитировать] 

ништяковы альбомчик) все никак ненаслушаюсь!!!
info [Профиль]  [ЛС] 

lord861

Пол: Пол:Муж

Стаж: 10 лет

Сообщений: 106

Рейтинг

post 01-Дек-2011 22:18 (спустя 4 месяца 16 дней) [-]0[+]

[Цитировать] 

Омикомс писал(а):

04. Above The Law (3:30)
Самый годный трек, на мой взгляд.
Вокал в припеве на уровне.
info [Профиль]  [ЛС] 
Показать сообщения:    
Ответить на тему

Текущее время: 03-Июл 06:45

Часовой пояс: GMT + 4



Вы не можете начинать темы
Вы не можете отвечать на сообщения
Вы не можете редактировать свои сообщения
Вы не можете удалять свои сообщения
Вы не можете голосовать в опросах
Вы не можете прикреплять файлы к сообщениям
Вы не можете скачивать файлы