Ошибка

(Авторская песня) Владимир Высоцкий - Платиновый альбом - 2010, FLAC (image+.cue)+covers, lossless

Ответить на тему
 
Автор Сообщение

LiT

Пол: Пол:Муж

Стаж: 11 лет

Сообщений: 248

Ямайка
Рейтинг

post 06-Янв-2011 14:04 0[+]

[Цитировать] 

Владимир Высоцкий - Платиновый альбом

Жанр: Авторская песня
Год издания данного носителя: 2010
Полиграфия: присутствует
Продолжительность: 01:17:24

Тип релиза: image+.cue
Аудио кодек: FLAC
Битрейт аудио: lossless

Треклист:
01. Дайте собакам мяса
02. Диалог у телевизора
03. Я любил и женщин и проказы...
04. Лекция о международном положении...
05. Тот, кто раньше с нею был
06. Очи чёрные. Погоня
07. Письмо к другу, или зарисовки о Париже...
08. Милицейский протокол
09. Ленинградская блокада
10. Песенка о слухах
11. Банька по-белому
12. Эй, шофер...
13. Рецидивист
14. Мне ребята сказали про такую наколку
15. Поездка в город
16. Так оно и есть
17. Райские яблоки
18. У нас вчера, с позавчера...
19. Мой друг уехал в Магадан...
20. Тот, который не стрелял
21. Бодайбо
22. Правда, ведь, обидно...
23. Вот раньше жизнь...

Код:

Exact Audio Copy V0.99 prebeta 5 from 4. May 2009

Отчёт EAC об извлечении, выполненном 26. декабря 2010, 23:19

Владимир Высоцкий / Платиновый альбом

Дисковод: MATSHITADVD-RAM UJ-850S   Adapter: 2  ID: 0

Режим чтения                 : Достоверность
Использование точного потока : Да
Отключение кэша аудио        : Да
Использование указателей C2  : Нет

Коррекция смещения при чтении                     : 102
Способность читать области Lead-in и Lead-out     : Нет
Заполнение пропущенных сэмплов тишиной            : Да
Удаление блоков с тишиной в начале и конце        : Нет
При вычислениях CRC использовались нулевые сэмплы : Да
Интерфейс                                         : Установленный внешний ASPI-интерфейс

Выходной формат : Внутренние WAV-операции
Формат сэмплов  : 44.100 Гц; 16 бит; стерео

TOC извлечённого CD

     Трек |   Старт  | Длительность | Начальный сектор | Конечный сектор
    ---------------------------------------------------------------------
       1  |  0:00.00 |    2:50.47   |           0      |      12796     
       2  |  2:50.47 |    3:48.35   |       12797      |      29931     
       3  |  6:39.07 |    2:32.25   |       29932      |      41356     
       4  |  9:11.32 |    3:27.54   |       41357      |      56935     
       5  | 12:39.11 |    4:00.13   |       56936      |      74948     
       6  | 16:39.24 |    3:21.42   |       74949      |      90065     
       7  | 20:00.66 |    2:46.70   |       90066      |     102585     
       8  | 22:47.61 |    4:12.64   |      102586      |     121549     
       9  | 27:00.50 |    2:01.40   |      121550      |     130664     
      10  | 29:02.15 |    4:17.19   |      130665      |     149958     
      11  | 33:19.34 |    8:16.52   |      149959      |     187210     
      12  | 41:36.11 |    2:04.09   |      187211      |     196519     
      13  | 43:40.20 |    2:39.62   |      196520      |     208506     
      14  | 46:20.07 |    3:06.48   |      208507      |     222504     
      15  | 49:26.55 |    3:22.35   |      222505      |     237689     
      16  | 52:49.15 |    2:57.15   |      237690      |     250979     
      17  | 55:46.30 |    5:57.68   |      250980      |     277822     
      18  | 61:44.23 |    2:34.48   |      277823      |     289420     
      19  | 64:18.71 |    3:44.21   |      289421      |     306241     
      20  | 68:03.17 |    3:21.01   |      306242      |     321317     
      21  | 71:24.18 |    2:12.09   |      321318      |     331226     
      22  | 73:36.27 |    1:34.26   |      331227      |     338302     
      23  | 75:10.53 |    2:13.46   |      338303      |     348323     

Характеристики диапазона извлечения и сообщения об ошибках

Выбранный диапазон

     Имя файла D:\Музыка\Запись\Владимир Высоцкий - Платиновый альбом\Владимир Высоцкий - Платиновый альбом.wav

     Пиковый уровень 97.7 %
     Качество диапазона 100.0 %
     CRC теста E3B05F64
     CRC копии E3B05F64
     Копирование... OK

Ошибок не произошло

Конец отчёта

Код:

REM GENRE Chanson
REM DATE 2010
REM DISCID 35122417
REM COMMENT "ExactAudioCopy v0.99pb5"
PERFORMER "Владимир Высоцкий"
TITLE "Платиновый альбом"
FILE "Владимир Высоцкий - Платиновый альбом.flac" WAVE
  TRACK 01 AUDIO
    TITLE "Дайте собакам мяса"
    PERFORMER "Владимир Высоцкий"
    INDEX 01 00:00:00
  TRACK 02 AUDIO
    TITLE "Диалог у телевизора"
    PERFORMER "Владимир Высоцкий"
    INDEX 01 02:50:47
  TRACK 03 AUDIO
    TITLE "Я любил и женщин и проказы..."
    PERFORMER "Владимир Высоцкий"
    INDEX 01 06:39:07
  TRACK 04 AUDIO
    TITLE "Лекция о международном положении..."
    PERFORMER "Владимир Высоцкий"
    INDEX 01 09:11:32
  TRACK 05 AUDIO
    TITLE "Тот, кто раньше с нею был"
    PERFORMER "Владимир Высоцкий"
    INDEX 01 12:39:11
  TRACK 06 AUDIO
    TITLE "Очи чёрные. Погоня"
    PERFORMER "Владимир Высоцкий"
    INDEX 01 16:39:24
  TRACK 07 AUDIO
    TITLE "Письмо к другу, или зарисовки о Париже..."
    PERFORMER "Владимир Высоцкий"
    INDEX 01 20:00:66
  TRACK 08 AUDIO
    TITLE "Милицейский протокол"
    PERFORMER "Владимир Высоцкий"
    INDEX 01 22:47:61
  TRACK 09 AUDIO
    TITLE "Ленинградская блокада"
    PERFORMER "Владимир Высоцкий"
    INDEX 01 27:00:50
  TRACK 10 AUDIO
    TITLE "Песенка о слухах"
    PERFORMER "Владимир Высоцкий"
    INDEX 01 29:02:15
  TRACK 11 AUDIO
    TITLE "Банька по-белому"
    PERFORMER "Владимир Высоцкий"
    INDEX 01 33:19:34
  TRACK 12 AUDIO
    TITLE "Эй, шофер..."
    PERFORMER "Владимир Высоцкий"
    INDEX 01 41:36:11
  TRACK 13 AUDIO
    TITLE "Рецидивист"
    PERFORMER "Владимир Высоцкий"
    INDEX 01 43:40:20
  TRACK 14 AUDIO
    TITLE "Мне ребята сказали про такую наколку"
    PERFORMER "Владимир Высоцкий"
    INDEX 01 46:20:07
  TRACK 15 AUDIO
    TITLE "Поездка в город"
    PERFORMER "Владимир Высоцкий"
    INDEX 01 49:26:55
  TRACK 16 AUDIO
    TITLE "Так оно и есть"
    PERFORMER "Владимир Высоцкий"
    INDEX 01 52:49:15
  TRACK 17 AUDIO
    TITLE "Райские яблоки"
    PERFORMER "Владимир Высоцкий"
    INDEX 01 55:46:30
  TRACK 18 AUDIO
    TITLE "У нас вчера, с позавчера..."
    PERFORMER "Владимир Высоцкий"
    INDEX 01 61:44:23
  TRACK 19 AUDIO
    TITLE "Мой друг уехал в Магадан..."
    PERFORMER "Владимир Высоцкий"
    INDEX 01 64:18:71
  TRACK 20 AUDIO
    TITLE "Тот, который не стрелял"
    PERFORMER "Владимир Высоцкий"
    INDEX 01 68:03:17
  TRACK 21 AUDIO
    TITLE "Бодайбо"
    PERFORMER "Владимир Высоцкий"
    INDEX 01 71:24:18
  TRACK 22 AUDIO
    TITLE "Правда, ведь, обидно..."
    PERFORMER "Владимир Высоцкий"
    INDEX 01 73:36:27
  TRACK 23 AUDIO
    TITLE "Вот раньше жизнь..."
    PERFORMER "Владимир Высоцкий"
    INDEX 01 75:10:53
info [Профиль]  [ЛС] 
Показать сообщения:    
Ответить на тему

Текущее время: 01-Дек 06:05

Часовой пояс: GMT + 4



Вы не можете начинать темы
Вы не можете отвечать на сообщения
Вы не можете редактировать свои сообщения
Вы не можете удалять свои сообщения
Вы не можете голосовать в опросах
Вы не можете прикреплять файлы к сообщениям
Вы не можете скачивать файлы