Ошибка

(Specially addictive soundtrack) nobody.one - DOES - 2012, FLAC (image+.cue), lossless

Ответить на тему
 
Автор Сообщение

PlusOne

Пол: Пол:Муж

Стаж: 7 лет 2 месяца

Сообщений: 174

Ямайка
Рейтинг

post 13-Май-2012 20:30 3[+]

[Цитировать] 

pic="http://i.imgur.com/jGxBw.jpg"
nobody.one - DOES

Жанр: Specially addictive soundtrack
Год издания данного носителя: 2012
Страна-производитель носителя: Россия
Лейбл: Nosorog Records, Самара
Аудио кодек: FLAC
Тип рипа: image+.cue
Битрейт аудио: lossless
Продолжительность: 00:47:33
Источник (релизер): Sgfgfgd (rutracker.org)
Треклист:
01 Challenge (02:16)
02 Deadman (03:37)
03 Farvel (05:58)
04 Airblow (04:22)
05 Shuffled God (03:59)
06 Swabbie The Smuggler (02:50)
07 Horizon (05:03)
08 Aurora (00:58)
09 Sunday (02:57)
10 Cosmos (07:16)
11 Hover (04:02)
12 Humility (04:09)
Сергей Табачников – искусный гитарист, работающий в авторском стиле specially addictive soundtrack. Музыкальный вкус Сергея формировался с раннего возраста под влиянием таких групп, как Metallica, Ted Nugent, Led Zeppelin, Queen и др.

Созданный в 2004 году проект nobody.one – это сочетание красивых и драйвовых мелодий с изысканными, но неназойливыми гитарными соло, которые никого не смогут оставить равнодушными. Музыка nobody. one способна перенести любого человека в другой мир, абсолютно не навязывая образы, а давая возможность фантазировать. На данный момент на счету nobody.one пять альбомов и два удачных тура по Европе и Англии, а также несколько туров по странам СНГ. Благодаря сети Интернет музыку Сергея Табачникова знают и любят во многих городах России, Украины, Белоруссии, Европы и Великобритании. Сингл “The Duck Song” находится в ротации бельгийской радиостанции «Radio 1».

Концерты Сергея - всегда уникальное и неповторимое явление. Каждая композиция в его исполнении рождается заново и открывается самым неожиданным образом, заражая окружающих бешеной энергией или вводя в транс абстрактными мелодиями.

Код:

Exact Audio Copy V1.0 beta 3 from 29. August 2011

Отчёт EAC об извлечении, выполненном 5. апреля 2012, 1:59

nobody.one / DOES

Дисковод: Optiarc DVD RW AD-7203S   Adapter: 4  ID: 0

Режим чтения                 : Достоверность
Использование точного потока : Да
Отключение кэша аудио        : Да
Использование указателей C2  : Нет

Коррекция смещения при чтении                     : 48
Способность читать области Lead-in и Lead-out     : Нет
Заполнение пропущенных сэмплов тишиной            : Да
Удаление блоков с тишиной в начале и конце        : Нет
При вычислениях CRC использовались нулевые сэмплы : Да
Интерфейс                                         : Встроенный Win32-интерфейс для Win NT/2000

Выходной формат          : Пользовательский кодировщик
Выбранный битрейт        : 32 kBit/s
Качество                 : Высокий
Добавление ID3-тега      : Да
Утилита сжатия           : C:\Program Files (x86)\FLAC\flac.exe
Дополнительные параметры : -V -8 -T "Date=%year%" -T "Genre=%genre%" %source%

TOC извлечённого CD

     Трек |   Старт  | Длительность | Начальный сектор | Конечный сектор
    ---------------------------------------------------------------------
       1  |  0:00.00 |    2:16.35   |           0      |      10234     
       2  |  2:16.35 |    3:37.43   |       10235      |      26552     
       3  |  5:54.03 |    5:58.13   |       26553      |      53415     
       4  | 11:52.16 |    4:22.02   |       53416      |      73067     
       5  | 16:14.18 |    3:59.12   |       73068      |      91004     
       6  | 20:13.30 |    2:50.39   |       91005      |     103793     
       7  | 23:03.69 |    5:03.57   |      103794      |     126575     
       8  | 28:07.51 |    0:58.56   |      126576      |     130981     
       9  | 29:06.32 |    2:57.20   |      130982      |     144276     
      10  | 32:03.52 |    7:16.54   |      144277      |     177030     
      11  | 39:20.31 |    4:02.61   |      177031      |     195241     
      12  | 43:23.17 |    4:09.65   |      195242      |     213981     

Характеристики диапазона извлечения и сообщения об ошибках

Выбранный диапазон

     Имя файла R:\music\nobody.one - DOES [2012] [FLAC]\nobody.one - DOES.wav

     Пиковый уровень 94.1 %
     Скорость извлечения 1.5 X
     Качество диапазона 100.0 %
     CRC теста 1D6122E3
     CRC копии 1D6122E3
     Копирование... OK

Ошибок не произошло

 
AccurateRip: сводка
 
Трек  1  отсутствует в базе данных
Трек  2  отсутствует в базе данных
Трек  3  отсутствует в базе данных
Трек  4  отсутствует в базе данных
Трек  5  отсутствует в базе данных
Трек  6  отсутствует в базе данных
Трек  7  отсутствует в базе данных
Трек  8  отсутствует в базе данных
Трек  9  отсутствует в базе данных
Трек 10  отсутствует в базе данных
Трек 11  отсутствует в базе данных
Трек 12  отсутствует в базе данных
 
Ни одного трека нет в базе AccurateRip

Конец отчёта

==== Контрольная сумма отчёта 349ECD4405F9FDBDB263C09F56ACB9C88DFE6DEFD53ED0D5652060351BA1A661 ====

Код:

REM GENRE "Specially Addictive Soundtrack"
REM DATE 2012
REM DISCID AF0B250C
REM COMMENT "ExactAudioCopy v1.0b3"
PERFORMER "nobody.one"
TITLE "DOES"
FILE "nobody.one - DOES.flac" WAVE
  TRACK 01 AUDIO
    TITLE "Challenge"
    PERFORMER "nobody.one"
    INDEX 01 00:00:00
  TRACK 02 AUDIO
    TITLE "Deadman"
    PERFORMER "nobody.one"
    INDEX 01 02:16:35
  TRACK 03 AUDIO
    TITLE "Farvel"
    PERFORMER "nobody.one"
    INDEX 01 05:54:03
  TRACK 04 AUDIO
    TITLE "Airblow"
    PERFORMER "nobody.one"
    INDEX 01 11:52:16
  TRACK 05 AUDIO
    TITLE "Shuffled God"
    PERFORMER "nobody.one"
    INDEX 01 16:14:18
  TRACK 06 AUDIO
    TITLE "Swabbie The Smuggler"
    PERFORMER "nobody.one"
    INDEX 01 20:13:30
  TRACK 07 AUDIO
    TITLE "Horizon"
    PERFORMER "nobody.one"
    INDEX 01 23:03:69
  TRACK 08 AUDIO
    TITLE "Aurora"
    PERFORMER "nobody.one"
    INDEX 01 28:07:51
  TRACK 09 AUDIO
    TITLE "Sunday"
    PERFORMER "nobody.one"
    INDEX 01 29:06:32
  TRACK 10 AUDIO
    TITLE "Cosmos"
    PERFORMER "nobody.one"
    INDEX 01 32:03:52
  TRACK 11 AUDIO
    TITLE "Hover"
    PERFORMER "nobody.one"
    INDEX 01 39:20:31
  TRACK 12 AUDIO
    TITLE "Humility"
    PERFORMER "nobody.one"
    INDEX 01 43:23:17

info [Профиль]  [ЛС] 

Zip72

Пол: Пол:Муж

Стаж: 4 года 11 месяцев

Сообщений: 17

Россия
Рейтинг

post 16-Май-2012 18:59 (спустя 2 дня 22 часа) [-]0[+]

[Цитировать] 

PainkilleR, огромное спасибо за размещение ссылки на мою раздачу, и отдельное спасибо за lossless
info [Профиль]  [ЛС] 
Показать сообщения:    
Ответить на тему

Текущее время: 04-Дек 16:13

Часовой пояс: GMT + 4



Вы не можете начинать темы
Вы не можете отвечать на сообщения
Вы не можете редактировать свои сообщения
Вы не можете удалять свои сообщения
Вы не можете голосовать в опросах
Вы не можете прикреплять файлы к сообщениям
Вы не можете скачивать файлы