Ошибка

(Specially addictive soundtrack) nobody.one - Head Movies - 2010, FLAC (image+.cue), lossless

Ответить на тему
 
Автор Сообщение

PlusOne

Пол: Пол:Муж

Стаж: 7 лет 2 месяца

Сообщений: 174

Ямайка
Рейтинг

post 13-Май-2012 20:29 2[+]

[Цитировать] 

pic="http://s002.youpic.su/pictures/1336852800/46a200ae1011101350a69cb5c2f04cc4.jpg"
nobody.one - Head Movies

Жанр: Specially addictive soundtrack
Год издания данного носителя: 2010
Страна-производитель носителя: Россия
Аудио кодек: FLAC
Тип рипа: image+.cue
Битрейт аудио: lossless
Продолжительность: 00:45:39
Источник (релизер): 7 sinners (rutracker.org)
Треклист:
01 Leerg (03:37)
02 Change (03:08)
03 Bob (03:32)
04 Astronomy (02:26)
05 JB (05:06)
06 Milena (feat. Artem Abrosimov) (05:07)
07 Lifeline (03:32)
08 The Duck Song (05:45)
09 Set (02:41)
10 Though (03:48)
11 Touching The Void (01:15)
12 Soul (Live 2006) (05:34)
Сергей Табачников – искусный гитарист, работающий в авторском стиле specially addictive soundtrack. Музыкальный вкус Сергея формировался с раннего возраста под влиянием таких групп, как Metallica, Ted Nugent, Led Zeppelin, Queen и др.

Созданный в 2004 году проект nobody.one – это сочетание красивых и драйвовых мелодий с изысканными, но неназойливыми гитарными соло, которые никого не смогут оставить равнодушными. Музыка nobody. one способна перенести любого человека в другой мир, абсолютно не навязывая образы, а давая возможность фантазировать. На данный момент на счету nobody.one пять альбомов и два удачных тура по Европе и Англии, а также несколько туров по странам СНГ. Благодаря сети Интернет музыку Сергея Табачникова знают и любят во многих городах России, Украины, Белоруссии, Европы и Великобритании. Сингл “The Duck Song” находится в ротации бельгийской радиостанции «Radio 1».

Концерты Сергея - всегда уникальное и неповторимое явление. Каждая композиция в его исполнении рождается заново и открывается самым неожиданным образом, заражая окружающих бешеной энергией или вводя в транс абстрактными мелодиями.

Код:

Exact Audio Copy V0.99 prebeta 5 from 4. May 2009

Отчёт EAC об извлечении, выполненном 17. ноября 2010, 18:52

nobody.one / Head Movies

Дисковод: _NEC    DVD_RW ND-4551A   Adapter: 1  ID: 0

Режим чтения                 : Достоверность
Использование точного потока : Да
Отключение кэша аудио        : Да
Использование указателей C2  : Нет

Коррекция смещения при чтении                     : 48
Способность читать области Lead-in и Lead-out     : Нет
Заполнение пропущенных сэмплов тишиной            : Да
Удаление блоков с тишиной в начале и конце        : Нет
При вычислениях CRC использовались нулевые сэмплы : Да
Интерфейс                                         : Встроенный Win32-интерфейс для Win NT/2000

Выходной формат          : Пользовательский кодировщик
Выбранный битрейт        : 128 kBit/s
Качество                 : Высокий
Добавление ID3-тэга      : Нет
Утилита сжатия           : C:\Program Files\Exact Audio Copy\Flac\flac.exe
Дополнительные параметры : -8 -V -T "ARTIST=%a" -T "TITLE=%t" -T "ALBUM=%g" -T "DATE=%y" -T "TRACKNUMBER=%n" -T "GENRE=%m" -T "COMMENT=%e" %s -o %d

TOC извлечённого CD

     Трек |   Старт  | Длительность | Начальный сектор | Конечный сектор
    ---------------------------------------------------------------------
       1  |  0:00.00 |    3:37.72   |           0      |      16346     
       2  |  3:37.72 |    3:08.24   |       16347      |      30470     
       3  |  6:46.21 |    3:32.10   |       30471      |      46380     
       4  | 10:18.31 |    2:26.52   |       46381      |      57382     
       5  | 12:45.08 |    5:06.68   |       57383      |      80400     
       6  | 17:52.01 |    5:07.71   |       80401      |     103496     
       7  | 22:59.72 |    3:32.38   |      103497      |     119434     
       8  | 26:32.35 |    5:45.62   |      119435      |     145371     
       9  | 32:18.22 |    2:41.71   |      145372      |     157517     
      10  | 35:00.18 |    3:48.69   |      157518      |     174686     
      11  | 38:49.12 |    1:15.34   |      174687      |     180345     
      12  | 40:04.46 |    5:34.52   |      180346      |     205447     

Характеристики диапазона извлечения и сообщения об ошибках

Выбранный диапазон

     Имя файла D:\nobody.one 2010\nobody.one - Head Movies.wav

     Пиковый уровень 100.0 %
     Качество диапазона 100.0 %
     CRC теста 521DFE7D
     CRC копии 521DFE7D
     Копирование... OK

Ошибок не произошло

 
AccurateRip: сводка
 
Трек  1  нет в базе данных
Трек  2  нет в базе данных
Трек  3  нет в базе данных
Трек  4  нет в базе данных
Трек  5  нет в базе данных
Трек  6  нет в базе данных
Трек  7  нет в базе данных
Трек  8  нет в базе данных
Трек  9  нет в базе данных
Трек 10  нет в базе данных
Трек 11  нет в базе данных
Трек 12  нет в базе данных
 
Ни одного трека нет в базе AccurateRip

Конец отчёта

Код:

REM GENRE "Specially Addictive Soundtrack"
REM DATE 2010
REM DISCID 8A0AB30C
REM COMMENT "ExactAudioCopy v0.99pb5"
PERFORMER "nobody.one"
TITLE "Head Movies"
FILE "nobody.one - Head Movies.flac" WAVE
  TRACK 01 AUDIO
    TITLE "Leerg"
    PERFORMER "nobody.one"
    INDEX 01 00:00:00
  TRACK 02 AUDIO
    TITLE "Change"
    PERFORMER "nobody.one"
    INDEX 01 03:37:72
  TRACK 03 AUDIO
    TITLE "Bob"
    PERFORMER "nobody.one"
    INDEX 01 06:46:21
  TRACK 04 AUDIO
    TITLE "Astronomy"
    PERFORMER "nobody.one"
    INDEX 01 10:18:31
  TRACK 05 AUDIO
    TITLE "JB"
    PERFORMER "nobody.one"
    INDEX 01 12:45:08
  TRACK 06 AUDIO
    TITLE "Milena (feat. Artem Abrosimov)"
    PERFORMER "nobody.one"
    INDEX 01 17:52:01
  TRACK 07 AUDIO
    TITLE "Lifeline"
    PERFORMER "nobody.one"
    INDEX 01 22:59:72
  TRACK 08 AUDIO
    TITLE "The Duck Song"
    PERFORMER "nobody.one"
    INDEX 01 26:32:35
  TRACK 09 AUDIO
    TITLE "Set"
    PERFORMER "nobody.one"
    INDEX 01 32:18:22
  TRACK 10 AUDIO
    TITLE "Though"
    PERFORMER "nobody.one"
    INDEX 01 35:00:18
  TRACK 11 AUDIO
    TITLE "Touching The Void"
    PERFORMER "nobody.one"
    INDEX 01 38:49:12
  TRACK 12 AUDIO
    TITLE "Soul (Live 2006)"
    PERFORMER "nobody.one"
    INDEX 01 40:04:46

info [Профиль]  [ЛС] 

RockBottom

Стаж: 7 лет 3 месяца

Сообщений: 4

Украина
Рейтинг

post 16-Май-2012 17:17 (спустя 2 дня 20 часов) [-]1[+]

[Цитировать] 

Классный гитарюга и просто человек,делает красивую музыку и очень много пашет,низкий поклон ему
info [Профиль]  [ЛС] 
Показать сообщения:    
Ответить на тему

Текущее время: 09-Дек 06:01

Часовой пояс: GMT + 4



Вы не можете начинать темы
Вы не можете отвечать на сообщения
Вы не можете редактировать свои сообщения
Вы не можете удалять свои сообщения
Вы не можете голосовать в опросах
Вы не можете прикреплять файлы к сообщениям
Вы не можете скачивать файлы