Ошибка

Alicia Keys - 'It's On Again' (feat. Kendrick Lamar, Hans Zimmer & Johnny Marr) (Live on 'The Tonight Show Starring Jimmy Fallon') (OST "The Amazing Spider-Man 2")[2014, R'n'B / Hip Hop, HDTV 1080i]

Ответить на тему
 
Автор Сообщение

F.A.N.T.O.M

Пол: Пол:Муж

Стаж: 6 месяцев 24 дня

Сообщений: 476

Россия
Рейтинг

post 29-Июн-2024 01:27 1[+]

[Цитировать] 

Alicia Keys - 'It's On Again'
(feat. Kendrick Lamar, Hans Zimmer & Johnny Marr)


Жанр: R'n'B / Hip Hop
Продолжительность: 00:04:27
Год выпуска: 25/04/2014
Описание:
Первое живое исполнение заглавной песни к фильму
"Новый Человек-паук: Высокое напряжение" на шоу Джимми Фэллона.
Качество: HDTV 1080i
Контейнер: MPG
Видео кодек: MPEG2
Аудио кодек: AC3
Видео: MPEG2 Video 1920x1080i 29.97fps 11.7Mbps
Аудио: Dolby AC3 48000Hz 6ch 384kbps
 
Общее
Полное имя : Alicia Keys - 'It's On Again' (feat. Kendrick Lamar, Hans Zimmer & Johnny Marr) (Live on 'The Tonight Show Starring Jimmy Fallon' 25-04-2014) HDTV 1080i.mpg
Формат : MPEG-PS
Размер файла : 392 Мбайт
Продолжительность : 4 м. 26 с.
Режим общего битрейта : Переменный
Общий поток : 12,3 Мбит/сек

Видео
Идентификатор : 224 (0xE0)
Формат : MPEG Video
Версия формата : Version 2
Профиль формата : Main@High
Параметр BVOP формата : Да
Параметр матрицы формата : Выборочная
Параметр GOP формата : M=3, N=45
Продолжительность : 4 м. 26 с.
Вид битрейта : Переменный
Битрейт : 11,7 Мбит/сек
Максимальный битрейт : 20,0 Мбит/сек
Ширина : 1920 пикселей
Высота : 1080 пикселей
Соотношение сторон : 16:9
Описание активного формата : Full frame 16:9 image
Частота кадров : 29,970 кадров/сек
Стандарт вещания : Component
Цветовое пространство : YUV
Субдискретизация насыщенности : 4:2:0
Битовая глубина : 8 бит
Тип развёртки : Чересстрочная
Порядок развёртки : Верхнее поле первое
Метод сжатия : С потерями
Бит/(Пиксели*Кадры) : 0.188
Размер потока : 371 Мбайт (95%)
Основные цвета : BT.709
Характеристики трансфера : BT.709
Коэффициенты матрицы : BT.709

Аудио
Идентификатор : 189 (0xBD)-128 (0x80)
Формат : AC-3
Формат/Информация : Audio Coding 3
Расширение режима : CM (complete main)
Параметр Endianness формата : Big
Режим смешивания : DVD-Video
Продолжительность : 4 м. 26 с.
Вид битрейта : Постоянный
Битрейт : 384 Кбит/сек
Каналы : 6 каналов
Расположение каналов : Front: L C R, Side: L R, LFE
Частота : 48,0 КГц
Битовая глубина : 16 бит
Метод сжатия : С потерями
Задержка видео : -471 мс.
Размер потока : 12,2 Мбайт (3%)

Текст #1
Идентификатор : 224 (0xE0)-CC1
Формат : EIA-608
Режим смешивания : A/53 / DTVCC Transport
Режим смешивания, доп. информация : Muxed in Video #1
Вид битрейта : Постоянный
Размер потока : 0,00 байт (0%)

Текст #2
Идентификатор : 224 (0xE0)-CC3
Формат : EIA-608
Режим смешивания : A/53 / DTVCC Transport
Режим смешивания, доп. информация : Muxed in Video #1
Вид битрейта : Постоянный
Размер потока : 0,00 байт (0%)

Текст #3
Идентификатор : 224 (0xE0)-1
Формат : EIA-708
Режим смешивания : A/53 / DTVCC Transport
Режим смешивания, доп. информация : Muxed in Video #1
Вид битрейта : Постоянный
Размер потока : 0,00 байт (0%)

Текст #4
Идентификатор : 224 (0xE0)-2
Формат : EIA-708
Режим смешивания : A/53 / DTVCC Transport
Режим смешивания, доп. информация : Muxed in Video #1
Вид битрейта : Постоянный
Размер потока : 0,00 байт (0%)

info [Профиль]  [ЛС] 
Показать сообщения:    
Ответить на тему

Текущее время: 15-Июл 02:34

Часовой пояс: GMT + 4



Вы не можете начинать темы
Вы не можете отвечать на сообщения
Вы не можете редактировать свои сообщения
Вы не можете удалять свои сообщения
Вы не можете голосовать в опросах
Вы не можете прикреплять файлы к сообщениям
Вы не можете скачивать файлы