Ошибка

До окончания фрилича осталось:


(Hip-Hop, Pop Rap) [WEB] Kanye West & Ty Dolla $ign - VULTURES 1 - 2024, FLAC (tracks), lossless

Ответить на тему
 
Автор Сообщение

DarK_Knight96

Пол: Пол:Муж

Стаж: 4 месяца 27 дней

Сообщений: 363

Россия
Рейтинг

post 15-Май-2024 20:47 0[+]

[Цитировать] 



Kanye West & Ty Dolla $ign / VULTURES 1




Жанр: Hip-Hop, Pop Rap

Год издания: 2024

Формат/Кодек:: FLAC (*.flac)

Производитель диска:: USA

Количество треков: 16

Битрейт аудио: 1024 kbps

Продолжительность: 00:55:33

01. STARS
02. KEYS TO MY LIFE
03. PAID
04. TALKING
05. BACK TO ME
06. HOODRAT
07. DO IT
08. PAPERWORK
09. BURN
10. FUK SUMN
11. VULTURES
12. CARNIVAL
13. Beg Forgiveness
14. GOOD (DON'T DIE)
15. PROBLEMATIC
16. KING
-----------------------

DON'T MODIFY THIS FILE

-----------------------

PERFORMER: auCDtect Task Manager, ver. 1.6.0 RC1 build 1.6.0.1
Copyright (c) 2008-2010 y-soft. All rights reserved
http://y-soft.org

ANALYZER: auCDtect: CD records authenticity detector, version 0.8.2
Copyright (c) 2004 Oleg Berngardt. All rights reserved.
Copyright (c) 2004 Alexander Djourik. All rights reserved.

FILE: 01. STARS.flac
Size: 11830530 Hash: F7EB131DA86E2498CFCC52BC1C854E12 Accuracy: -m0
Conclusion: CDDA 100%
Signature: D8FA3485DF330E4F0E84F289A5CEA47DC0098D8B
FILE: 02. KEYS TO MY LIFE.flac
Size: 19886538 Hash: 05A673FCE8C7EFC3266DA72BA8E5CB48 Accuracy: -m0
Conclusion: CDDA 100%
Signature: AFACBBEB38133DE20DCAB3F2592E46525309AEA5
FILE: 03. PAID.flac
Size: 22436244 Hash: 13FB07C85619A38EEA35A8256A0DC634 Accuracy: -m0
Conclusion: CDDA 100%
Signature: 236CE06530923ED6A6C9D4BFB24DA6AD9039F07F
FILE: 04. TALKING.flac
Size: 21208045 Hash: 8DD8E0A9D3CBED14A4F481D8C41E5047 Accuracy: -m0
Conclusion: CDDA 100%
Signature: F28382F9D3EBFA46694C9CA09B9FC394DFD402F0
FILE: 05. BACK TO ME.flac
Size: 35108456 Hash: E1025B8D794346DC5E704C0DAAF0C6B3 Accuracy: -m0
Conclusion: CDDA 100%
Signature: 96CF7E3FA1DC6E6708475A74190787AB8561D161
FILE: 06. HOODRAT.flac
Size: 24863515 Hash: 92D903284250B14EF99C80B5CBA88A34 Accuracy: -m0
Conclusion: CDDA 99%
Signature: B8D177D99A1717810855CE2CD6F52181A8742D6D
FILE: 07. DO IT.flac
Size: 27236969 Hash: 06B3209791FA6774DEDB52B7DE79E73A Accuracy: -m0
Conclusion: MPEG 95%
Signature: 67B5BC2F58FC4CA506B1D076487DB2BD37446842
FILE: 08. PAPERWORK.flac
Size: 15018487 Hash: 1C47A9DFC577419372A7BA8410D2461A Accuracy: -m0
Conclusion: CDDA 100%
Signature: 9DDA6C34C3BC72CE8D91D1882A06ADF3D2E53A54
FILE: 09. BURN.flac
Size: 12823633 Hash: 3CDDE36146F6EFF85E0089C3DEB84883 Accuracy: -m0
Conclusion: CDDA 99%
Signature: E18664D9ADC72F9150F502BF4AF88165B840AF8F
FILE: 10. FUK SUMN.flac
Size: 25114859 Hash: 4CD00BCA4AF1E0124982E0227E27D78B Accuracy: -m0
Conclusion: CDDA 99%
Signature: 3100C6128EB5C19A9AE7839E687F3805E75166FE
FILE: 11. VULTURES.flac
Size: 32206892 Hash: AF835BBD9B34F6AD6D1E44CF51F181DD Accuracy: -m0
Conclusion: MPEG 95%
Signature: 15A5CC8B8760FD0271A28EC7FD9C3AA49A86B810
FILE: 12. CARNIVAL.flac
Size: 32348348 Hash: D9718965B9506D3CF7A6C6C323E1C0B1 Accuracy: -m0
Conclusion: CDDA 100%
Signature: 5D6F5C6043415B1D331838078327447BA92866A2
FILE: 13. Beg Forgiveness.flac
Size: 36152156 Hash: 8B02C5642A1FDC8FB87CBD418768CBD2 Accuracy: -m0
Conclusion: CDDA 99%
Signature: 03DE0BF0D8445210BDD452FD3BF870FC571A79F0
FILE: 14. GOOD (DON'T DIE).flac
Size: 17532170 Hash: 6DA5705DFFE333A0A5FF3A0F11F1EEBD Accuracy: -m0
Conclusion: MPEG 95%
Signature: 2F16EE4A053B7ED1C5A339186F5CD0C1B224B8CE
FILE: 15. PROBLEMATIC.flac
Size: 24031441 Hash: FEBA65ACAF71A60C17A72EC7E2CB8D8E Accuracy: -m0
Conclusion: CDDA 100%
Signature: EE40855AB9D9032B6BF7B7CEC01152E2D2408798
FILE: 16. KING.flac
Size: 18660193 Hash: DFA53D3AB70FFDB7E73CFED093E9961F Accuracy: -m0
Conclusion: CDDA 100%
Signature: 057141D7F76862ED59406C8F18CA9888FBC23716

Код:

foobar2000 1.6.4 / Замер динамического диапазона (DR) 1.1.1
Дата отчёта:  2024-02-10 13:47:23

--------------------------------------------------------------------------------
Анализ:   Kanye West, Ty Dolla $ign / VULTURES 1
--------------------------------------------------------------------------------

DR         Пики         RMS           Продолжительность трека
--------------------------------------------------------------------------------
DR4        0.00 дБ    -6.82 дБ      1:55 01-STARS
DR4        0.00 дБ    -8.41 дБ      2:54 02-KEYS TO MY LIFE
DR4        0.00 дБ    -5.29 дБ      3:15 03-PAID
DR3        0.00 дБ    -5.83 дБ      3:05 04-TALKING
DR5        0.00 дБ    -5.94 дБ      4:55 05-BACK TO ME
DR4        0.00 дБ    -5.12 дБ      3:43 06-HOODRAT
DR4        0.00 дБ    -5.95 дБ      3:45 07-DO IT
DR3       -0.31 дБ    -4.86 дБ      2:26 08-PAPERWORK
DR5        0.00 дБ    -5.81 дБ      1:51 09-BURN
DR3        0.00 дБ    -4.87 дБ      3:30 10-FUK SUMN
DR3       -0.10 дБ    -5.98 дБ      4:37 11-VULTURES
DR5        0.00 дБ    -6.99 дБ      4:24 12-CARNIVAL
DR1        0.00 дБ    -3.67 дБ      6:09 13-Beg Forgiveness
DR5        0.00 дБ    -6.40 дБ      3:19 14-GOOD (DON'T DIE)
DR5        0.00 дБ    -6.03 дБ      3:15 15-PROBLEMATIC
DR4        0.00 дБ    -6.21 дБ      2:37 16-KING
--------------------------------------------------------------------------------

Количество треков: 16
Реальные значения DR: DR4

Частота:   44100 Гц
Каналов:   2
Разрядность:   16
Битрейт:   945 кбит/с
Кодек:   FLAC
================================================================================
info [Профиль]  [ЛС] 
Показать сообщения:    
Ответить на тему

Текущее время: 18-Май 12:01

Часовой пояс: GMT + 4



Вы не можете начинать темы
Вы не можете отвечать на сообщения
Вы не можете редактировать свои сообщения
Вы не можете удалять свои сообщения
Вы не можете голосовать в опросах
Вы не можете прикреплять файлы к сообщениям
Вы не можете скачивать файлы