Ошибка

До окончания фрилича осталось:


(New Age, Celtic) Mychael & Jeff Danna - A Celtic Romance: The Legend of Lladain and Curithur - 1998, FLAC (tracks+.cue), lossless

Ответить на тему
 
Автор Сообщение

DarK_Knight96

Пол: Пол:Муж

Стаж: 4 месяца 27 дней

Сообщений: 363

Россия
Рейтинг

post 28-Апр-2024 22:34 0[+]

[Цитировать] 



Mychael & Jeff Danna / A Celtic Romance: The Legend of Lladain and Curithur[116]




Жанр: New Age, Celtic

Год издания: 1998

Страна: USA

Формат/Кодек:: FLAC (*.flac)

Издатель (лейбл): Hearts of Space

Количество треков: 12

Битрейт аудио: lossless

Продолжительность: 00:46:19

01. Evensong 01:42
02. Hills Of Ireland 04:19
03. Love Of Heaven 04:08
04. The Anchor Dream 05:47
05. The Blood Of Cu Chulainn 04:07
06. The Nightingale's Song 03:45
07. Funeral 03:43
08. Dia Dha Mo Chaim 04:34
09. The Prayerstone 03:33
10. Moon & Stars 04:55
11. The Silent Sun 01:52
12. Iona 03:49

Код:

EAC extraction logfile from 16. May 2009, 14:27 for CD
Mychael & Jeff Danna / A Celtic Romance

Used drive  : TSSTcorpCDDVDW SH-S223B   Adapter: 1  ID: 0
Read mode   : Secure with NO C2, accurate stream, disable cache
Read offset correction : 6
Overread into Lead-In and Lead-Out : No

Used output format : C:\Program Files\FLAC\flac.exe   (User Defined Encoder)
                     320 kBit/s
                     Additional command line options : -8 -V -T "ARTIST=%a" -T "TITLE=%t" -T "ALBUM=%g" -T "DATE=%y" -T "TRACKNUMBER=%n" -T "TOTALTRACKS=%x" -T "GENRE=%m" -T "ALBUM ARTIST=%v" -T "ALBUMARTIST=%v" -T "COMMENT=EAC V0.99 prebeta 4, Secure Mode,

Other options      :
    Fill up missing offset samples with silence : Yes
    Delete leading and trailing silent blocks : No
    Native Win32 interface for Win NT & 2000

Track  1
     Filename C:\01 - Evensong.wav

     Pre-gap length  0:00:02.00

     Peak level 99.9 %
     Track quality 99.8 %
     Test CRC B1EBD361
     Copy CRC B1EBD361
     Copy OK

Track  2
     Filename C:\02 - Hills Of Ireland.wav

     Peak level 100.0 %
     Track quality 100.0 %
     Test CRC 66CBC31E
     Copy CRC 66CBC31E
     Copy OK

Track  3
     Filename C:\03 - Love Of Heaven.wav

     Peak level 100.0 %
     Track quality 100.0 %
     Test CRC 71A6DE91
     Copy CRC 71A6DE91
     Copy OK

Track  4
     Filename C:\04 - The Anchor Dream.wav

     Peak level 100.0 %
     Track quality 100.0 %
     Test CRC 5EA95E46
     Copy CRC 5EA95E46
     Copy OK

Track  5
     Filename C:\05 - The Blood Of Cu Chulainn.wav

     Peak level 100.0 %
     Track quality 99.9 %
     Test CRC AFF31B66
     Copy CRC AFF31B66
     Copy OK

Track  6
     Filename C:\06 - The Nightingale's Song.wav

     Peak level 100.0 %
     Track quality 99.9 %
     Test CRC B078A02F
     Copy CRC B078A02F
     Copy OK

Track  7
     Filename C:\07 - Funeral.wav

     Peak level 100.0 %
     Track quality 100.0 %
     Test CRC C79BC777
     Copy CRC C79BC777
     Copy OK

Track  8
     Filename C:\08 - Dia Dha Mo Chaim.wav

     Peak level 100.0 %
     Track quality 100.0 %
     Test CRC 22348159
     Copy CRC 22348159
     Copy OK

Track  9
     Filename C:\09 - The Prayerstone.wav

     Peak level 100.0 %
     Track quality 100.0 %
     Test CRC F50B9947
     Copy CRC F50B9947
     Copy OK

Track 10
     Filename C:\10 -  Moon & Stars.wav

     Pre-gap length  0:00:00.01

     Peak level 100.0 %
     Track quality 100.0 %
     Test CRC C4D77DEE
     Copy CRC C4D77DEE
     Copy OK

Track 11
     Filename C:\11 - The Silent Sun.wav

     Peak level 93.9 %
     Track quality 100.0 %
     Test CRC 8375A7A7
     Copy CRC 8375A7A7
     Copy OK

Track 12
     Filename C:\12 - Iona.wav

     Peak level 100.0 %
     Track quality 100.0 %
     Test CRC 0D87CE8B
     Copy CRC 0D87CE8B
     Copy OK

No errors occured

End of status report[/font]

Код:

REM GENRE Celtic
REM DATE 1998
REM DISCID 840ADB0C
REM COMMENT "ExactAudioCopy v0.95b4"
PERFORMER "Mychael & Jeff Danna"
TITLE "A Celtic Romance"
FILE "01 - Evensong.wav" WAVE
  TRACK 01 AUDIO
    TITLE "Evensong"
    PERFORMER "Mychael & Jeff Danna"
    FLAGS DCP
    INDEX 01 00:00:00
FILE "02 - Hills Of Ireland.wav" WAVE
  TRACK 02 AUDIO
    TITLE "Hills Of Ireland"
    PERFORMER "Mychael & Jeff Danna"
    FLAGS DCP
    INDEX 01 00:00:00
FILE "03 - Love Of Heaven.wav" WAVE
  TRACK 03 AUDIO
    TITLE "Love Of Heaven"
    PERFORMER "Mychael & Jeff Danna"
    FLAGS DCP
    INDEX 01 00:00:00
FILE "04 - The Anchor Dream.wav" WAVE
  TRACK 04 AUDIO
    TITLE "The Anchor Dream"
    PERFORMER "Mychael & Jeff Danna"
    FLAGS DCP
    INDEX 01 00:00:00
FILE "05 - The Blood Of Cu Chulainn.wav" WAVE
  TRACK 05 AUDIO
    TITLE "The Blood Of Cu Chulainn"
    PERFORMER "Mychael & Jeff Danna"
    FLAGS DCP
    INDEX 01 00:00:00
FILE "06 - The Nightingale's Song.wav" WAVE
  TRACK 06 AUDIO
    TITLE "The Nightingale's Song"
    PERFORMER "Mychael & Jeff Danna"
    FLAGS DCP
    INDEX 01 00:00:00
FILE "07 - Funeral.wav" WAVE
  TRACK 07 AUDIO
    TITLE "Funeral"
    PERFORMER "Mychael & Jeff Danna"
    FLAGS DCP
    INDEX 01 00:00:00
FILE "08 - Dia Dha Mo Chaim.wav" WAVE
  TRACK 08 AUDIO
    TITLE "Dia Dha Mo Chaim"
    PERFORMER "Mychael & Jeff Danna"
    FLAGS DCP
    INDEX 01 00:00:00
FILE "09 - The Prayerstone.wav" WAVE
  TRACK 09 AUDIO
    TITLE "The Prayerstone"
    PERFORMER "Mychael & Jeff Danna"
    FLAGS DCP
    INDEX 01 00:00:00
  TRACK 10 AUDIO
    TITLE " Moon & Stars"
    PERFORMER "Mychael & Jeff Danna"
    FLAGS DCP
    INDEX 00 03:33:29
FILE "10 -  Moon & Stars.wav" WAVE
    INDEX 01 00:00:00
FILE "11 - The Silent Sun.wav" WAVE
  TRACK 11 AUDIO
    TITLE "The Silent Sun"
    PERFORMER "Mychael & Jeff Danna"
    FLAGS DCP
    INDEX 01 00:00:00
FILE "12 - Iona.wav" WAVE
  TRACK 12 AUDIO
    TITLE "Iona"
    PERFORMER "Mychael & Jeff Danna"
    FLAGS DCP
    INDEX 01 00:00:00

Код:

PERFORMER: auCDtect Task Manager, ver. 1.5.1RC4 build 1.5.1.5
Copyright (c) 2008-2010 y-soft. All rights reserved
http://y-soft.org

ANALYZER: auCDtect: CD records authenticity detector, version 0.8.2
Copyright (c) 2004 Oleg Berngardt. All rights reserved.
Copyright (c) 2004 Alexander Djourik. All rights reserved.

FILE: 12 - Iona.flac
  Size: 21033889 Hash: 44C6CDAC0B309B9705039500506835D1 Accuracy: -m0
  Conclusion: CDDA 100%
  Signature: C809991AF7854768B016C5441D6FB415F64EE187
FILE: 11 - The Silent Sun.flac
  Size: 8519186 Hash: C6C766F094D5737D2D68195BDA512715 Accuracy: -m0
  Conclusion: CDDA 100%
  Signature: 589B2FC2D74E7B5A601A9AA5B024E3DBAB877B8B
FILE: 10 -  Moon & Stars.flac
  Size: 27149567 Hash: CA9021BD11750698E6763D42453738FC Accuracy: -m0
  Conclusion: CDDA 100%
  Signature: 2FC4A8488FA5513B0042948C4C49D9E319E7FFAE
FILE: 09 - The Prayerstone.flac
  Size: 18627258 Hash: 1EB21C28D98134667FDA8E33FE559514 Accuracy: -m0
  Conclusion: CDDA 100%
  Signature: 633B0605A8B60F92A6AB29D4DF19893ECCED949B
FILE: 08 - Dia Dha Mo Chaim.flac
  Size: 28026553 Hash: EA11123B2EF26950648B068FBB08A939 Accuracy: -m0
  Conclusion: CDDA 100%
  Signature: 5128A7D43DC7A71744993A04A5C636649B959BC7
FILE: 07 - Funeral.flac
  Size: 23187318 Hash: A06271AD96EC55E335EDD613D1D9F885 Accuracy: -m0
  Conclusion: CDDA 100%
  Signature: 21B0AC2E6225FDAC345E7891DCC800D40C0A9875
FILE: 06 - The Nightingale's Song.flac
  Size: 20538457 Hash: 3B10B24211BD2C6E1900B46E359C4ABC Accuracy: -m0
  Conclusion: CDDA 100%
  Signature: 2544B7CA834605B27CD435C5CA5D7A63F3A07E5F
FILE: 05 - The Blood Of Cu Chulainn.flac
  Size: 28312385 Hash: AF581797E074C82D7FB63C59F35B3F0B Accuracy: -m0
  Conclusion: CDDA 100%
  Signature: 095F946894040F1D2009A4C28E0DC3185F3EADD5
FILE: 04 - The Anchor Dream.flac
  Size: 29331850 Hash: E1F4BDC298A5160D4719B0CD75706363 Accuracy: -m0
  Conclusion: CDDA 100%
  Signature: 056E3F532F4231D54F9C2CD07525867CB7042D42
FILE: 03 - Love Of Heaven.flac
  Size: 21379947 Hash: 895F3DFF487BE0AC36EE0194C8BEA52E Accuracy: -m0
  Conclusion: CDDA 94%
  Signature: FDCC054B48D94197E08BD7F20F7118BC67BECFB2
FILE: 02 - Hills Of Ireland.flac
  Size: 26607806 Hash: 4F6B9E1B72F15332781832F39A63D3D9 Accuracy: -m0
  Conclusion: CDDA 100%
  Signature: 405270CB44E4D37CE65E541C201B7688381F0BB0
FILE: 01 - Evensong.flac
  Size: 7971112 Hash: 032822109BECC4F4AB1F21926BDBBE78 Accuracy: -m0
  Conclusion: CDDA 100%
  Signature: F14DA172FBC8B56AFC1918600F85A73A1787EDCC
info [Профиль]  [ЛС] 
Показать сообщения:    
Ответить на тему

Текущее время: 18-Май 11:35

Часовой пояс: GMT + 4



Вы не можете начинать темы
Вы не можете отвечать на сообщения
Вы не можете редактировать свои сообщения
Вы не можете удалять свои сообщения
Вы не можете голосовать в опросах
Вы не можете прикреплять файлы к сообщениям
Вы не можете скачивать файлы