Ошибка

(Rock, Punk) Егор Летов - Вершки и корешки [Мистерия] - 1989, m4a (tracks+.cue)+cover, lossless

Ответить на тему
 
Автор Сообщение

molodoy_chelovek

Пол: Пол:Муж

Стаж: 6 месяцев 8 дней

Сообщений: 61

Рейтинг

post 27-Ноя-2023 16:01 2[+]

[Цитировать] 

Егор Летов - Вершки и корешки [Мистерия]



Жанр: Rock, Punk
Год издания данного носителя: 1989
Страна-производитель носителя: Russia
Аудио кодек: m4a
Тип рипа: tracks+.cue
Битрейт аудио: lossless
Продолжительность: 01:13:23
Полиграфия: Присутствует
Треклист:
1 Вершки И Корешки
2 Бери Шинель (Like A Rolling Stone)
3 Кто Сдохнет Первым
4 Самоотвод
5 Второй Эшелон
6 Как Листовка
7 Здравствуй, Чёрный Понедельник
8 Философская Песня О Пуле
9 Трамвай
10 Как Сметана
11 Иуда Будет В Раю
12 Государство
13 Кайф Или Больше
14 Продолжая Продолжать
15 Солдатами Не Рождаются
16 Колыбельная
17 Моя Оборона
18 Евангелие
19 Маленький Принц Возвращался Домой
20 Все Как У Людей
21 Про Червячков
22 Непонятная
23 Все Совсем Не То
24 Про Мишутку
25 Поезд Ушел
26 Отряд Не Заметил Потери Бойца
27 Парадокс
28 Свобода
29 Песенка О Святости, Мыше и Камыше

Exact Audio Copy V0.99 prebeta 4 from 23. January 2008 

Отчёт EAC об извлечении, выполненном 15. сентября 2008, 21:41

Егор Летов / Вершки И Корешки [2005. Мистерия Звука]

Дисковод: HL-DT-STDVDRAM GSA-H42L Adapter: 0 ID: 0

Режим чтения : Достоверность
Использование точного потока : Да
Отключение кэша аудио : Да
Использование указателей C2 : Нет

Коррекция смещения при чтении : 667
Способность читать области Lead-in и Lead-out : Нет
Заполнение пропущенных сэмплов тишиной : Да
Удаление блоков с тишиной в начале и конце : Нет
При вычислениях CRC использовались нулевые сэмплы : Да
Интерфейс : Встроенный Win32-интерфейс для Win NT/2000

Выходной формат : Внутренние WAV-операции
Формат сэмплов : 44.100 Гц; 16 бит; стерео

TOC извлечённого CD

Трек | Старт | Длительность | Начальный сектор | Конечный сектор
---------------------------------------------------------------------
1 | 0:00.00 | 1:48.29 | 0 | 8128
2 | 1:48.29 | 1:49.43 | 8129 | 16346
3 | 3:37.72 | 1:55.28 | 16347 | 24999
4 | 5:33.25 | 2:35.08 | 25000 | 36632
5 | 8:08.33 | 1:58.03 | 36633 | 45485
6 | 10:06.36 | 2:52.11 | 45486 | 58396
7 | 12:58.47 | 1:54.04 | 58397 | 66950
8 | 14:52.51 | 2:40.24 | 66951 | 78974
9 | 17:33.00 | 0:47.16 | 78975 | 82515
10 | 18:20.16 | 0:42.49 | 82516 | 85714
11 | 19:02.65 | 1:47.42 | 85715 | 93781
12 | 20:50.32 | 1:51.41 | 93782 | 102147
13 | 22:41.73 | 2:10.71 | 102148 | 111968
14 | 24:52.69 | 1:19.22 | 111969 | 117915
15 | 26:12.16 | 2:18.43 | 117916 | 128308
16 | 28:30.59 | 1:27.50 | 128309 | 134883
17 | 29:58.34 | 2:47.34 | 134884 | 147442
18 | 32:45.68 | 2:54.09 | 147443 | 160501
19 | 35:40.02 | 1:27.56 | 160502 | 167082
20 | 37:07.58 | 4:16.73 | 167083 | 186355
21 | 41:24.56 | 1:40.27 | 186356 | 193882
22 | 43:05.08 | 3:09.10 | 193883 | 208067
23 | 46:14.18 | 1:51.28 | 208068 | 216420
24 | 48:05.46 | 2:25.16 | 216421 | 227311
25 | 50:30.62 | 1:37.44 | 227312 | 234630
26 | 52:08.31 | 2:15.67 | 234631 | 244822
27 | 54:24.23 | 2:14.50 | 244823 | 254922
28 | 56:38.73 | 2:00.55 | 254923 | 263977
29 | 58:39.53 | 2:12.08 | 263978 | 273885
30 | 63:23.61 | 0:09.16 | 285286 | 285976

Характеристики диапазона извлечения и сообщения об ошибках

Выбранный диапазон

Имя файла C:Егор Летов - Вершки И Корешки [2005. Мистерия Звука].wav

Пиковый уровень 97.0 %
Качество диапазона 100.0 %
CRC теста 34AD1E12
CRC копии 34AD1E12
Копирование... OK

Ошибок не произошло

AccurateRip: сводка
Трек 1 нет в базе данных
Трек 2 нет в базе данных
Трек 3 нет в базе данных
Трек 4 нет в базе данных
Трек 5 нет в базе данных
Трек 6 нет в базе данных
Трек 7 нет в базе данных
Трек 8 нет в базе данных
Трек 9 нет в базе данных
Трек 10 нет в базе данных
Трек 11 нет в базе данных
Трек 12 нет в базе данных
Трек 13 нет в базе данных
Трек 14 нет в базе данных
Трек 15 нет в базе данных
Трек 16 нет в базе данных
Трек 17 нет в базе данных
Трек 18 нет в базе данных
Трек 19 нет в базе данных
Трек 20 нет в базе данных
Трек 21 нет в базе данных
Трек 22 нет в базе данных
Трек 23 нет в базе данных
Трек 24 нет в базе данных
Трек 25 нет в базе данных
Трек 26 нет в базе данных
Трек 27 нет в базе данных
Трек 28 нет в базе данных
Трек 29 нет в базе данных
Ни одного трека нет в базе AccurateRip

Конец отчёта
REM GENRE "Rock" 
REM DATE 1989
REM DISCID 8C0EE51E
PERFORMER "Егор Летов"
TITLE "Вершки и корешки [Мистерия]"
REM DISCNUMBER 1
REM TOTALDISCS 1
FILE "01. Вершки и корешки.m4a" WAVE
TRACK 01 AUDIO
TITLE "Вершки и корешки"
PERFORMER "Егор Летов"
INDEX 01 00:00:00
FILE "02. Бери шинель (Like a rolling stone).m4a" WAVE
TRACK 02 AUDIO
TITLE "Бери шинель (Like a rolling stone)"
PERFORMER "Егор Летов"
INDEX 01 00:00:00
FILE "03. Кто сдохнет первым.m4a" WAVE
TRACK 03 AUDIO
TITLE "Кто сдохнет первым"
PERFORMER "Егор Летов"
INDEX 01 00:00:00
FILE "04. Самоотвод.m4a" WAVE
TRACK 04 AUDIO
TITLE "Самоотвод"
PERFORMER "Егор Летов"
INDEX 01 00:00:00
FILE "05. Второй эшелон.m4a" WAVE
TRACK 05 AUDIO
TITLE "Второй эшелон"
PERFORMER "Егор Летов"
INDEX 01 00:00:00
FILE "06. Как листовка.m4a" WAVE
TRACK 06 AUDIO
TITLE "Как листовка"
PERFORMER "Егор Летов"
INDEX 01 00:00:00
FILE "07. Здравствуй, чёрный понедельник.m4a" WAVE
TRACK 07 AUDIO
TITLE "Здравствуй, чёрный понедельник"
PERFORMER "Егор Летов"
INDEX 01 00:00:00
FILE "08. Философская песня о пуле.m4a" WAVE
TRACK 08 AUDIO
TITLE "Философская песня о пуле"
PERFORMER "Егор Летов"
INDEX 01 00:00:00
FILE "09. Трамвай.m4a" WAVE
TRACK 09 AUDIO
TITLE "Трамвай"
PERFORMER "Егор Летов"
INDEX 01 00:00:00
FILE "10. Как сметана.m4a" WAVE
TRACK 10 AUDIO
TITLE "Как сметана"
PERFORMER "Егор Летов"
INDEX 01 00:00:00
FILE "11. Иуда будет в раю.m4a" WAVE
TRACK 11 AUDIO
TITLE "Иуда будет в раю"
PERFORMER "Егор Летов"
INDEX 01 00:00:00
FILE "12. Государство.m4a" WAVE
TRACK 12 AUDIO
TITLE "Государство"
PERFORMER "Егор Летов"
INDEX 01 00:00:00
FILE "13. Кайф или больше.m4a" WAVE
TRACK 13 AUDIO
TITLE "Кайф или больше"
PERFORMER "Егор Летов"
INDEX 01 00:00:00
FILE "14. Продолжая продолжать.m4a" WAVE
TRACK 14 AUDIO
TITLE "Продолжая продолжать"
PERFORMER "Егор Летов"
INDEX 01 00:00:00
FILE "15. Солдатами не рождаются.m4a" WAVE
TRACK 15 AUDIO
TITLE "Солдатами не рождаются"
PERFORMER "Егор Летов"
INDEX 01 00:00:00
FILE "16. Колыбельная.m4a" WAVE
TRACK 16 AUDIO
TITLE "Колыбельная"
PERFORMER "Егор Летов"
INDEX 01 00:00:00
FILE "17. Моя оборона.m4a" WAVE
TRACK 17 AUDIO
TITLE "Моя оборона"
PERFORMER "Егор Летов"
INDEX 01 00:00:00
FILE "18. Евангелие.m4a" WAVE
TRACK 18 AUDIO
TITLE "Евангелие"
PERFORMER "Егор Летов"
INDEX 01 00:00:00
FILE "19. Маленький принц возвращался домой.m4a" WAVE
TRACK 19 AUDIO
TITLE "Маленький принц возвращался домой"
PERFORMER "Егор Летов"
INDEX 01 00:00:00
FILE "20. Всё как у людей.m4a" WAVE
TRACK 20 AUDIO
TITLE "Всё как у людей"
PERFORMER "Егор Летов"
INDEX 01 00:00:00
FILE "21. Про червячков.m4a" WAVE
TRACK 21 AUDIO
TITLE "Про червячков"
PERFORMER "Егор Летов"
INDEX 01 00:00:00
FILE "22. Непонятная.m4a" WAVE
TRACK 22 AUDIO
TITLE "Непонятная"
PERFORMER "Егор Летов"
INDEX 01 00:00:00
FILE "23. Всё совсем не то.m4a" WAVE
TRACK 23 AUDIO
TITLE "Всё совсем не то"
PERFORMER "Егор Летов"
INDEX 01 00:00:00
FILE "24. Про мишутку.m4a" WAVE
TRACK 24 AUDIO
TITLE "Про мишутку"
PERFORMER "Егор Летов"
INDEX 01 00:00:00
FILE "25. Поезд ушёл.m4a" WAVE
TRACK 25 AUDIO
TITLE "Поезд ушёл"
PERFORMER "Егор Летов"
INDEX 01 00:00:00
FILE "26. Отряд не заметил потери бойца.m4a" WAVE
TRACK 26 AUDIO
TITLE "Отряд не заметил потери бойца"
PERFORMER "Егор Летов"
INDEX 01 00:00:00
FILE "27. Парадокс.m4a" WAVE
TRACK 27 AUDIO
TITLE "Парадокс"
PERFORMER "Егор Летов"
INDEX 01 00:00:00
FILE "28. Свобода.m4a" WAVE
TRACK 28 AUDIO
TITLE "Свобода"
PERFORMER "Егор Летов"
INDEX 01 00:00:00
FILE "29. Песенка о святости, мыше и камыше.m4a" WAVE
TRACK 29 AUDIO
TITLE "Песенка о святости, мыше и камыше"
PERFORMER "Егор Летов"
INDEX 01 00:00:00
info [Профиль]  [ЛС] 

Demon3x

Пол: Пол:Муж

Стаж: 14 лет

Сообщений: 1273

Россия
Рейтинг

post 27-Ноя-2023 16:59 (спустя 57 минут) [-]0[+]

[Цитировать] 

На будущее: перезаливай, пожалуйста, обложки на какие-нибудь фотохостинги, например https://imgbb.com
Здесь исправил. kolob_117

_________________
«Some Heroes Are Real»
info [Профиль]  [ЛС] 

molodoy_chelovek

Пол: Пол:Муж

Стаж: 6 месяцев 8 дней

Сообщений: 61

Рейтинг

post 27-Ноя-2023 18:50 (спустя 1 час 50 минут) [-]0[+]

[Цитировать] 

Demon3x
Я забыл. Хорошо, спасибо kolob_184

_________________
Раздаю 12/7, по всем вопросам - ЛС форума.
Если скачали - останьтесь на раздаче.
info [Профиль]  [ЛС] 
Показать сообщения:    
Ответить на тему

Текущее время: 25-Фев 02:58

Часовой пояс: GMT + 4



Вы не можете начинать темы
Вы не можете отвечать на сообщения
Вы не можете редактировать свои сообщения
Вы не можете удалять свои сообщения
Вы не можете голосовать в опросах
Вы не можете прикреплять файлы к сообщениям
Вы не можете скачивать файлы