Ошибка

До окончания фрилича осталось:


(Electronic, Pop, Indie Pop, House) Everything But The Girl - Fuse - 2023, FLAC (tracks+.cue), lossless

Ответить на тему
 
Автор Сообщение

mdanet

Пол: Пол:Муж

Стаж: 11 лет

Сообщений: 435

Россия
Рейтинг

post 20-Апр-2023 22:27 0[+]

[Цитировать] 

Everything But The Girl - Fuse


pic="https://i4.imageban.ru/out/2023/04/20/d7a08415e1bc7deb58f488eeb39610c5.jpg"


Жанр: Electronic, Pop, Indie Pop, House
Год издания данного носителя: 2023
Страна-производитель носителя: Великобритания
Лейбл: Buzzin' Fly Records
Каталоговый номер: EBTG015CD
Аудио кодек: FLAC
Тип рипа: tracks+.cue
Битрейт аудио: lossless
Продолжительность: 00:35:43
Источник (релизер): Orpheus (rodriguito)
Полиграфия: Отсутствует
01. Nothing Left To Lose (03:44)
02. Run A Red Light (03:39)
03. Caution To The Wind (04:06)
04. When You Mess Up (03:48)
05. Time And Time Again (02:51)
06. No One Knows We're Dancing (04:09)
07. Lost (03:25)
08. Forever (03:41)
09. Interior Space (02:24)
10. Karaoke (03:51)
Exact Audio Copy V1.6 from 23. October 2020 

EAC extraction logfile from 21. April 2023, 18:36

Everything but the Girl / Fuse

Used drive : Optiarc DVD RW AD-7190S Adapter: 1 ID: 2

Read mode : Secure
Utilize accurate stream : Yes
Defeat audio cache : Yes
Make use of C2 pointers : No

Read offset correction : 6
Overread into Lead-In and Lead-Out : No
Fill up missing offset samples with silence : Yes
Delete leading and trailing silent blocks : No
Null samples used in CRC calculations : Yes
Used interface : Native Win32 interface for Win NT & 2000
Gap handling : Appended to previous track

Used output format : User Defined Encoder
Selected bitrate : 1024 kBit/s
Quality : High
Add ID3 tag : No
Command line compressor : C:Program Files (x86)Exact Audio CopyFlacflac.exe
Additional command line options : -8 -V -T "ARTIST=%artist%" -T "TITLE=%title%" -T "ALBUM=%albumtitle%" -T "DATE=%year%" -T "TRACKNUMBER=%tracknr%" -T "GENRE=%genre%" -T "PERFORMER=%albuminterpret%" -T "COMPOSER=%composer%" %haslyrics%--tag-from-file=LYRICS="%lyricsfile%"%haslyrics% -T "ALBUMARTIST=%albumartist%" -T "DISCNUMBER=%cdnumber%" -T "TOTALDISCS=%totalcds%" -T "TOTALTRACKS=%numtracks%" -T "COMMENT=%comment%" %source% -o %dest%

TOC of the extracted CD

Track | Start | Length | Start sector | End sector
---------------------------------------------------------
1 | 0:00.00 | 3:45.45 | 0 | 16919
2 | 3:45.45 | 3:39.18 | 16920 | 33362
3 | 7:24.63 | 4:06.53 | 33363 | 51865
4 | 11:31.41 | 3:48.35 | 51866 | 69000
5 | 15:20.01 | 2:51.38 | 69001 | 81863
6 | 18:11.39 | 4:09.02 | 81864 | 100540
7 | 22:20.41 | 3:25.11 | 100541 | 115926
8 | 25:45.52 | 3:41.27 | 115927 | 132528
9 | 29:27.04 | 2:24.26 | 132529 | 143354
10 | 31:51.30 | 3:53.73 | 143355 | 160902

Track 1

Filename N:New RipsEverything but the Girl - 2023 - Fuse (EBTG015CD)�1 - Nothing Left to Lose.wav

Pre-gap length 0:00:02.00

Peak level 94.7 %
Extraction speed 3.4 X
Track quality 100.0 %
Test CRC B45B0159
Copy CRC B45B0159
Track not present in AccurateRip database
Copy OK

Track 2

Filename N:New RipsEverything but the Girl - 2023 - Fuse (EBTG015CD)�2 - Run a Red Light.wav

Peak level 87.8 %
Extraction speed 3.7 X
Track quality 100.0 %
Test CRC 3834C76F
Copy CRC 3834C76F
Track not present in AccurateRip database
Copy OK

Track 3

Filename N:New RipsEverything but the Girl - 2023 - Fuse (EBTG015CD)�3 - Caution to the Wind.wav

Peak level 91.4 %
Extraction speed 4.1 X
Track quality 100.0 %
Test CRC 69DBCA25
Copy CRC 69DBCA25
Track not present in AccurateRip database
Copy OK

Track 4

Filename N:New RipsEverything but the Girl - 2023 - Fuse (EBTG015CD)�4 - When You Mess Up.wav

Peak level 89.4 %
Extraction speed 4.3 X
Track quality 100.0 %
Test CRC F66453C5
Copy CRC F66453C5
Track not present in AccurateRip database
Copy OK

Track 5

Filename N:New RipsEverything but the Girl - 2023 - Fuse (EBTG015CD)�5 - Time and Time Again.wav

Peak level 91.6 %
Extraction speed 4.3 X
Track quality 100.0 %
Test CRC B88660AB
Copy CRC B88660AB
Track not present in AccurateRip database
Copy OK

Track 6

Filename N:New RipsEverything but the Girl - 2023 - Fuse (EBTG015CD)�6 - No One Knows We’re Dancing.wav

Peak level 93.1 %
Extraction speed 4.8 X
Track quality 100.0 %
Test CRC C41C322F
Copy CRC C41C322F
Track not present in AccurateRip database
Copy OK

Track 7

Filename N:New RipsEverything but the Girl - 2023 - Fuse (EBTG015CD)�7 - Lost.wav

Peak level 88.6 %
Extraction speed 3.9 X
Track quality 99.9 %
Test CRC 91D0F154
Copy CRC 91D0F154
Track not present in AccurateRip database
Copy OK

Track 8

Filename N:New RipsEverything but the Girl - 2023 - Fuse (EBTG015CD)�8 - Forever.wav

Peak level 94.4 %
Extraction speed 5.2 X
Track quality 100.0 %
Test CRC 1D3F7363
Copy CRC 1D3F7363
Track not present in AccurateRip database
Copy OK

Track 9

Filename N:New RipsEverything but the Girl - 2023 - Fuse (EBTG015CD)�9 - Interior Space.wav

Peak level 86.6 %
Extraction speed 4.9 X
Track quality 100.0 %
Test CRC B0FCB642
Copy CRC B0FCB642
Track not present in AccurateRip database
Copy OK

Track 10

Filename N:New RipsEverything but the Girl - 2023 - Fuse (EBTG015CD)10 - Karaoke.wav

Peak level 90.0 %
Extraction speed 5.6 X
Track quality 100.0 %
Test CRC E4C9A575
Copy CRC E4C9A575
Track not present in AccurateRip database
Copy OK

None of the tracks are present in the AccurateRip database

No errors occurred

End of status report

---- CUETools DB Plugin V2.1.6

[CTDB TOCID: bN.1cAkh5BGkBfdBIGMsoouyvEA-] found
Submit result: bN.1cAkh5BGkBfdBIGMsoouyvEA- has been confirmed
Track | CTDB Status
1 | (6/6) Accurately ripped
2 | (6/6) Accurately ripped
3 | (6/6) Accurately ripped
4 | (6/6) Accurately ripped
5 | (6/6) Accurately ripped
6 | (6/6) Accurately ripped
7 | (6/6) Accurately ripped
8 | (6/6) Accurately ripped
9 | (6/6) Accurately ripped
10 | (6/6) Accurately ripped

==== Log checksum F29071046317FA7F333C4760A9F462D3C35AA0B5C6636259456C326553AC8E21 ====
REM DATE 2023 
REM DISCID 8708610A
REM COMMENT "ExactAudioCopy v1.6"
CATALOG 0602448946522
PERFORMER "Everything but the Girl"
TITLE "Fuse"
REM COMPOSER ""
FILE "01 - Nothing Left to Lose.wav" WAVE
TRACK 01 AUDIO
TITLE "Nothing Left to Lose"
PERFORMER "Everything but the Girl"
REM COMPOSER ""
INDEX 01 00:00:00
FILE "02 - Run a Red Light.wav" WAVE
TRACK 02 AUDIO
TITLE "Run a Red Light"
PERFORMER "Everything but the Girl"
REM COMPOSER ""
INDEX 01 00:00:00
FILE "03 - Caution to the Wind.wav" WAVE
TRACK 03 AUDIO
TITLE "Caution to the Wind"
PERFORMER "Everything but the Girl"
REM COMPOSER ""
INDEX 01 00:00:00
FILE "04 - When You Mess Up.wav" WAVE
TRACK 04 AUDIO
TITLE "When You Mess Up"
PERFORMER "Everything but the Girl"
REM COMPOSER ""
INDEX 01 00:00:00
FILE "05 - Time and Time Again.wav" WAVE
TRACK 05 AUDIO
TITLE "Time and Time Again"
PERFORMER "Everything but the Girl"
REM COMPOSER ""
INDEX 01 00:00:00
FILE "06 - No One Knows We’re Dancing.wav" WAVE
TRACK 06 AUDIO
TITLE "No One Knows We’re Dancing"
PERFORMER "Everything but the Girl"
REM COMPOSER ""
INDEX 01 00:00:00
FILE "07 - Lost.wav" WAVE
TRACK 07 AUDIO
TITLE "Lost"
PERFORMER "Everything but the Girl"
REM COMPOSER ""
INDEX 01 00:00:00
FILE "08 - Forever.wav" WAVE
TRACK 08 AUDIO
TITLE "Forever"
PERFORMER "Everything but the Girl"
REM COMPOSER ""
INDEX 01 00:00:00
FILE "09 - Interior Space.wav" WAVE
TRACK 09 AUDIO
TITLE "Interior Space"
PERFORMER "Everything but the Girl"
REM COMPOSER ""
INDEX 01 00:00:00
FILE "10 - Karaoke.wav" WAVE
TRACK 10 AUDIO
TITLE "Karaoke"
PERFORMER "Everything but the Girl"
REM COMPOSER ""
INDEX 01 00:00:00
AUDIOCHECKER v2.0 beta (build 457) - by Dester - opdester@freemail.hu
~~~~~~~~~~~~~~~~~~~~~~~~~~~~~~~~~~
-=== DO NOT EDIT THIS FILE! ===-

Path: ...Everything but the Girl - 2023 - Fuse (EBTG015CD)

01 -=- 01 - Nothing Left to Lose.flac -=- CDDA (100%)
02 -=- 02 - Run a Red Light.flac -=- CDDA (100%)
03 -=- 03 - Caution to the Wind.flac -=- CDDA (99%)
04 -=- 04 - When You Mess Up.flac -=- CDDA (100%)
05 -=- 05 - Time and Time Again.flac -=- CDDA (100%)
06 -=- 06 - No One Knows We’re Dancing.flac -=- CDDA (99%)
07 -=- 07 - Lost.flac -=- CDDA (100%)
08 -=- 08 - Forever.flac -=- CDDA (100%)
09 -=- 09 - Interior Space.flac -=- CDDA (100%)
10 -=- 10 - Karaoke.flac -=- CDDA (100%)

Summary 99,80% CDDA

35330788
info [Профиль]  [ЛС] 

mdanet

Пол: Пол:Муж

Стаж: 11 лет

Сообщений: 435

Россия
Рейтинг

post 22-Апр-2023 21:16 (спустя 1 день 22 часа) [-]0[+]

[Цитировать] 

Заменил web-rip на cd-rip.
info [Профиль]  [ЛС] 
Показать сообщения:    
Ответить на тему

Текущее время: 16-Июл 04:45

Часовой пояс: GMT + 4



Вы не можете начинать темы
Вы не можете отвечать на сообщения
Вы не можете редактировать свои сообщения
Вы не можете удалять свои сообщения
Вы не можете голосовать в опросах
Вы не можете прикреплять файлы к сообщениям
Вы не можете скачивать файлы