Ошибка

(Avant-Garde Jazz, Jazzcore, Experimental) John Zorn & Naked City ‎– Naked City - 1990, FLAC (tracks+.cue), lossless

Ответить на тему
 
Автор Сообщение

chernichnoe

Пол: Пол:Жен

Стаж: 3 года 7 месяцев

Сообщений: 34

Россия
Рейтинг

post 04-Фев-2018 17:07 0[+]

[Цитировать] 

John Zorn & Naked City ‎– Naked City


pic="http://78.media.tumblr.com/tumblr_li99qoFD1v1qb5usb.jpg"


Жанр: Avant-Garde Jazz, Jazzcore, Experimental
Год издания данного носителя: 1990
Страна-производитель носителя: USA
Лейбл: Nonesuch
Каталоговый номер: 9 79238-2
Аудио кодек: FLAC
Тип рипа: tracks+.cue
Битрейт аудио: lossless
Продолжительность: 00:55:14

Треклист:
1. Batman
2. The Sicilian Clan
3. You Will Be Shot
4. Latin Quarter
5. A Shot In The Dark
6. Reanimator
7. Snagglepuss
8. I Want To Live
9. Lonely Woman
10. Igneous Ejaculation
11. Blood Duster
12. Hammerhead
13. Demon Sanctuary
14. Obeah Man
15. Ujaku
16. Fuck The Facts
17. Speedball
18. Chinatown
19. Punk China Doll
20. N.Y. Flat Top Box
21. Saigon Pickup
22. The James Bond Theme
23. Den Of Sins
24. Contempt
25. Graveyard Shift
26. Inside Straight
Exact Audio Copy V0.99 prebeta 3 from 28. July 2007 

EAC extraction logfile from 9. December 2007, 16:19

John Zorn / Naked City

Used drive : SONY DVD RW DRU-820A Adapter: 0 ID: 1

Read mode : Secure
Utilize accurate stream : Yes
Defeat audio cache : Yes
Make use of C2 pointers : No

Read offset correction : 102
Overread into Lead-In and Lead-Out : No
Fill up missing offset samples with silence : Yes
Delete leading and trailing silent blocks : No
Null samples used in CRC calculations : Yes
Used interface : Native Win32 interface for Win NT & 2000
Gap handling : Appended to previous track

Used output format : User Defined Encoder
Selected bitrate : 128 kBit/s
Quality : High
Add ID3 tag : No
Command line compressor : C:Program FilesExact Audio CopyFlacflac.exe
Additional command line options : -V -8 -T "artist=%a" -T "title=%t" -T "album=%g" -T "date=%y" -T "tracknumber=%n" -T "genre=%m" %s

TOC of the extracted CD

Track | Start | Length | Start sector | End sector
---------------------------------------------------------
1 | 0:00.00 | 2:03.73 | 0 | 9297
2 | 2:03.73 | 3:33.12 | 9298 | 25284
3 | 5:37.10 | 1:31.38 | 25285 | 32147
4 | 7:08.48 | 4:11.60 | 32148 | 51032
5 | 11:20.33 | 3:13.07 | 51033 | 65514
6 | 14:33.40 | 1:43.15 | 65515 | 73254
7 | 16:16.55 | 2:20.28 | 73255 | 83782
8 | 18:37.08 | 2:12.12 | 83783 | 93694
9 | 20:49.20 | 2:45.35 | 93695 | 106104
10 | 23:34.55 | 0:23.70 | 106105 | 107899
11 | 23:58.50 | 0:16.68 | 107900 | 109167
12 | 24:15.43 | 0:11.20 | 109168 | 110012
13 | 24:26.63 | 0:41.72 | 110013 | 113159
14 | 25:08.60 | 0:20.35 | 113160 | 114694
15 | 25:29.20 | 0:30.48 | 114695 | 116992
16 | 25:59.68 | 0:14.20 | 116993 | 118062
17 | 26:14.13 | 0:43.47 | 118063 | 121334
18 | 26:57.60 | 4:28.38 | 121335 | 141472
19 | 31:26.23 | 3:05.72 | 141473 | 155419
20 | 34:32.20 | 0:45.53 | 155420 | 158847
21 | 35:17.73 | 4:50.37 | 158848 | 180634
22 | 40:08.35 | 3:06.15 | 180635 | 194599
23 | 43:14.50 | 1:14.15 | 194600 | 200164
24 | 44:28.65 | 2:53.60 | 200165 | 213199
25 | 47:22.50 | 3:32.03 | 213200 | 229102
26 | 50:54.53 | 4:17.37 | 229103 | 248414

Track 1

Filename C:UsersOwnerMusicTorrentSeeded RipsJohn Zorn - Naked City1 - Batman.wav

Pre-gap length 0:00:02.00

Peak level 97.7 %
Track quality 100.0 %
Test CRC D8569DA2
Copy CRC D8569DA2
Track not present in AccurateRip database
Copy OK

Track 2

Filename C:UsersOwnerMusicTorrentSeeded RipsJohn Zorn - Naked City2 - The Sicilian Clan.wav

Peak level 75.9 %
Track quality 99.9 %
Test CRC AE13AC80
Copy CRC AE13AC80
Track not present in AccurateRip database
Copy OK

Track 3

Filename C:UsersOwnerMusicTorrentSeeded RipsJohn Zorn - Naked City3 - You Will Be Shot.wav

Peak level 97.7 %
Track quality 100.0 %
Test CRC C9105FE2
Copy CRC C9105FE2
Track not present in AccurateRip database
Copy OK

Track 4

Filename C:UsersOwnerMusicTorrentSeeded RipsJohn Zorn - Naked City4 - Latin Quarter.wav

Peak level 97.7 %
Track quality 100.0 %
Test CRC 11B0501F
Copy CRC 11B0501F
Track not present in AccurateRip database
Copy OK

Track 5

Filename C:UsersOwnerMusicTorrentSeeded RipsJohn Zorn - Naked City5 - A Shot in the Dark.wav

Peak level 85.1 %
Track quality 100.0 %
Test CRC 7BD2A566
Copy CRC 7BD2A566
Track not present in AccurateRip database
Copy OK

Track 6

Filename C:UsersOwnerMusicTorrentSeeded RipsJohn Zorn - Naked City6 - Reanimator.wav

Peak level 100.0 %
Track quality 100.0 %
Test CRC F0D4161D
Copy CRC F0D4161D
Track not present in AccurateRip database
Copy OK

Track 7

Filename C:UsersOwnerMusicTorrentSeeded RipsJohn Zorn - Naked City7 - Snagglepuss.wav

Peak level 97.7 %
Track quality 100.0 %
Test CRC 87FAEE28
Copy CRC 87FAEE28
Track not present in AccurateRip database
Copy OK

Track 8

Filename C:UsersOwnerMusicTorrentSeeded RipsJohn Zorn - Naked City8 - I Want To Live.wav

Peak level 100.0 %
Track quality 99.9 %
Test CRC 8FA918C2
Copy CRC 8FA918C2
Track not present in AccurateRip database
Copy OK

Track 9

Filename C:UsersOwnerMusicTorrentSeeded RipsJohn Zorn - Naked City9 - Lonely Woman.wav

Peak level 97.7 %
Track quality 100.0 %
Test CRC 067B781A
Copy CRC 067B781A
Track not present in AccurateRip database
Copy OK

Track 10

Filename C:UsersOwnerMusicTorrentSeeded RipsJohn Zorn - Naked City10 - Igneous Ejaculation.wav

Peak level 95.5 %
Track quality 100.0 %
Test CRC 757EA6F8
Copy CRC 757EA6F8
Track not present in AccurateRip database
Copy OK

Track 11

Filename C:UsersOwnerMusicTorrentSeeded RipsJohn Zorn - Naked City11 - Blood Duster.wav

Peak level 95.5 %
Track quality 99.3 %
Test CRC CCA654FB
Copy CRC CCA654FB
Track not present in AccurateRip database
Copy OK

Track 12

Filename C:UsersOwnerMusicTorrentSeeded RipsJohn Zorn - Naked City12 - Hammerhead.wav

Peak level 97.7 %
Track quality 99.0 %
Test CRC 3C832B1F
Copy CRC 3C832B1F
Track not present in AccurateRip database
Copy OK

Track 13

Filename C:UsersOwnerMusicTorrentSeeded RipsJohn Zorn - Naked City13 - Demon Sanctuary.wav

Peak level 97.7 %
Track quality 100.0 %
Test CRC 4CB97439
Copy CRC 4CB97439
Track not present in AccurateRip database
Copy OK

Track 14

Filename C:UsersOwnerMusicTorrentSeeded RipsJohn Zorn - Naked City14 - Obeah Man.wav

Peak level 95.5 %
Track quality 100.0 %
Test CRC 0FC24927
Copy CRC 0FC24927
Track not present in AccurateRip database
Copy OK

Track 15

Filename C:UsersOwnerMusicTorrentSeeded RipsJohn Zorn - Naked City15 - Ujaku.wav

Peak level 95.5 %
Track quality 100.0 %
Test CRC FD963AF9
Copy CRC FD963AF9
Track not present in AccurateRip database
Copy OK

Track 16

Filename C:UsersOwnerMusicTorrentSeeded RipsJohn Zorn - Naked City16 - Fuck The Facts.wav

Peak level 95.5 %
Track quality 99.2 %
Test CRC 2AE55C4A
Copy CRC 2AE55C4A
Track not present in AccurateRip database
Copy OK

Track 17

Filename C:UsersOwnerMusicTorrentSeeded RipsJohn Zorn - Naked City17 - Speedball.wav

Peak level 95.5 %
Track quality 100.0 %
Test CRC 30A513F8
Copy CRC 30A513F8
Track not present in AccurateRip database
Copy OK

Track 18

Filename C:UsersOwnerMusicTorrentSeeded RipsJohn Zorn - Naked City18 - Chinatown.wav

Peak level 47.8 %
Track quality 100.0 %
Test CRC 0A2B991F
Copy CRC 0A2B991F
Track not present in AccurateRip database
Copy OK

Track 19

Filename C:UsersOwnerMusicTorrentSeeded RipsJohn Zorn - Naked City19 - Punk China Doll.wav

Peak level 97.7 %
Track quality 99.9 %
Test CRC 49496322
Copy CRC 49496322
Track not present in AccurateRip database
Copy OK

Track 20

Filename C:UsersOwnerMusicTorrentSeeded RipsJohn Zorn - Naked City20 - N.Y. Flat Top Box.wav

Peak level 97.7 %
Track quality 100.0 %
Test CRC 530D9644
Copy CRC 530D9644
Track not present in AccurateRip database
Copy OK

Track 21

Filename C:UsersOwnerMusicTorrentSeeded RipsJohn Zorn - Naked City21 - Saigon Pickup.wav

Peak level 95.5 %
Track quality 100.0 %
Test CRC B10CE4F5
Copy CRC B10CE4F5
Track not present in AccurateRip database
Copy OK

Track 22

Filename C:UsersOwnerMusicTorrentSeeded RipsJohn Zorn - Naked City22 - The James Bond Theme.wav

Peak level 97.7 %
Track quality 100.0 %
Test CRC 37C9D5C0
Copy CRC 37C9D5C0
Track not present in AccurateRip database
Copy OK

Track 23

Filename C:UsersOwnerMusicTorrentSeeded RipsJohn Zorn - Naked City23 - Den of Sins.wav

Peak level 89.3 %
Track quality 100.0 %
Test CRC 3DE927B8
Copy CRC 3DE927B8
Track not present in AccurateRip database
Copy OK

Track 24

Filename C:UsersOwnerMusicTorrentSeeded RipsJohn Zorn - Naked City24 - Contempt.wav

Peak level 95.5 %
Track quality 100.0 %
Test CRC E7F7F708
Copy CRC E7F7F708
Track not present in AccurateRip database
Copy OK

Track 25

Filename C:UsersOwnerMusicTorrentSeeded RipsJohn Zorn - Naked City25 - Graveyard Shift.wav

Peak level 97.7 %
Track quality 100.0 %
Test CRC CEB5DA08
Copy CRC CEB5DA08
Track not present in AccurateRip database
Copy OK

Track 26

Filename C:UsersOwnerMusicTorrentSeeded RipsJohn Zorn - Naked City26 - Inside Straight.wav

Peak level 95.5 %
Track quality 100.0 %
Test CRC C2BE0116
Copy CRC C2BE0116
Track not present in AccurateRip database
Copy OK

None of the tracks are present in the AccurateRip database

No errors occurred

End of status report
REM DISCID 6C0CF01A 
REM COMMENT "ExactAudioCopy v0.99pb3"
PERFORMER "John Zorn"
TITLE "Naked City"
FILE "John Zorn - Naked City1 - Batman.wav" WAVE
TRACK 01 AUDIO
TITLE "Batman"
PERFORMER "John Zorn"
INDEX 01 00:00:00
FILE "John Zorn - Naked City2 - The Sicilian Clan.wav" WAVE
TRACK 02 AUDIO
TITLE "The Sicilian Clan"
PERFORMER "John Zorn"
INDEX 01 00:00:00
FILE "John Zorn - Naked City3 - You Will Be Shot.wav" WAVE
TRACK 03 AUDIO
TITLE "You Will Be Shot"
PERFORMER "John Zorn"
INDEX 01 00:00:00
FILE "John Zorn - Naked City4 - Latin Quarter.wav" WAVE
TRACK 04 AUDIO
TITLE "Latin Quarter"
PERFORMER "John Zorn"
INDEX 01 00:00:00
FILE "John Zorn - Naked City5 - A Shot in the Dark.wav" WAVE
TRACK 05 AUDIO
TITLE "A Shot in the Dark"
PERFORMER "John Zorn"
INDEX 01 00:00:00
FILE "John Zorn - Naked City6 - Reanimator.wav" WAVE
TRACK 06 AUDIO
TITLE "Reanimator"
PERFORMER "John Zorn"
INDEX 01 00:00:00
FILE "John Zorn - Naked City7 - Snagglepuss.wav" WAVE
TRACK 07 AUDIO
TITLE "Snagglepuss"
PERFORMER "John Zorn"
INDEX 01 00:00:00
FILE "John Zorn - Naked City8 - I Want To Live.wav" WAVE
TRACK 08 AUDIO
TITLE "I Want To Live"
PERFORMER "John Zorn"
INDEX 01 00:00:00
FILE "John Zorn - Naked City9 - Lonely Woman.wav" WAVE
TRACK 09 AUDIO
TITLE "Lonely Woman"
PERFORMER "John Zorn"
INDEX 01 00:00:00
FILE "John Zorn - Naked City10 - Igneous Ejaculation.wav" WAVE
TRACK 10 AUDIO
TITLE "Igneous Ejaculation"
PERFORMER "John Zorn"
INDEX 01 00:00:00
FILE "John Zorn - Naked City11 - Blood Duster.wav" WAVE
TRACK 11 AUDIO
TITLE "Blood Duster"
PERFORMER "John Zorn"
INDEX 01 00:00:00
FILE "John Zorn - Naked City12 - Hammerhead.wav" WAVE
TRACK 12 AUDIO
TITLE "Hammerhead"
PERFORMER "John Zorn"
INDEX 01 00:00:00
FILE "John Zorn - Naked City13 - Demon Sanctuary.wav" WAVE
TRACK 13 AUDIO
TITLE "Demon Sanctuary"
PERFORMER "John Zorn"
INDEX 01 00:00:00
FILE "John Zorn - Naked City14 - Obeah Man.wav" WAVE
TRACK 14 AUDIO
TITLE "Obeah Man"
PERFORMER "John Zorn"
INDEX 01 00:00:00
FILE "John Zorn - Naked City15 - Ujaku.wav" WAVE
TRACK 15 AUDIO
TITLE "Ujaku"
PERFORMER "John Zorn"
INDEX 01 00:00:00
FILE "John Zorn - Naked City16 - Fuck The Facts.wav" WAVE
TRACK 16 AUDIO
TITLE "Fuck The Facts"
PERFORMER "John Zorn"
INDEX 01 00:00:00
FILE "John Zorn - Naked City17 - Speedball.wav" WAVE
TRACK 17 AUDIO
TITLE "Speedball"
PERFORMER "John Zorn"
INDEX 01 00:00:00
FILE "John Zorn - Naked City18 - Chinatown.wav" WAVE
TRACK 18 AUDIO
TITLE "Chinatown"
PERFORMER "John Zorn"
INDEX 01 00:00:00
FILE "John Zorn - Naked City19 - Punk China Doll.wav" WAVE
TRACK 19 AUDIO
TITLE "Punk China Doll"
PERFORMER "John Zorn"
INDEX 01 00:00:00
FILE "John Zorn - Naked City20 - N.Y. Flat Top Box.wav" WAVE
TRACK 20 AUDIO
TITLE "N.Y. Flat Top Box"
PERFORMER "John Zorn"
INDEX 01 00:00:00
FILE "John Zorn - Naked City21 - Saigon Pickup.wav" WAVE
TRACK 21 AUDIO
TITLE "Saigon Pickup"
PERFORMER "John Zorn"
INDEX 01 00:00:00
FILE "John Zorn - Naked City22 - The James Bond Theme.wav" WAVE
TRACK 22 AUDIO
TITLE "The James Bond Theme"
PERFORMER "John Zorn"
INDEX 01 00:00:00
FILE "John Zorn - Naked City23 - Den of Sins.wav" WAVE
TRACK 23 AUDIO
TITLE "Den of Sins"
PERFORMER "John Zorn"
INDEX 01 00:00:00
FILE "John Zorn - Naked City24 - Contempt.wav" WAVE
TRACK 24 AUDIO
TITLE "Contempt"
PERFORMER "John Zorn"
INDEX 01 00:00:00
FILE "John Zorn - Naked City25 - Graveyard Shift.wav" WAVE
TRACK 25 AUDIO
TITLE "Graveyard Shift"
PERFORMER "John Zorn"
INDEX 01 00:00:00
FILE "John Zorn - Naked City26 - Inside Straight.wav" WAVE
TRACK 26 AUDIO
TITLE "Inside Straight"
PERFORMER "John Zorn"
INDEX 01 00:00:00
info [Профиль]  [ЛС] 
Показать сообщения:    
Ответить на тему

Текущее время: 03-Дек 01:59

Часовой пояс: GMT + 4



Вы не можете начинать темы
Вы не можете отвечать на сообщения
Вы не можете редактировать свои сообщения
Вы не можете удалять свои сообщения
Вы не можете голосовать в опросах
Вы не можете прикреплять файлы к сообщениям
Вы не можете скачивать файлы