Ошибка

(OST) Врата Штейна / Steins;Gate - 2011, (OP,ED), APE(image+.cue), lossless

Ответить на тему
 
Автор Сообщение

Phen1x

Пол: Пол:Муж

Стаж: 10 лет

Сообщений: 672

Украина
Рейтинг

post 02-Ноя-2012 22:31 0[+]

[Цитировать] 

Врата Штейна / Steins;Gate (OP,ED)

pic="http://s002.youpic.su/pictures/1317412800/f89649e0115571f5211411bcd81f62a3.jpg"

Жанр: OST || Страна: Япония || Год издания: 2011
Тип рипа: image+.cue || Аудиокодек: APE || Битрейт аудио: lossless
Продолжительность: 39:22 || Полиграфия: Присутствует

Треклист:
01. Hacking to the Gate (4:16)
02. リライアンス (5:14)
03. Hacking to the Gate(Off Vocal) (4:16)
04. リライアンス(Off Vocal) (?)
  
EAC 取り込みログファイル 日付 : 27. 4月 2011, 13:21 for CD
いとうかなこ / Hacking to the Gate

使用ドライブ : MATSHITABD-MLT UJ240AS Adapter: 0 ID: 1
読み込みモード : セキュアモード (C2エラー訂正有り, 正確なデータ転送能力有り, キャッシュ有効)
読み込みサンプルオフセット訂正値 : 73
リードイン・リードアウトをオーバーリードする : いいえ

使用出力モード : D:\TECH_Win\OnLineSoft 2\エンコーダー\Monkey's Audio\MAC.exe (Monkey's Audio Lossless Encoder)
Extra High Lossless Compression

その他のオプション :
欠落したオフセットサンプルを無音で補完する : はい
曲の先頭と末端の無音領域を削除する : いいえ
Win NT & 2000用のクラスドライバ

範囲取り込みステータス & エラー
選択された範囲
ファイル名 D:\TEMP\いとうかなこ - Hacking to the Gate.wav

ピークレベル 99.8 %
範囲取り込み品質 100.0 %
CRC 1ABBD5FE
コピー OK

エラーは発生しませんでした

ステータス報告完了

  
REM GENRE Anime/Soundtrack
REM DATE 2011
REM DISCID 31047204
REM COMMENT "ExactAudioCopy v0.95b3"
CATALOG 4562207978033
PERFORMER "いとうかなこ"
TITLE "Hacking to the Gate"
FILE "ItouKanako - Hacking to the Gate.ape" WAVE
TRACK 01 AUDIO
TITLE "Hacking to the Gate"
PERFORMER "いとうかなこ"
ISRC JPD641100041
INDEX 01 00:00:00
TRACK 02 AUDIO
TITLE "リライアンス"
PERFORMER "いとうかなこ"
ISRC JPD641100042
INDEX 00 04:14:71
INDEX 01 04:16:35
TRACK 03 AUDIO
TITLE "Hacking to the Gate(Off Vocal)"
PERFORMER "いとうかなこ"
ISRC JPD641100043
INDEX 00 09:28:20
INDEX 01 09:30:59
TRACK 04 AUDIO
TITLE "リライアンス(Off Vocal)"
PERFORMER "いとうかなこ"
ISRC JPD641100044
INDEX 00 13:45:05
INDEX 01 13:46:44

Треклист:
01. 刻司ル十二ノ盟約 (5:03)
02. 麗しきセデュース (5:09)
03. 刻司ル十二ノ盟約 (Off Vocal) (5:03)
04. 麗しきセデュース (Off Vocal) (?)
  
EAC 取り込みログファイル 日付 : 24. 5月 2011, 16:24 for CD
ファンタズム(FES CV:榊原ゆい) / 刻司ル十二ノ盟約

使用ドライブ : Optiarc DVD RW AD-7540A Adapter: 1 ID: 0
読み込みモード : セキュアモード (C2エラー訂正有り, 正確なデータ転送能力有り, キャッシュ無効)
読み込みサンプルオフセット訂正値 : 18
リードイン・リードアウトをオーバーリードする : いいえ

使用出力モード : D:\TECH_Win\OnLineSoft 2\エンコーダー\Monkey's Audio\MAC.exe (Monkey's Audio Lossless Encoder)
Fast Lossless Compression

その他のオプション :
欠落したオフセットサンプルを無音で補完する : はい
曲の先頭と末端の無音領域を削除する : いいえ
Win NT & 2000用のクラスドライバ

範囲取り込みステータス & エラー
選択された範囲
ファイル名 D:\TEMP\CDImage.wav

ピークレベル 99.8 %
範囲取り込み品質 99.9 %
CRC F2B8D9C8
コピー OK

エラーは発生しませんでした

ステータス報告完了

  
REM GENRE Anime/Soundtrack
REM DATE 2011
CATALOG 4562207978057
PERFORMER "ファンタズム(FES CV:榊原ゆい)"
TITLE "刻司ル十二ノ盟約"
FILE "Sakakibara Yui - Toki Tsukasadoru Juuni no Meiyaku.ape" WAVE
TRACK 01 AUDIO
TITLE "刻司ル十二ノ盟約"
PERFORMER "ファンタズム(FES CV:榊原ゆい)"
ISRC 000000000000
INDEX 01 00:00:00
TRACK 02 AUDIO
TITLE "麗しきセデュース"
PERFORMER "ファンタズム(FES CV:榊原ゆい)"
ISRC JPD641100046
INDEX 00 05:00:71
INDEX 01 05:03:36
TRACK 03 AUDIO
TITLE "刻司ル十二ノ盟約 (Off Vocal)"
PERFORMER "ファンタズム(FES CV:榊原ゆい)"
ISRC JPD641100047
INDEX 00 10:10:33
INDEX 01 10:12:73
TRACK 04 AUDIO
TITLE "麗しきセデュース (Off Vocal)"
PERFORMER "ファンタズム(FES CV:榊原ゆい)"
ISRC JPD641100048
INDEX 00 15:13:19
INDEX 01 15:15:59

info [Профиль]  [ЛС] 

olol

Пол: Пол:Муж

Стаж: 11 лет

Сообщений: 144

Япония
Рейтинг

post 05-Ноя-2012 12:36 (спустя 2 дня 14 часов) [-]0[+]

[Цитировать] 

Почему в названии темы 2009?)
info [Профиль]  [ЛС] 

Phen1x

Пол: Пол:Муж

Стаж: 10 лет

Сообщений: 672

Украина
Рейтинг

post 05-Ноя-2012 13:35 (спустя 58 минут) [-]0[+]

[Цитировать] 

olol писал(а):

Почему в названии темы 2009?)
почему 2009?

Цитата:

(OST) Врата Штейна / Steins;Gate - 2011, (OP,ED), APE(image+.cue), lossless

_________________
info [Профиль]  [ЛС] 
Показать сообщения:    
Ответить на тему

Текущее время: 26-Фев 17:49

Часовой пояс: GMT + 4



Вы не можете начинать темы
Вы не можете отвечать на сообщения
Вы не можете редактировать свои сообщения
Вы не можете удалять свои сообщения
Вы не можете голосовать в опросах
Вы не можете прикреплять файлы к сообщениям
Вы не можете скачивать файлы