Ошибка

(Electronic, Dubstep, UK Garage) Burial - Street Halo / Kindred - 2012, FLAC (tracks+.cue), lossless

Ответить на тему
 
Автор Сообщение

kossmos

Пол: Пол:Муж

Стаж: 7 лет 6 месяцев

Сообщений: 273

Украина
Рейтинг

post 02-Мар-2012 16:59 0[+]

[Цитировать] 

Burial - Street Halo / Kindred


pic="http://s002.youpic.su/pictures/1330635600/c3fedd3ab227cc3271ab58f90bf452ba.jpg"


Жанр: Electronic, Dubstep, UK Garage
Год издания данного носителя: 2012
Лейбл: Hyperdub
Каталоговый номер: BCR320
Аудио кодек: FLAC
Тип рипа: tracks+.cue
Битрейт аудио: lossless
Продолжительность: 00:51:33
Источник (релизер): What.CD (cnc)
Полиграфия: Отсутствует

Треклист:
01. Street Halo (6:47)
02. NYC (7:40)
03. Stolen Dog (6:23)
04. Kindred (11:28)
05. Loner (7:30)
06. Ashtray Wasp (11:45)
Exact Audio Copy V1.0 beta 3 from 29. August 2011 
EAC extraction logfile from 2. March 2012, 0:02
Burial / Street Halo / Kindred
Used drive : SlimtypeBD E DS4E1S Adapter: 0 ID: 1
Read mode : Secure
Utilize accurate stream : Yes
Defeat audio cache : Yes
Make use of C2 pointers : No
Read offset correction : 6
Overread into Lead-In and Lead-Out : No
Fill up missing offset samples with silence : Yes
Delete leading and trailing silent blocks : No
Null samples used in CRC calculations : Yes
Used interface : Native Win32 interface for Win NT & 2000
Gap handling : Appended to previous track
Used output format : User Defined Encoder
Selected bitrate : 32 kBit/s
Quality : High
Add ID3 tag : No
Command line compressor : C:Program FilesFLACflac.exe
Additional command line options : -8 -V -T "ARTIST=%artist%" -T "TITLE=%title%" -T "ALBUM=%albumtitle%" -T "DATE=%year%" -T "TRACKNUMBER=%tracknr%" -T "GENRE=%genre%" -T "PERFORMER=%albuminterpret%" -T "COMPOSER=%composer%" %haslyrics%--tag-from-file=LYRICS="%lyricsfile%"%haslyrics% -T "ALBUMARTIST=%albumartist%" -T "ALBUM ARTIST=%albumartist%" -T "DISCNUMBER=%cdnumber%" -T "TOTALDISCS=%totalcds%" -T "TOTALTRACKS=%numtracks%" -T "COMMENT=%comment%" %source% -o %dest%
TOC of the extracted CD
Track | Start | Length | Start sector | End sector
---------------------------------------------------------
1 | 0:00.00 | 6:47.04 | 0 | 30528
2 | 6:47.04 | 7:39.51 | 30529 | 65004
3 | 14:26.55 | 6:23.03 | 65005 | 93732
4 | 20:49.58 | 11:28.03 | 93733 | 145335
5 | 32:17.61 | 7:30.07 | 145336 | 179092
6 | 39:47.68 | 11:45.14 | 179093 | 231981
Track 1
Filename C:EAC�1 Street Halo.wav
Pre-gap length 0:00:02.00
Peak level 97.7 %
Extraction speed 2.9 X
Track quality 100.0 %
Test CRC A410C4C6
Copy CRC A410C4C6
Track not present in AccurateRip database
Copy OK
Track 2
Filename C:EAC�2 NYC.wav
Pre-gap length 0:00:01.74
Peak level 97.7 %
Extraction speed 3.4 X
Track quality 100.0 %
Test CRC F224AD8D
Copy CRC F224AD8D
Track not present in AccurateRip database
Copy OK
Track 3
Filename C:EAC�3 Stolen Dog.wav
Pre-gap length 0:00:01.74
Peak level 97.7 %
Extraction speed 3.8 X
Track quality 100.0 %
Test CRC E2DECBCB
Copy CRC E2DECBCB
Track not present in AccurateRip database
Copy OK
Track 4
Filename C:EAC�4 Kindred.wav
Pre-gap length 0:00:01.74
Peak level 97.7 %
Extraction speed 4.5 X
Track quality 100.0 %
Test CRC 442A6F81
Copy CRC 442A6F81
Track not present in AccurateRip database
Copy OK
Track 5
Filename C:EAC�5 Loner.wav
Pre-gap length 0:00:01.74
Peak level 97.7 %
Extraction speed 4.8 X
Track quality 100.0 %
Test CRC 3FA8B446
Copy CRC 3FA8B446
Track not present in AccurateRip database
Copy OK
Track 6
Filename C:EAC�6 Ashtray Wasp.wav
Pre-gap length 0:00:01.58
Peak level 97.7 %
Extraction speed 5.0 X
Track quality 99.9 %
Test CRC 9A80D340
Copy CRC 9A80D340
Track not present in AccurateRip database
Copy OK
None of the tracks are present in the AccurateRip database
No errors occurred
End of status report
==== Log checksum AF7C423D70F6F4D2B796CE6F1C5ACD9FA6D97C6ADE0C664DF94194F970054514 ====
REM GENRE Dubstep 
REM DATE 2012
REM DISCID 5A0C1506
REM COMMENT "ExactAudioCopy v1.0b3"
PERFORMER "Burial"
TITLE "Street Halo / Kindred"
FILE "01 Street Halo.wav" WAVE
TRACK 01 AUDIO
TITLE "Street Halo"
PERFORMER "Burial"
INDEX 01 00:00:00
TRACK 02 AUDIO
TITLE "NYC"
PERFORMER "Burial"
INDEX 00 06:45:05
FILE "02 NYC.wav" WAVE
INDEX 01 00:00:00
TRACK 03 AUDIO
TITLE "Stolen Dog"
PERFORMER "Burial"
INDEX 00 07:37:52
FILE "03 Stolen Dog.wav" WAVE
INDEX 01 00:00:00
TRACK 04 AUDIO
TITLE "Kindred"
PERFORMER "Burial"
INDEX 00 06:21:04
FILE "04 Kindred.wav" WAVE
INDEX 01 00:00:00
TRACK 05 AUDIO
TITLE "Loner"
PERFORMER "Burial"
INDEX 00 11:26:04
FILE "05 Loner.wav" WAVE
INDEX 01 00:00:00
TRACK 06 AUDIO
TITLE "Ashtray Wasp"
PERFORMER "Burial"
INDEX 00 07:28:24
FILE "06 Ashtray Wasp.wav" WAVE
INDEX 01 00:00:00
info [Профиль]  [ЛС] 

Raa

Пол: Пол:Муж

Стаж: 6 лет 9 месяцев

Сообщений: 1099

Рейтинг

post 03-Мар-2012 23:29 (спустя 1 день 6 часов) [-]0[+]

[Цитировать] 

kossmos
Отчёт поправьте.
info [Профиль]  [ЛС] 
Показать сообщения:    
Ответить на тему

Текущее время: 08-Дек 18:29

Часовой пояс: GMT + 4



Вы не можете начинать темы
Вы не можете отвечать на сообщения
Вы не можете редактировать свои сообщения
Вы не можете удалять свои сообщения
Вы не можете голосовать в опросах
Вы не можете прикреплять файлы к сообщениям
Вы не можете скачивать файлы