Ошибка

(Ska-Punk/Punk-Rock/Cosmos-Rock) Элизиум - Дискография (5 альбомов, 1 сборник, 1 сплит) - 1998-2008, FLAC (image+.cue), lossless

Ответить на тему
 
Автор Сообщение

The Royal

Пол: Пол:Муж

Стаж: 6 лет 11 месяцев

Сообщений: 652

Россия
Рейтинг

post 27-Фев-2012 17:46 0[+]

[Цитировать] 

pic="http://www.7not.net/images/pics/17953.jpg"
Элизиум

Жанр: Ska-Punk/Punk-Rock/Cosmos-Rock
Год: 1998-2008
Аудио кодек: FLAC
Тип рипа: image+.cue
Битрейт аудио: lossless
Продолжительность: 06:00:14
Полиграфия: Отсутствует

01. Я иду домой (5:01)
02. Про вертолет (2:31)
03. Мой самоконтроль (4:11)
04. Ярко горят (3:02)
05. Не моя любовь (4:01)
06. Как жаль? (3:11)
07. Mon amour, ma vie (4:20)
08. Целый год (3:35)
09. Я кричу (3:16)
10. Never again (10:24)
11. Острова (3:36)
12. Алкогольная (3:31)
13. Не грусти (2:39)
14. Альпинист (2:16)
15. Как бы (2:01)
16. Люблю тебя (0:53)
17. Вертолет (3:11)
18. Ска для девок (2:21)
19. Как Ван Гог (2:39)
20. Я иду домой (2:59)
Exact Audio Copy V0.99 prebeta 5 from 4. May 2009 

Отчёт EAC об извлечении, выполненном 15. марта 2010, 23:26

Элизиум / Домой!

Дисковод: MATSHITADVD-RAM UJ862AS Adapter: 0 ID: 1

Режим чтения : Достоверность
Использование точного потока : Да
Отключение кэша аудио : Да
Использование указателей C2 : Нет

Коррекция смещения при чтении : 102
Способность читать области Lead-in и Lead-out : Нет
Заполнение пропущенных сэмплов тишиной : Да
Удаление блоков с тишиной в начале и конце : Нет
При вычислениях CRC использовались нулевые сэмплы : Да
Интерфейс : Встроенный Win32-интерфейс для Win NT/2000

Выходной формат : Внутренние WAV-операции
Формат сэмплов : 44.100 Гц; 16 бит; стерео

TOC извлечённого CD

Трек | Старт | Длительность | Начальный сектор | Конечный сектор
---------------------------------------------------------------------
1 | 0:00.00 | 5:00.71 | 0 | 22570
2 | 5:00.71 | 2:30.38 | 22571 | 33858
3 | 7:31.34 | 4:11.03 | 33859 | 52686
4 | 11:42.37 | 3:01.55 | 52687 | 66316
5 | 14:44.17 | 4:00.39 | 66317 | 84355
6 | 18:44.56 | 3:10.48 | 84356 | 98653
7 | 21:55.29 | 4:19.74 | 98654 | 118152
8 | 26:15.28 | 3:34.59 | 118153 | 134261
9 | 29:50.12 | 3:16.27 | 134262 | 148988
10 | 33:06.39 | 10:23.64 | 148989 | 195777
11 | 43:30.28 | 3:35.61 | 195778 | 211963
12 | 47:06.14 | 3:30.71 | 211964 | 227784
13 | 50:37.10 | 2:38.71 | 227785 | 239705
14 | 53:16.06 | 2:16.17 | 239706 | 249922
15 | 55:32.23 | 2:01.24 | 249923 | 259021
16 | 57:33.47 | 0:53.17 | 259022 | 263013
17 | 58:26.64 | 3:10.55 | 263014 | 277318
18 | 61:37.44 | 2:20.39 | 277319 | 287857
19 | 63:58.08 | 2:39.35 | 287858 | 299817
20 | 66:37.43 | 2:59.32 | 299818 | 313274

Характеристики диапазона извлечения и сообщения об ошибках

Выбранный диапазон

Имя файла C:\Users\White\Desktop\Temp Music\Элизиум\Элизиум - Домой!.wav

Пиковый уровень 96.6 %
Качество диапазона 100.0 %
CRC теста 2D3F2B08
CRC копии 2D3F2B08
Копирование... OK

Ошибок не произошло

AccurateRip: сводка
Трек 1 точное извлечение (доверие 1) [6FBF3D3B]
Трек 2 точное извлечение (доверие 1) [91E977A9]
Трек 3 точное извлечение (доверие 1) [DE00E1F3]
Трек 4 точное извлечение (доверие 1) [77BCBA41]
Трек 5 точное извлечение (доверие 1) [33639326]
Трек 6 точное извлечение (доверие 1) [0ECD506D]
Трек 7 точное извлечение (доверие 1) [205E1061]
Трек 8 точное извлечение (доверие 1) [284E0CE0]
Трек 9 точное извлечение (доверие 1) [B27B69D3]
Трек 10 точное извлечение (доверие 1) [978E9992]
Трек 11 точное извлечение (доверие 1) [AAEFD235]
Трек 12 точное извлечение (доверие 1) [DD3D06E1]
Трек 13 точное извлечение (доверие 1) [9A4ED9F9]
Трек 14 точное извлечение (доверие 1) [7CD5A79D]
Трек 15 точное извлечение (доверие 1) [256C5DD5]
Трек 16 точное извлечение (доверие 1) [C29FE85E]
Трек 17 точное извлечение (доверие 1) [4A1BD660]
Трек 18 точное извлечение (доверие 1) [7D4AA9DC]
Трек 19 точное извлечение (доверие 1) [F98A8E1B]
Трек 20 точное извлечение (доверие 1) [2AD26DA8]
Все треки извлечены точно

Конец отчёта
REM GENRE Ska 
REM DATE 1998
REM DISCID 45105114
REM COMMENT "ExactAudioCopy v0.99pb5"
PERFORMER "Элизиум"
TITLE "Домой!"
FILE "Элизиум - Домой!.wav" WAVE
TRACK 01 AUDIO
TITLE "Я иду домой"
PERFORMER "Элизиум"
FLAGS DCP
INDEX 01 00:00:00
TRACK 02 AUDIO
TITLE "Про вертолёт"
PERFORMER "Элизиум"
FLAGS DCP
INDEX 00 04:58:72
INDEX 01 05:00:71
TRACK 03 AUDIO
TITLE "Мой самоконтроль"
PERFORMER "Элизиум"
FLAGS DCP
INDEX 00 07:30:68
INDEX 01 07:31:34
TRACK 04 AUDIO
TITLE "Ярко горят"
PERFORMER "Элизиум"
FLAGS DCP
INDEX 00 11:40:11
INDEX 01 11:42:37
TRACK 05 AUDIO
TITLE "Не моя любовь"
PERFORMER "Элизиум"
FLAGS DCP
INDEX 01 14:44:17
TRACK 06 AUDIO
TITLE "Как жаль :-)"
PERFORMER "Элизиум"
FLAGS DCP
INDEX 01 18:44:56
TRACK 07 AUDIO
TITLE "Mon amour, ma vie"
PERFORMER "Элизиум"
FLAGS DCP
INDEX 00 21:51:62
INDEX 01 21:55:29
TRACK 08 AUDIO
TITLE "Целый год"
PERFORMER "Элизиум"
FLAGS DCP
INDEX 00 26:14:02
INDEX 01 26:15:28
TRACK 09 AUDIO
TITLE "Я кричу!"
PERFORMER "Элизиум"
FLAGS DCP
INDEX 00 29:48:43
INDEX 01 29:50:12
TRACK 10 AUDIO
TITLE "Never again"
PERFORMER "Элизиум"
FLAGS DCP
INDEX 00 33:00:63
INDEX 01 33:06:39
TRACK 11 AUDIO
TITLE "Острова"
PERFORMER "Элизиум"
FLAGS DCP
INDEX 00 36:33:02
INDEX 01 43:30:28
TRACK 12 AUDIO
TITLE "Алкогольная"
PERFORMER "Элизиум"
FLAGS DCP
INDEX 00 46:57:16
INDEX 01 47:06:14
TRACK 13 AUDIO
TITLE "Не грусти"
PERFORMER "Элизиум"
FLAGS DCP
INDEX 00 50:35:67
INDEX 01 50:37:10
TRACK 14 AUDIO
TITLE "Альпинист"
PERFORMER "Элизиум"
FLAGS DCP
INDEX 00 53:12:22
INDEX 01 53:16:06
TRACK 15 AUDIO
TITLE "Как бы все?"
PERFORMER "Элизиум"
FLAGS DCP
INDEX 00 55:29:41
INDEX 01 55:32:23
TRACK 16 AUDIO
TITLE "Оптимизм"
PERFORMER "Элизиум"
FLAGS DCP
INDEX 01 57:33:47
TRACK 17 AUDIO
TITLE "Про вертолет"
PERFORMER "Элизиум"
FLAGS DCP
INDEX 00 58:25:46
INDEX 01 58:26:64
TRACK 18 AUDIO
TITLE "Как Ван Гог"
PERFORMER "Элизиум"
FLAGS DCP
INDEX 00 61:30:55
INDEX 01 61:37:44
TRACK 19 AUDIO
TITLE "Ska для девок"
PERFORMER "Элизиум"
FLAGS DCP
INDEX 00 63:43:28
INDEX 01 63:58:08
TRACK 20 AUDIO
TITLE "Я иду домой"
PERFORMER "Элизиум"
FLAGS DCP
INDEX 00 66:30:66
INDEX 01 66:37:43
01. Алкогольная (3:39)
02. Альпинист (2:23)
03. Острова (3:21)
04. Три белых коня (2:26)
05. Сказка (3:23)
06. Как Гоген (3:28)
07. Как бы все (2:11)
08. Как Ван Гог (2:53)
09. Оптимизм (0:58)
10. Не грусти (2:38)
11. Джа - zzz (4:33)
12. Весна/соблазны (7:55)
13. Скрытый трэк (6:30)
Exact Audio Copy V0.99 prebeta 5 from 4. May 2009 

Отчёт EAC об извлечении, выполненном 10. марта 2010, 18:10

Элизиум / Все острова

Дисковод: MATSHITADVD-RAM UJ862AS Adapter: 0 ID: 1

Режим чтения : Достоверность
Использование точного потока : Да
Отключение кэша аудио : Да
Использование указателей C2 : Нет

Коррекция смещения при чтении : 102
Способность читать области Lead-in и Lead-out : Нет
Заполнение пропущенных сэмплов тишиной : Да
Удаление блоков с тишиной в начале и конце : Нет
При вычислениях CRC использовались нулевые сэмплы : Да
Интерфейс : Встроенный Win32-интерфейс для Win NT/2000

Выходной формат : Внутренние WAV-операции
Формат сэмплов : 44.100 Гц; 16 бит; стерео

TOC извлечённого CD

Трек | Старт | Длительность | Начальный сектор | Конечный сектор
---------------------------------------------------------------------
1 | 0:00.00 | 3:38.42 | 0 | 16391
2 | 3:38.42 | 2:23.42 | 16392 | 27158
3 | 6:02.09 | 3:20.64 | 27159 | 42222
4 | 9:22.73 | 2:26.34 | 42223 | 53206
5 | 11:49.32 | 3:22.19 | 53207 | 68375
6 | 15:11.51 | 3:27.25 | 68376 | 83925
7 | 18:39.01 | 2:11.14 | 83926 | 93764
8 | 20:50.15 | 2:52.59 | 93765 | 106723
9 | 23:42.74 | 0:58.07 | 106724 | 111080
10 | 24:41.06 | 2:37.66 | 111081 | 122921
11 | 27:18.72 | 4:33.21 | 122922 | 143417
12 | 31:52.18 | 2:43.36 | 143418 | 155678
13 | 34:35.54 | 3:27.29 | 155679 | 171232
14 | 38:03.08 | 2:58.30 | 171233 | 184612

Характеристики диапазона извлечения и сообщения об ошибках

Выбранный диапазон

Имя файла C:\Users\White\Desktop\Temp Music\Элизиум - Все острова.wav

Пиковый уровень 94.4 %
Качество диапазона 100.0 %
CRC теста 36AD21B2
CRC копии 36AD21B2
Копирование... OK

Ошибок не произошло

AccurateRip: сводка
Трек 1 нет в базе данных
Трек 2 нет в базе данных
Трек 3 нет в базе данных
Трек 4 нет в базе данных
Трек 5 нет в базе данных
Трек 6 нет в базе данных
Трек 7 нет в базе данных
Трек 8 нет в базе данных
Трек 9 нет в базе данных
Трек 10 нет в базе данных
Трек 11 нет в базе данных
Трек 12 нет в базе данных
Трек 13 нет в базе данных
Трек 14 нет в базе данных
Ни одного трека нет в базе AccurateRip

Конец отчёта
REM GENRE Ska 
REM DATE 2003
REM DISCID 9D099D0E
REM COMMENT "ExactAudioCopy v0.99pb5"
PERFORMER "Элизиум"
TITLE "Все острова"
FILE "Элизиум - Все острова.wav" WAVE
TRACK 01 AUDIO
TITLE "Алкогольная"
PERFORMER "Элизиум"
FLAGS DCP
INDEX 01 00:00:00
TRACK 02 AUDIO
TITLE "Альпинист"
PERFORMER "Элизиум"
FLAGS DCP
INDEX 00 03:38:40
INDEX 01 03:38:42
TRACK 03 AUDIO
TITLE "Острова"
PERFORMER "Элизиум"
FLAGS DCP
INDEX 00 06:02:07
INDEX 01 06:02:09
TRACK 04 AUDIO
TITLE "Три белых коня"
PERFORMER "Элизиум"
FLAGS DCP
INDEX 00 09:22:71
INDEX 01 09:22:73
TRACK 05 AUDIO
TITLE "Сказка"
PERFORMER "Элизиум"
FLAGS DCP
INDEX 00 11:49:30
INDEX 01 11:49:32
TRACK 06 AUDIO
TITLE "Как Гоген"
PERFORMER "Элизиум"
FLAGS DCP
INDEX 00 15:11:49
INDEX 01 15:11:51
TRACK 07 AUDIO
TITLE "Как бы всё"
PERFORMER "Элизиум"
FLAGS DCP
INDEX 00 18:38:74
INDEX 01 18:39:01
TRACK 08 AUDIO
TITLE "Как Ван Гог"
PERFORMER "Элизиум"
FLAGS DCP
INDEX 00 20:50:13
INDEX 01 20:50:15
TRACK 09 AUDIO
TITLE "Оптимизм"
PERFORMER "Элизиум"
FLAGS DCP
INDEX 00 23:42:72
INDEX 01 23:42:74
TRACK 10 AUDIO
TITLE "Не грусти"
PERFORMER "Элизиум"
FLAGS DCP
INDEX 00 24:41:04
INDEX 01 24:41:06
TRACK 11 AUDIO
TITLE "Джа-ZZZ"
PERFORMER "Элизиум"
FLAGS DCP
INDEX 00 27:18:70
INDEX 01 27:18:72
TRACK 12 AUDIO
TITLE "Весна/Соблазны"
PERFORMER "Элизиум"
FLAGS DCP
INDEX 00 31:52:16
INDEX 01 31:52:18
TRACK 13 AUDIO
TITLE "Про вертолет [1999]"
PERFORMER "Элизиум"
FLAGS DCP
INDEX 00 34:35:52
INDEX 01 34:35:54
TRACK 14 AUDIO
TITLE "Ska для кислотных девочек [1999]"
PERFORMER "Элизиум"
FLAGS DCP
INDEX 00 38:03:06
INDEX 01 38:03:08
01. Словно Будда (3:57)
02. Куда теряется мечта (2:13)
03. Расскажите, птицы (3:30)
04. Время не ждет (2:20)
05. Ослепительный мир (3:44)
06. Солнце (2:16)
07. Космос (3:20)
08. Колесо Сансары (2:31)
09. Южная (2:53)
10. Секунды - года (2:44)
11. Интересно (4:01)
12. Супер робот (3:38)
13. До завтра! (3:09)
Exact Audio Copy V0.99 prebeta 5 from 4. May 2009 

Отчёт EAC об извлечении, выполненном 16. марта 2010, 0:58

Элизиум / Космос

Дисковод: MATSHITADVD-RAM UJ862AS Adapter: 0 ID: 1

Режим чтения : Достоверность
Использование точного потока : Да
Отключение кэша аудио : Да
Использование указателей C2 : Нет

Коррекция смещения при чтении : 102
Способность читать области Lead-in и Lead-out : Нет
Заполнение пропущенных сэмплов тишиной : Да
Удаление блоков с тишиной в начале и конце : Нет
При вычислениях CRC использовались нулевые сэмплы : Да
Интерфейс : Встроенный Win32-интерфейс для Win NT/2000

Выходной формат : Внутренние WAV-операции
Формат сэмплов : 44.100 Гц; 16 бит; стерео

TOC извлечённого CD

Трек | Старт | Длительность | Начальный сектор | Конечный сектор
---------------------------------------------------------------------
1 | 0:00.00 | 3:56.54 | 0 | 17753
2 | 3:56.54 | 2:13.32 | 17754 | 27760
3 | 6:10.11 | 3:30.27 | 27761 | 43537
4 | 9:40.38 | 2:20.27 | 43538 | 54064
5 | 12:00.65 | 3:43.48 | 54065 | 70837
6 | 15:44.38 | 2:15.39 | 70838 | 81001
7 | 18:00.02 | 3:19.47 | 81002 | 95973
8 | 21:19.49 | 2:30.62 | 95974 | 107285
9 | 23:50.36 | 2:53.08 | 107286 | 120268
10 | 26:43.44 | 2:43.67 | 120269 | 132560
11 | 29:27.36 | 4:00.53 | 132561 | 150613
12 | 33:28.14 | 3:37.46 | 150614 | 166934
13 | 37:05.60 | 3:08.74 | 166935 | 181108

Характеристики диапазона извлечения и сообщения об ошибках

Выбранный диапазон

Имя файла C:\Users\White\Desktop\Temp Music\Элизиум\Элизиум - Космос.wav

Пиковый уровень 94.6 %
Качество диапазона 99.9 %
CRC теста 1EB57DAA
CRC копии 1EB57DAA
Копирование... OK

Ошибок не произошло

AccurateRip: сводка
Трек 1 точное извлечение (доверие 1) [ED4AE2D4]
Трек 2 точное извлечение (доверие 1) [8A5C2A35]
Трек 3 точное извлечение (доверие 1) [D1A58F43]
Трек 4 точное извлечение (доверие 1) [B3834781]
Трек 5 точное извлечение (доверие 1) [7948B169]
Трек 6 точное извлечение (доверие 1) [7E60BB67]
Трек 7 точное извлечение (доверие 1) [A19C1788]
Трек 8 точное извлечение (доверие 1) [CF7C1757]
Трек 9 точное извлечение (доверие 1) [4202BD83]
Трек 10 точное извлечение (доверие 1) [A2790450]
Трек 11 точное извлечение (доверие 1) [ACB4671E]
Трек 12 точное извлечение (доверие 1) [89353C0F]
Трек 13 точное извлечение (доверие 1) [C40C94A4]
Все треки извлечены точно

Конец отчёта
REM GENRE Ska 
REM DATE 2003
REM DISCID 9C096E0D
REM COMMENT "ExactAudioCopy v0.99pb5"
PERFORMER "Элизиум"
TITLE "Космос"
FILE "Элизиум - Космос.wav" WAVE
TRACK 01 AUDIO
TITLE "Словно Будда"
PERFORMER "Элизиум"
FLAGS DCP
INDEX 01 00:00:00
TRACK 02 AUDIO
TITLE "Куда теряется мечта"
PERFORMER "Элизиум"
FLAGS DCP
INDEX 01 03:56:54
TRACK 03 AUDIO
TITLE "Расскажите, птицы"
PERFORMER "Элизиум"
FLAGS DCP
INDEX 01 06:10:11
TRACK 04 AUDIO
TITLE "Время не ждет"
PERFORMER "Элизиум"
FLAGS DCP
INDEX 01 09:40:38
TRACK 05 AUDIO
TITLE "Ослепительный мир"
PERFORMER "Элизиум"
FLAGS DCP
INDEX 01 12:00:65
TRACK 06 AUDIO
TITLE "Солнце"
PERFORMER "Элизиум"
FLAGS DCP
INDEX 01 15:44:38
TRACK 07 AUDIO
TITLE "Космос"
PERFORMER "Элизиум"
FLAGS DCP
INDEX 01 18:00:02
TRACK 08 AUDIO
TITLE "Колесо Сансары"
PERFORMER "Элизиум"
FLAGS DCP
INDEX 01 21:19:49
TRACK 09 AUDIO
TITLE "Южная"
PERFORMER "Элизиум"
FLAGS DCP
INDEX 01 23:50:36
TRACK 10 AUDIO
TITLE "Секунды - года"
PERFORMER "Элизиум"
FLAGS DCP
INDEX 01 26:43:44
TRACK 11 AUDIO
TITLE "Интересно"
PERFORMER "Элизиум"
FLAGS DCP
INDEX 01 29:27:36
TRACK 12 AUDIO
TITLE "Супер робот"
PERFORMER "Элизиум"
FLAGS DCP
INDEX 01 33:28:14
TRACK 13 AUDIO
TITLE "До завтра!"
PERFORMER "Элизиум"
FLAGS DCP
INDEX 01 37:05:60
01. Обратная сторона луны (2:53)
02. Море наступает (1:59)
03. Дождь (2:51)
04. Волшебные деньги (2:54)
05. Мое оружие (2:20)
06. Ярко горят (3:29)
07. Ska для кислотных девочек (2:57)
08. Альпинист (2:26)
09. Куда теряется мечта (2:17)
10. Как бы все (2:16)
11. Ослепительный мир (3:48)
12. Острова (3:25)
13. Время не ждет (2:21)
14. Не грусти (2:41)
15. Интересно (4:43)
16. Электричка (4:26)
17. Я иду домой (3:16)
18. Я кричу (2:58)
19. Я пришел домой (4:08)
20. Не моя любовь (3:59)
21. Mon amour, ma vie (4:20)
Exact Audio Copy V0.99 prebeta 5 from 4. May 2009 

Отчёт EAC об извлечении, выполненном 16. марта 2010, 7:30

Элизиум / Рок-планета

Дисковод: MATSHITADVD-RAM UJ862AS Adapter: 0 ID: 1

Режим чтения : Достоверность
Использование точного потока : Да
Отключение кэша аудио : Да
Использование указателей C2 : Нет

Коррекция смещения при чтении : 102
Способность читать области Lead-in и Lead-out : Нет
Заполнение пропущенных сэмплов тишиной : Да
Удаление блоков с тишиной в начале и конце : Нет
При вычислениях CRC использовались нулевые сэмплы : Да
Интерфейс : Встроенный Win32-интерфейс для Win NT/2000

Выходной формат : Внутренние WAV-операции
Формат сэмплов : 44.100 Гц; 16 бит; стерео

TOC извлечённого CD

Трек | Старт | Длительность | Начальный сектор | Конечный сектор
---------------------------------------------------------------------
1 | 0:00.00 | 2:53.34 | 0 | 13008
2 | 2:53.34 | 1:58.41 | 13009 | 21899
3 | 4:52.00 | 2:51.05 | 21900 | 34729
4 | 7:43.05 | 2:54.14 | 34730 | 47793
5 | 10:37.19 | 2:20.34 | 47794 | 58327
6 | 12:57.53 | 3:28.66 | 58328 | 73993
7 | 16:26.44 | 2:57.17 | 73994 | 87285
8 | 19:23.61 | 2:25.64 | 87286 | 98224
9 | 21:49.50 | 2:17.12 | 98225 | 108511
10 | 24:06.62 | 2:16.13 | 108512 | 118724
11 | 26:23.00 | 3:48.15 | 118725 | 135839
12 | 30:11.15 | 3:24.63 | 135840 | 151202
13 | 33:36.03 | 2:20.73 | 151203 | 161775
14 | 35:57.01 | 2:41.09 | 161776 | 173859
15 | 38:38.10 | 4:42.41 | 173860 | 195050
16 | 43:20.51 | 4:25.63 | 195051 | 214988
17 | 47:46.39 | 3:15.51 | 214989 | 229664
18 | 51:02.15 | 2:58.18 | 229665 | 243032
19 | 54:00.33 | 4:07.51 | 243033 | 261608
20 | 58:08.09 | 3:58.42 | 261609 | 279500
21 | 62:06.51 | 4:21.54 | 279501 | 299129
22 | 66:28.30 | 2:55.47 | 299130 | 312301
23 | 69:24.02 | 3:28.38 | 312302 | 327939

Характеристики диапазона извлечения и сообщения об ошибках

Выбранный диапазон

Имя файла C:\Users\White\Desktop\Temp Music\Элизиум\Элизиум - Рок-планета.wav

Пиковый уровень 100.0 %
Качество диапазона 100.0 %
CRC теста 83235A2E
CRC копии 83235A2E
Копирование... OK

Ошибок не произошло

AccurateRip: сводка
Трек 1 точное извлечение (доверие 2) [4F0D4F76]
Трек 2 точное извлечение (доверие 2) [CFF4085D]
Трек 3 точное извлечение (доверие 2) [39D57F72]
Трек 4 точное извлечение (доверие 2) [8A38C317]
Трек 5 точное извлечение (доверие 2) [FD4CA905]
Трек 6 точное извлечение (доверие 2) [A32FD29B]
Трек 7 точное извлечение (доверие 2) [88BA4986]
Трек 8 точное извлечение (доверие 2) [D6ED5220]
Трек 9 точное извлечение (доверие 2) [A62495D9]
Трек 10 точное извлечение (доверие 2) [94BE2011]
Трек 11 точное извлечение (доверие 2) [58938AAD]
Трек 12 точное извлечение (доверие 2) [B9A01D16]
Трек 13 точное извлечение (доверие 2) [6E655C75]
Трек 14 точное извлечение (доверие 2) [34508AF8]
Трек 15 точное извлечение (доверие 2) [7A2564C1]
Трек 16 точное извлечение (доверие 2) [9A24585D]
Трек 17 точное извлечение (доверие 2) [01904A42]
Трек 18 точное извлечение (доверие 2) [FED91319]
Трек 19 точное извлечение (доверие 2) [6C7D1D6A]
Трек 20 точное извлечение (доверие 2) [58894639]
Трек 21 точное извлечение (доверие 2) [7945EB46]
Трек 22 точное извлечение (доверие 2) [92BF59FD]
Трек 23 точное извлечение (доверие 2) [5D8468DD]
Все треки извлечены точно

Конец отчёта
REM GENRE Punk 
REM DATE 2004
REM DISCID 5B111417
REM COMMENT "ExactAudioCopy v0.99pb5"
PERFORMER "Элизиум"
TITLE "Рок-планета"
FILE "Элизиум - Рок-планета.wav" WAVE
TRACK 01 AUDIO
TITLE "Обратная сторона Луны"
PERFORMER "Элизиум"
FLAGS DCP
INDEX 01 00:00:00
TRACK 02 AUDIO
TITLE "Море наступает"
PERFORMER "Элизиум"
FLAGS DCP
INDEX 00 02:50:41
INDEX 01 02:53:34
TRACK 03 AUDIO
TITLE "Дождь"
PERFORMER "Элизиум"
FLAGS DCP
INDEX 00 04:47:62
INDEX 01 04:52:00
TRACK 04 AUDIO
TITLE "Волшебные деньги"
PERFORMER "Элизиум"
FLAGS DCP
INDEX 00 07:39:39
INDEX 01 07:43:05
TRACK 05 AUDIO
TITLE "Мое Оружие"
PERFORMER "Элизиум"
FLAGS DCP
INDEX 00 10:33:02
INDEX 01 10:37:19
TRACK 06 AUDIO
TITLE "Ярко горят"
PERFORMER "Элизиум"
FLAGS DCP
INDEX 00 12:54:72
INDEX 01 12:57:53
TRACK 07 AUDIO
TITLE "Ska для кислотных девочек"
PERFORMER "Элизиум"
FLAGS DCP
INDEX 00 16:23:01
INDEX 01 16:26:44
TRACK 08 AUDIO
TITLE "Альпинист"
PERFORMER "Элизиум"
FLAGS DCP
INDEX 00 19:19:48
INDEX 01 19:23:61
TRACK 09 AUDIO
TITLE "Куда теряется мечта?"
PERFORMER "Элизиум"
FLAGS DCP
INDEX 00 21:46:30
INDEX 01 21:49:50
TRACK 10 AUDIO
TITLE "Как бы все?"
PERFORMER "Элизиум"
FLAGS DCP
INDEX 00 24:02:16
INDEX 01 24:06:62
TRACK 11 AUDIO
TITLE "Ослепительный мир"
PERFORMER "Элизиум"
FLAGS DCP
INDEX 00 26:18:05
INDEX 01 26:23:00
TRACK 12 AUDIO
TITLE "Острова"
PERFORMER "Элизиум"
FLAGS DCP
INDEX 00 30:06:04
INDEX 01 30:11:15
TRACK 13 AUDIO
TITLE "Время не ждет"
PERFORMER "Элизиум"
FLAGS DCP
INDEX 00 33:30:57
INDEX 01 33:36:03
TRACK 14 AUDIO
TITLE "Не грусти!"
PERFORMER "Элизиум"
FLAGS DCP
INDEX 00 35:53:34
INDEX 01 35:57:01
TRACK 15 AUDIO
TITLE "Интересно"
PERFORMER "Элизиум"
FLAGS DCP
INDEX 00 38:34:27
INDEX 01 38:38:10
TRACK 16 AUDIO
TITLE "Электричка"
PERFORMER "Элизиум"
FLAGS DCP
INDEX 00 43:16:69
INDEX 01 43:20:51
TRACK 17 AUDIO
TITLE "Я иду домой"
PERFORMER "Элизиум"
FLAGS DCP
INDEX 00 47:40:22
INDEX 01 47:46:39
TRACK 18 AUDIO
TITLE "Я кричу"
PERFORMER "Элизиум"
FLAGS DCP
INDEX 00 50:57:11
INDEX 01 51:02:15
TRACK 19 AUDIO
TITLE "Я пришел домой"
PERFORMER "Элизиум"
FLAGS DCP
INDEX 00 53:54:62
INDEX 01 54:00:33
TRACK 20 AUDIO
TITLE "Не моя любовь"
PERFORMER "Элизиум"
FLAGS DCP
INDEX 00 58:02:46
INDEX 01 58:08:09
TRACK 21 AUDIO
TITLE "Mon Amour, ma vie"
PERFORMER "Элизиум"
FLAGS DCP
INDEX 00 62:01:69
INDEX 01 62:06:51
TRACK 22 AUDIO
TITLE "На Марс!"
PERFORMER "Элизиум"
FLAGS DCP
INDEX 00 66:26:05
INDEX 01 66:28:30
TRACK 23 AUDIO
TITLE "Я пришел домой(радио-версия)"
PERFORMER "Элизиум"
FLAGS DCP
INDEX 01 69:24:02
01. Электричка (4:20)
02. Я как Кусто (2:02)
03. Яишница (3:06)
04. Помоги мне! Где я? (2:11)
05. Литература (2:38)
06. На марс (2:56)
07. Солнце (3:43)
08. Острова (4:15)
09. Интересно (3:57)
10. Ослепительный мир (4:21)
11. Как Гоген (2:56)
12. Оптимизм (2:34)
Exact Audio Copy V0.99 prebeta 5 from 4. May 2009 

Отчёт EAC об извлечении, выполненном 20. марта 2010, 13:10

Элизиум/Ульи / Электричка на Марс

Дисковод: MATSHITADVD-RAM UJ862AS Adapter: 0 ID: 1

Режим чтения : Достоверность
Использование точного потока : Да
Отключение кэша аудио : Да
Использование указателей C2 : Нет

Коррекция смещения при чтении : 102
Способность читать области Lead-in и Lead-out : Нет
Заполнение пропущенных сэмплов тишиной : Да
Удаление блоков с тишиной в начале и конце : Нет
При вычислениях CRC использовались нулевые сэмплы : Да
Интерфейс : Встроенный Win32-интерфейс для Win NT/2000

Выходной формат : Внутренние WAV-операции
Формат сэмплов : 44.100 Гц; 16 бит; стерео

TOC извлечённого CD

Трек | Старт | Длительность | Начальный сектор | Конечный сектор
---------------------------------------------------------------------
1 | 0:00.00 | 4:19.56 | 0 | 19480
2 | 4:19.56 | 2:02.04 | 19481 | 28634
3 | 6:21.60 | 3:06.12 | 28635 | 42596
4 | 9:27.72 | 2:11.18 | 42597 | 52439
5 | 11:39.15 | 2:37.46 | 52440 | 64260
6 | 14:16.61 | 2:56.07 | 64261 | 77467
7 | 17:12.68 | 3:42.71 | 77468 | 94188
8 | 20:55.64 | 4:15.09 | 94189 | 113322
9 | 25:10.73 | 3:56.71 | 113323 | 131093
10 | 29:07.69 | 4:20.51 | 131094 | 150644
11 | 33:28.45 | 2:55.74 | 150645 | 163843
12 | 36:24.44 | 2:33.72 | 163844 | 175390

Характеристики диапазона извлечения и сообщения об ошибках

Выбранный диапазон

Имя файла C:\Users\White\Desktop\Temp Music\Элизиум\Элизиум Ульи - Электричка на Марс.wav

Пиковый уровень 100.0 %
Качество диапазона 100.0 %
CRC теста 2FC4E955
CRC копии 2FC4E955
Копирование... OK

Ошибок не произошло

AccurateRip: сводка
Трек 1 точное извлечение (доверие 2) [D398CB2C]
Трек 2 точное извлечение (доверие 2) [C3D321F1]
Трек 3 точное извлечение (доверие 2) [D7B49DD2]
Трек 4 точное извлечение (доверие 2) [C80E70CF]
Трек 5 точное извлечение (доверие 2) [51AF3590]
Трек 6 точное извлечение (доверие 2) [463AC4DC]
Трек 7 точное извлечение (доверие 2) [93A6789D]
Трек 8 точное извлечение (доверие 2) [1C0362D0]
Трек 9 точное извлечение (доверие 2) [F38FE8E7]
Трек 10 точное извлечение (доверие 2) [388A8FB3]
Трек 11 точное извлечение (доверие 2) [B3597198]
Трек 12 точное извлечение (доверие 2) [A7E32D7B]
Все треки извлечены точно

Конец отчёта
REM GENRE Ska 
REM DATE 2004
REM DISCID 9309220C
REM COMMENT "ExactAudioCopy v0.99pb5"
PERFORMER "Элизиум/Ульи"
TITLE "Электричка на Марс"
FILE "Элизиум Ульи - Электричка на Марс.wav" WAVE
TRACK 01 AUDIO
TITLE "Электричка"
PERFORMER "Элизиум/Ульи"
FLAGS DCP
INDEX 01 00:00:00
TRACK 02 AUDIO
TITLE "Я как Кусто"
PERFORMER "Элизиум/Ульи"
FLAGS DCP
INDEX 00 04:17:30
INDEX 01 04:19:56
TRACK 03 AUDIO
TITLE "Яишница"
PERFORMER "Элизиум/Ульи"
FLAGS DCP
INDEX 00 06:18:36
INDEX 01 06:21:60
TRACK 04 AUDIO
TITLE "Помоги мне! Где я?"
PERFORMER "Элизиум/Ульи"
FLAGS DCP
INDEX 00 09:26:27
INDEX 01 09:27:72
TRACK 05 AUDIO
TITLE "Литература"
PERFORMER "Элизиум/Ульи"
FLAGS DCP
INDEX 00 11:37:30
INDEX 01 11:39:15
TRACK 06 AUDIO
TITLE "На Марс"
PERFORMER "Элизиум/Ульи"
FLAGS DCP
INDEX 00 14:14:19
INDEX 01 14:16:61
TRACK 07 AUDIO
TITLE "Солнце"
PERFORMER "Элизиум/Ульи"
FLAGS DCP
INDEX 00 17:11:01
INDEX 01 17:12:68
TRACK 08 AUDIO
TITLE "Острова"
PERFORMER "Элизиум/Ульи"
FLAGS DCP
INDEX 00 20:52:68
INDEX 01 20:55:64
TRACK 09 AUDIO
TITLE "Интересно"
PERFORMER "Элизиум/Ульи"
FLAGS DCP
INDEX 00 25:08:40
INDEX 01 25:10:73
TRACK 10 AUDIO
TITLE "Ослепительный мир"
PERFORMER "Элизиум/Ульи"
FLAGS DCP
INDEX 00 29:05:58
INDEX 01 29:07:69
TRACK 11 AUDIO
TITLE "Как Гоген"
PERFORMER "Элизиум/Ульи"
FLAGS DCP
INDEX 00 33:25:62
INDEX 01 33:28:45
TRACK 12 AUDIO
TITLE "Оптимизм"
PERFORMER "Элизиум/Ульи"
FLAGS DCP
INDEX 00 36:21:33
INDEX 01 36:24:44
01. Стрелки на часах бегут по кругу (4:32)
02. Бесконечность (3:50)
03. Дремлют улицы в желтых огнях (3:08)
04. Слезы-зеркала (3:43)
05. Любовь казалась счастьем (4:51)
06. В предвкушении лета (3:28)
07. Саня-Таня (2:55)
08. Звездная колыбельная feat. С. Михалок (3:35)
09. Оставайся! (4:10)
10. Наши тайны и секреты (3:51)
11. Любовь и слезы (2:50)
12. Игры разума (3:58)
13. В мое детство где дорога? (5:12)
14. На окраинах вселенной (3:56)
15. Рассыпалось небо картинкой... feat. Лампасы (3:09)
Exact Audio Copy V0.99 prebeta 5 from 4. May 2009 

Отчёт EAC об извлечении, выполненном 9. марта 2010, 18:42

Элизиум / На окраинах Вселенной

Дисковод: MATSHITADVD-RAM UJ862AS Adapter: 0 ID: 1

Режим чтения : Достоверность
Использование точного потока : Да
Отключение кэша аудио : Да
Использование указателей C2 : Нет

Коррекция смещения при чтении : 102
Способность читать области Lead-in и Lead-out : Нет
Заполнение пропущенных сэмплов тишиной : Да
Удаление блоков с тишиной в начале и конце : Нет
При вычислениях CRC использовались нулевые сэмплы : Да
Интерфейс : Встроенный Win32-интерфейс для Win NT/2000

Выходной формат : Внутренние WAV-операции
Формат сэмплов : 44.100 Гц; 16 бит; стерео

TOC извлечённого CD

Трек | Старт | Длительность | Начальный сектор | Конечный сектор
---------------------------------------------------------------------
1 | 0:00.00 | 4:31.54 | 0 | 20378
2 | 4:31.54 | 3:49.61 | 20379 | 37614
3 | 8:21.40 | 3:08.14 | 37615 | 51728
4 | 11:29.54 | 3:42.44 | 51729 | 68422
5 | 15:12.23 | 4:51.21 | 68423 | 90268
6 | 20:03.44 | 3:27.48 | 90269 | 105841
7 | 23:31.17 | 2:55.25 | 105842 | 118991
8 | 26:26.42 | 3:34.54 | 118992 | 135095
9 | 30:01.21 | 4:09.43 | 135096 | 153813
10 | 34:10.64 | 3:51.29 | 153814 | 171167
11 | 38:02.18 | 2:50.03 | 171168 | 183920
12 | 40:52.21 | 3:57.42 | 183921 | 201737
13 | 44:49.63 | 5:12.33 | 201738 | 225170
14 | 50:02.21 | 3:56.22 | 225171 | 242892
15 | 53:58.43 | 3:09.44 | 242893 | 257111
16 | 59:40.12 | 10:02.60 | 268512 | 313721

Характеристики диапазона извлечения и сообщения об ошибках

Выбранный диапазон

Имя файла C:\Users\White\Desktop\Temp Music\Элизиум - На окраинах Вселенной.wav

Пиковый уровень 100.0 %
Качество диапазона 100.0 %
CRC теста 6001E4C6
CRC копии 6001E4C6
Копирование... OK

Ошибок не произошло

AccurateRip: сводка
Трек 1 точное извлечение (доверие 2) [F227F594]
Трек 2 точное извлечение (доверие 3) [35ABF6E1]
Трек 3 точное извлечение (доверие 3) [C73BF515]
Трек 4 точное извлечение (доверие 2) [B88038BF]
Трек 5 точное извлечение (доверие 2) [A4DE5C64]
Трек 6 точное извлечение (доверие 2) [9EC5DD64]
Трек 7 точное извлечение (доверие 3) [8444AE19]
Трек 8 точное извлечение (доверие 3) [1047E554]
Трек 9 точное извлечение (доверие 3) [F071AC22]
Трек 10 точное извлечение (доверие 3) [86966598]
Трек 11 точное извлечение (доверие 3) [523B3B10]
Трек 12 точное извлечение (доверие 3) [592CB993]
Трек 13 точное извлечение (доверие 3) [3882A994]
Трек 14 точное извлечение (доверие 3) [43A94AD4]
Трек 15 точное извлечение (доверие 3) [24E54438]
Все треки извлечены точно

Конец отчёта
REM GENRE Kosmos-Rock 
REM DATE 2005
REM DISCID C3105610
REM COMMENT "ExactAudioCopy v0.99pb5"
PERFORMER "Элизиум"
TITLE "На окраинах Вселенной"
FILE "Элизиум - На окраинах Вселенной.wav" WAVE
TRACK 01 AUDIO
TITLE "Стрелки на часах бегут по кругу"
PERFORMER "Элизиум"
INDEX 01 00:00:00
TRACK 02 AUDIO
TITLE "Бесконечность"
PERFORMER "Элизиум"
INDEX 00 04:29:72
INDEX 01 04:31:54
TRACK 03 AUDIO
TITLE "Дремлют улицы в желтых огнях"
PERFORMER "Элизиум"
INDEX 00 08:19:58
INDEX 01 08:21:40
TRACK 04 AUDIO
TITLE "Слезы-зеркала"
PERFORMER "Элизиум"
INDEX 00 11:27:72
INDEX 01 11:29:54
TRACK 05 AUDIO
TITLE "Любовь казалась счастьем"
PERFORMER "Элизиум"
INDEX 00 15:10:41
INDEX 01 15:12:23
TRACK 06 AUDIO
TITLE "В предвкушении лета"
PERFORMER "Элизиум"
INDEX 00 20:01:62
INDEX 01 20:03:44
TRACK 07 AUDIO
TITLE "Саня-Таня"
PERFORMER "Элизиум"
INDEX 00 23:29:35
INDEX 01 23:31:17
TRACK 08 AUDIO
TITLE "Звездная колыбельная(feat. С.Михалок)"
PERFORMER "Элизиум"
INDEX 00 26:24:60
INDEX 01 26:26:42
TRACK 09 AUDIO
TITLE "Оставайся!"
PERFORMER "Элизиум"
INDEX 00 29:59:39
INDEX 01 30:01:21
TRACK 10 AUDIO
TITLE "Наши тайный и секреты"
PERFORMER "Элизиум"
INDEX 00 34:09:07
INDEX 01 34:10:64
TRACK 11 AUDIO
TITLE "Любовь и слезы"
PERFORMER "Элизиум"
INDEX 00 38:00:36
INDEX 01 38:02:18
TRACK 12 AUDIO
TITLE "Игры разума"
PERFORMER "Элизиум"
INDEX 00 40:50:39
INDEX 01 40:52:21
TRACK 13 AUDIO
TITLE "В мое детство где дорога?"
PERFORMER "Элизиум"
INDEX 00 44:48:06
INDEX 01 44:49:63
TRACK 14 AUDIO
TITLE "На окраинах Вселенной"
PERFORMER "Элизиум"
INDEX 00 50:00:39
INDEX 01 50:02:21
TRACK 15 AUDIO
TITLE "Рассыпалось небо картинкой..."
PERFORMER "Элизиум"
INDEX 00 53:56:61
INDEX 01 53:58:43
01. Ради Чего (5:00)
02. Что Сделал Ты Для Своей Мечты (3:24)
03. Правда - Ложь (3:43)
04. И Рассыплется В Пыль (3:23)
05. Планета Земля (3:31)
06. Мир, А Не Война! (5:11)
07. О, Мой Шекспир (3:30)
08. Дети-Мишени, Дети-убийцы (5:16)
09. Мир Не Изменится (3:48)
10. Состояние Мира (3:48)
11. Взлётная Полоса (2:37)
12. Другие Грани Понимания Свободы (3:03)
13. Улыбайте Друг Другу Лица! (4:29)
Exact Audio Copy V0.99 prebeta 5 from 4. May 2009 

Отчёт EAC об извлечении, выполненном 10. марта 2010, 19:46

Элизиум / 13

Дисковод: MATSHITADVD-RAM UJ862AS Adapter: 0 ID: 1

Режим чтения : Достоверность
Использование точного потока : Да
Отключение кэша аудио : Да
Использование указателей C2 : Нет

Коррекция смещения при чтении : 102
Способность читать области Lead-in и Lead-out : Нет
Заполнение пропущенных сэмплов тишиной : Да
Удаление блоков с тишиной в начале и конце : Нет
При вычислениях CRC использовались нулевые сэмплы : Да
Интерфейс : Встроенный Win32-интерфейс для Win NT/2000

Выходной формат : Внутренние WAV-операции
Формат сэмплов : 44.100 Гц; 16 бит; стерео

TOC извлечённого CD

Трек | Старт | Длительность | Начальный сектор | Конечный сектор
---------------------------------------------------------------------
1 | 0:00.00 | 5:00.32 | 0 | 22531
2 | 5:00.32 | 3:23.62 | 22532 | 37818
3 | 8:24.19 | 3:42.66 | 37819 | 54534
4 | 12:07.10 | 3:23.02 | 54535 | 69761
5 | 15:30.12 | 3:31.29 | 69762 | 85615
6 | 19:01.41 | 5:11.06 | 85616 | 108946
7 | 24:12.47 | 3:30.21 | 108947 | 124717
8 | 27:42.68 | 5:16.28 | 124718 | 148445
9 | 32:59.21 | 3:48.06 | 148446 | 165551
10 | 36:47.27 | 3:47.53 | 165552 | 182629
11 | 40:35.05 | 2:37.24 | 182630 | 194428
12 | 43:12.29 | 3:02.54 | 194429 | 208132
13 | 46:15.08 | 4:28.42 | 208133 | 228274

Характеристики диапазона извлечения и сообщения об ошибках

Выбранный диапазон

Имя файла C:\Users\White\Desktop\Temp Music\Элизиум - 13.wav

Пиковый уровень 100.0 %
Качество диапазона 100.0 %
CRC теста 564EE5E9
CRC копии 564EE5E9
Копирование... OK

Ошибок не произошло

AccurateRip: сводка
Трек 1 нет в базе данных
Трек 2 нет в базе данных
Трек 3 нет в базе данных
Трек 4 нет в базе данных
Трек 5 нет в базе данных
Трек 6 нет в базе данных
Трек 7 нет в базе данных
Трек 8 нет в базе данных
Трек 9 нет в базе данных
Трек 10 нет в базе данных
Трек 11 нет в базе данных
Трек 12 нет в базе данных
Трек 13 нет в базе данных
Ни одного трека нет в базе AccurateRip

Конец отчёта
REM GENRE Ska 
REM DATE 2008
REM DISCID B50BE30D
REM COMMENT "ExactAudioCopy v0.99pb5"
PERFORMER "Элизиум"
TITLE "13"
FILE "Элизиум - 13.wav" WAVE
TRACK 01 AUDIO
TITLE "Ради чего?"
PERFORMER "Элизиум"
INDEX 01 00:00:00
TRACK 02 AUDIO
TITLE "Что сделал ты для своей мечты?"
PERFORMER "Элизиум"
INDEX 01 05:00:32
TRACK 03 AUDIO
TITLE "Правда-ложь"
PERFORMER "Элизиум"
INDEX 01 08:24:19
TRACK 04 AUDIO
TITLE "И рассыплется в пыль"
PERFORMER "Элизиум"
INDEX 01 12:07:10
TRACK 05 AUDIO
TITLE "Планета Земля"
PERFORMER "Элизиум"
INDEX 01 15:30:12
TRACK 06 AUDIO
TITLE "Мир - а не война!"
PERFORMER "Элизиум"
INDEX 01 19:01:41
TRACK 07 AUDIO
TITLE "О, мой Шекспир"
PERFORMER "Элизиум"
INDEX 01 24:12:47
TRACK 08 AUDIO
TITLE "Дети-мишени/Дети-убийцы"
PERFORMER "Элизиум"
INDEX 01 27:42:68
TRACK 09 AUDIO
TITLE "Мир не изменится"
PERFORMER "Элизиум"
INDEX 01 32:59:21
TRACK 10 AUDIO
TITLE "Состояние мира"
PERFORMER "Элизиум"
INDEX 01 36:47:27
TRACK 11 AUDIO
TITLE "Взлётная полоса"
PERFORMER "Элизиум"
INDEX 01 40:35:05
TRACK 12 AUDIO
TITLE "Другие грани понимания свободы"
PERFORMER "Элизиум"
INDEX 01 43:12:29
TRACK 13 AUDIO
TITLE "Улыбайте друг другу лица!"
PERFORMER "Элизиум"
INDEX 01 46:15:08
info [Профиль]  [ЛС] 

JI_E_LLI_K_A

Стаж: 2 года 11 месяцев

Сообщений: 1

Рейтинг

post 02-Апр-2014 20:09 (спустя 2 года 1 месяц) [-]0[+]

[Цитировать] 

Ребятушки!
Ну куда же вы подевались?! kolob_121
info [Профиль]  [ЛС] 
Показать сообщения:    
Ответить на тему

Текущее время: 08-Дек 15:59

Часовой пояс: GMT + 4



Вы не можете начинать темы
Вы не можете отвечать на сообщения
Вы не можете редактировать свои сообщения
Вы не можете удалять свои сообщения
Вы не можете голосовать в опросах
Вы не можете прикреплять файлы к сообщениям
Вы не можете скачивать файлы