Ошибка

(Underground Rap) Рабы лампы - Это не Б. (переиздание) - 2001, APE (image+.cue), lossless

Ответить на тему
 
Автор Сообщение

PlusOne

Пол: Пол:Муж

Стаж: 7 лет 2 месяца

Сообщений: 174

Ямайка
Рейтинг

post 15-Фев-2012 14:19 0[+]

[Цитировать] 

pic="http://i24.fastpic.ru/big/2011/0817/bc/47f70081b00314ee57be7054ae7b5ebc.jpg"
Рабы лампы - Это не Б. (переиздание)

Жанр: Underground Rap
Год издания данного носителя: 2001
Страна-производитель носителя: Россия
Лейбл: RAP Recordz
Каталоговый номер: RRCD2001-09
Тип релиза: image+.cue
Аудио кодек: APE
Битрейт аудио: lossless
Продолжительность: 61:07

Треклист:
1. Рабы лампы (2:29)
2. D.O.B. in effect (skit) (0:29)
3. Это не больно (3:44)
4. Междусловие 1 (0:40)
5. Тебе будет легче (3:31)
6. Одиночка (3:49)
7. Междусловие 2 (0:40)
8. Диктофоны (skit) (1:01)
9. TV Shit (3:06)
10. ПККЖС (3:10)
11. Каждому свое (2:46)
12. Междусловие 3 (0:47)
13. Значит было за что (skit) (2:06)
14. Рабы рифмы (feat. Legalize) (3:15)
15. Нет надежды впереди (3:22)
16. По поводу (skit) (0:54)
17. На троих (feat. Sir-J) (4:06)
18. Стеб? (skit) (1:08)
19. Намеки (feat. Туши свет) (2:48)
20. Имена, которые все знают (0:45)
21. Мой друг (3:40)
22. Ода уходящего года (feat. Sir-J и Ю.Г.) (4:41)
23. Посвящение (Империя) (7:29)
24. Конец альбома (0:28)

Код:

Отчёт EAC об извлечении, выполненном 15. августа 2007, 15:34 для диска:
Рабы лампы / Это не б
Дисковод: _NEC    DVD_RW ND-4551A   Adapter: 0  ID: 0
Режим чтения: Достоверный (C2: нет, Точный поток: да, Отключение кэша: да)
Коррекция смещения при чтении: 48
Способность читать области Lead-in и Lead-out : Нет
Выходной формат: Внутренние WAV-операции
                     44.100 Гц; 16 бит; стерео
Другие параметры:
    Заполнение пропущенных сэмплов тишиной : Да
    Удаление блоков с тишиной в начале и конце : Нет
    Установленный внешний ASPI-интерфейс
Характеристики диапазона извлечения и сообщения об ошибках
Выбранный диапазон
     Имя файла M:\Рабы лампы - Это не б.wav
     Пиковый уровень 100.0 %
     Качество диапазона 99.9 %
     CRC A106AB92
     Копирование... OK
Ошибок не произошло
Конец отчёта

Код:

REM GENRE Rap
REM DATE 2001
REM DISCID 5D0E5318
REM COMMENT "ExactAudioCopy v0.95b4"
PERFORMER "Рабы лампы"
TITLE "Это не б"
FILE "Рабы лампы - Это не б.wav" WAVE
  TRACK 01 AUDIO
    TITLE "Рабы лампы"
    PERFORMER "Рабы лампы"
    FLAGS DCP
    INDEX 01 00:00:00
  TRACK 02 AUDIO
    TITLE "D.O.B. in effect (skit)"
    PERFORMER "Рабы лампы"
    FLAGS DCP
    INDEX 01 02:29:44
  TRACK 03 AUDIO
    TITLE "Это не больно"
    PERFORMER "Рабы лампы"
    FLAGS DCP
    INDEX 01 02:59:30
  TRACK 04 AUDIO
    TITLE "Междусловие 1"
    PERFORMER "Рабы лампы"
    FLAGS DCP
    INDEX 01 06:43:58
  TRACK 05 AUDIO
    TITLE "Тебе будет легче"
    PERFORMER "Рабы лампы"
    FLAGS DCP
    INDEX 01 07:24:51
  TRACK 06 AUDIO
    TITLE "Одиночка"
    PERFORMER "Рабы лампы"
    FLAGS DCP
    INDEX 01 10:56:29
  TRACK 07 AUDIO
    TITLE "Междусловие 2"
    PERFORMER "Рабы лампы"
    FLAGS DCP
    INDEX 01 14:46:10
  TRACK 08 AUDIO
    TITLE "Диктофоны (skit)"
    PERFORMER "Рабы лампы"
    FLAGS DCP
    INDEX 01 15:26:49
  TRACK 09 AUDIO
    TITLE "TV Shit"
    PERFORMER "Рабы лампы"
    FLAGS DCP
    INDEX 01 16:28:39
  TRACK 10 AUDIO
    TITLE "ПККЖС"
    PERFORMER "Рабы лампы"
    FLAGS DCP
    INDEX 01 19:35:27
  TRACK 11 AUDIO
    TITLE "Каждому свое"
    PERFORMER "Рабы лампы"
    FLAGS DCP
    INDEX 01 22:45:50
  TRACK 12 AUDIO
    TITLE "Междусловие 3"
    PERFORMER "Рабы лампы"
    FLAGS DCP
    INDEX 01 25:32:39
  TRACK 13 AUDIO
    TITLE "Значит было за что (skit)"
    PERFORMER "Рабы лампы"
    FLAGS DCP
    INDEX 01 26:20:09
  TRACK 14 AUDIO
    TITLE "Рабы рифмы (feat. Legalize)"
    PERFORMER "Рабы лампы"
    FLAGS DCP
    INDEX 01 28:26:56
  TRACK 15 AUDIO
    TITLE "Нет надежды впереди"
    PERFORMER "Рабы лампы"
    FLAGS DCP
    INDEX 01 31:42:10
  TRACK 16 AUDIO
    TITLE "По поводу (skit)"
    PERFORMER "Рабы лампы"
    FLAGS DCP
    INDEX 01 35:04:21
  TRACK 17 AUDIO
    TITLE "На троих (feat. Sir-J)"
    PERFORMER "Рабы лампы"
    FLAGS DCP
    INDEX 01 35:58:74
  TRACK 18 AUDIO
    TITLE "Стеб? (skit)"
    PERFORMER "Рабы лампы"
    FLAGS DCP
    INDEX 01 40:04:71
  TRACK 19 AUDIO
    TITLE "Намеки (feat. Туши свет)"
    PERFORMER "Рабы лампы"
    FLAGS DCP
    INDEX 01 41:12:71
  TRACK 20 AUDIO
    TITLE "Имена, которые все знают"
    PERFORMER "Рабы лампы"
    FLAGS DCP
    INDEX 01 44:01:56
  TRACK 21 AUDIO
    TITLE "Мой друг"
    PERFORMER "Рабы лампы"
    FLAGS DCP
    INDEX 01 44:47:08
  TRACK 22 AUDIO
    TITLE "Ода уходящего года (feat. Sir-J и Ю.Г.)"
    PERFORMER "Рабы лампы"
    FLAGS DCP
    INDEX 01 48:27:56
  TRACK 23 AUDIO
    TITLE "Посвящение (Империя)"
    PERFORMER "Рабы лампы"
    FLAGS DCP
    INDEX 01 53:09:23
  TRACK 24 AUDIO
    TITLE "Конец альбома"
    PERFORMER "Рабы лампы"
    FLAGS DCP
    INDEX 01 60:38:25

info [Профиль]  [ЛС] 

nonamez

Стаж: 6 лет 8 месяцев

Сообщений: 248

Рейтинг

post 15-Фев-2012 23:36 (спустя 9 часов) [-]0[+]

[Цитировать] 

классика!
info [Профиль]  [ЛС] 

lps

Пол: Пол:Муж

Стаж: 6 лет 8 месяцев

Сообщений: 489

Рейтинг

post 16-Фев-2012 02:37 (спустя 3 часа) [-]0[+]

[Цитировать] 

Вот спасибо, нетленка из детства.

_________________
man with no face
info [Профиль]  [ЛС] 

rza_86

Пол: Пол:Муж

Стаж: 7 лет 2 месяца

Сообщений: 85

Украина
Рейтинг

post 16-Фев-2012 13:41 (спустя 11 часов) [-]0[+]

[Цитировать] 

этот альбом можно слушать вечно! Жаль Грюндиг умер, таких поэтов как он больше уже не будет!!!

_________________
info [Профиль]  [ЛС] 
Показать сообщения:    
Ответить на тему

Текущее время: 07-Дек 14:38

Часовой пояс: GMT + 4



Вы не можете начинать темы
Вы не можете отвечать на сообщения
Вы не можете редактировать свои сообщения
Вы не можете удалять свои сообщения
Вы не можете голосовать в опросах
Вы не можете прикреплять файлы к сообщениям
Вы не можете скачивать файлы