Ошибка

(Punk-Rock) Тараканы! - Дискография - 1998-2013, FLAC (image+.cue)+covers, lossless

Ответить на тему
 
Автор Сообщение

The Royal

Пол: Пол:Муж

Стаж: 6 лет 11 месяцев

Сообщений: 652

Россия
Рейтинг

post 09-Фев-2012 22:49 1[+]

[Цитировать] 


Жанр: Punk-Rock
Происхождение исполнителя: Москва
Год: 1998-2013
Тип релиза: image+.cue
Аудио кодек: FLAC
Битрейт аудио: lossless
Продолжительность: 08:29:16
Полиграфия: присутствует

01. НАМ НЕ НРАВЯТСЯ ТЕ, КОМУ НЕ НРАВИМСЯ МЫ (2:30)
02. 1975 (2:47)
03. ПОЕЗД В СТОРОНУ АРБАТСКОЙ (3:13)
04. НЕ ВЕЗЕТ (3:48)
05. ПАНК РОК ПЕСНЯ (2:47)
07. ПАНК РОК ЗВЕЗДА (3:57)
08. ВЫХОДНОЙ (2:40)
09. ОТДЫХАТЬ! (1:51)
09. Я ТЕБЯ ЛЮБЛЮ (3:06)
10. БИТВЫ БРАТВЫ (2:41)
11. ДЕВОЧКА СТРАШИЛА (1:54)
12. ПРОСНУТЬСЯ БЕЗ ТЕБЯ (ПОХМЕЛЬЕ) (1:51)
13. БАЛЛАДА О РАБОТЕ (2:38)
14. УКОЛ (2:28)
15. РЫЖИЙ (0:24)
Exact Audio Copy V0.99 prebeta 3 from 28. July 2007 

Отчёт EAC об извлечении, выполненном 24. марта 2008, 19:05

Тараканы! / Посадки нет

Дисковод: ASUS DRW-1814BLT Adapter: 2 ID: 0

Режим чтения : Достоверность
Использование точного потока : Да
Отключение кэша аудио : Да
Использование указателей C2 : Нет

Коррекция смещения при чтении : 6
Способность читать области Lead-in и Lead-out : Нет
Заполнение пропущенных сэмплов тишиной : Да
Удаление блоков с тишиной в начале и конце : Нет
При вычислениях CRC использовались нулевые сэмплы : Да
Интерфейс : Встроенный Win32-интерфейс для Win NT/2000

Выходной формат : Пользовательский кодировщик
Выбранный битрейт : 128 kBit/s
Качество : Высокий
Добавление ID3-тэга : Нет
Утилита сжатия : C:\Program Files\Flac\flac.exe
Дополнительные параметры : -T "artist=%a" -T "title=%t" -T "album=%g" -T "date=%y" -T "tracknumber=%n" -T "genre=%m" -5 %s

TOC извлечённого CD

Трек | Старт | Длительность | Начальный сектор | Конечный сектор
---------------------------------------------------------------------
1 | 0:00.00 | 2:30.02 | 0 | 11251
2 | 2:30.02 | 2:46.58 | 11252 | 23759
3 | 5:16.60 | 3:13.27 | 23760 | 38261
4 | 8:30.12 | 3:47.53 | 38262 | 55339
5 | 12:17.65 | 2:47.12 | 55340 | 67876
6 | 15:05.02 | 0:23.57 | 67877 | 69658
7 | 15:28.59 | 3:57.30 | 69659 | 87463
8 | 19:26.14 | 2:40.18 | 87464 | 99481
9 | 22:06.32 | 1:51.04 | 99482 | 107810
10 | 23:57.36 | 2:40.66 | 107811 | 119876
11 | 26:38.27 | 1:54.34 | 119877 | 128460
12 | 28:32.61 | 1:51.17 | 128461 | 136802
13 | 30:24.03 | 2:37.62 | 136803 | 148639
14 | 33:01.65 | 2:28.06 | 148640 | 159745
15 | 35:29.71 | 3:04.20 | 159746 | 173565
16 | 41:06.16 | 12:11.61 | 184966 | 239851

Характеристики диапазона извлечения и сообщения об ошибках

Выбранный диапазон

Имя файла J:\Музыка в Lossless формате\Тараканы!\1998 - Посадки Нет\Тараканы! - Посадки нет.wav

Пиковый уровень 99.9 %
Качество диапазона 100.0 %
CRC копии A9CDCFE9
Копирование... OK

Ошибок не произошло

Конец отчёта
REM GENRE "Punk Rock" 
REM DATE 1998
REM DISCID D10C7E10
REM COMMENT "ExactAudioCopy v0.99pb3"
PERFORMER "Тараканы!"
TITLE "Посадки нет"
FILE "Тараканы! - Посадки нет.flac" WAVE
TRACK 01 AUDIO
TITLE "Нам не нравятся те, кому не нравимся мы"
PERFORMER "Тараканы!"
INDEX 01 00:00:00
TRACK 02 AUDIO
TITLE "1975"
PERFORMER "Тараканы!"
INDEX 01 02:30:02
TRACK 03 AUDIO
TITLE "Поезд в сторону Арбатской"
PERFORMER "Тараканы!"
INDEX 00 05:14:60
INDEX 01 05:16:60
TRACK 04 AUDIO
TITLE "Не везет"
PERFORMER "Тараканы!"
INDEX 00 08:28:12
INDEX 01 08:30:12
TRACK 05 AUDIO
TITLE "Панк рок песня"
PERFORMER "Тараканы!"
INDEX 00 12:15:65
INDEX 01 12:17:65
TRACK 06 AUDIO
TITLE "Рыжий"
PERFORMER "Тараканы!"
INDEX 00 15:03:02
INDEX 01 15:05:02
TRACK 07 AUDIO
TITLE "Панк рок звезда"
PERFORMER "Тараканы!"
INDEX 00 15:26:59
INDEX 01 15:28:59
TRACK 08 AUDIO
TITLE "Выходной"
PERFORMER "Тараканы!"
INDEX 00 19:24:14
INDEX 01 19:26:14
TRACK 09 AUDIO
TITLE "Отдыхать!"
PERFORMER "Тараканы!"
INDEX 00 22:04:32
INDEX 01 22:06:32
TRACK 10 AUDIO
TITLE "Битвы братвы"
PERFORMER "Тараканы!"
INDEX 00 23:55:36
INDEX 01 23:57:36
TRACK 11 AUDIO
TITLE "Девочка-страшила"
PERFORMER "Тараканы!"
INDEX 00 26:36:27
INDEX 01 26:38:27
TRACK 12 AUDIO
TITLE "Проснуться без тебя (похмелье)"
PERFORMER "Тараканы!"
INDEX 00 28:30:61
INDEX 01 28:32:61
TRACK 13 AUDIO
TITLE "Баллада о работе"
PERFORMER "Тараканы!"
INDEX 00 30:22:03
INDEX 01 30:24:03
TRACK 14 AUDIO
TITLE "Укол"
PERFORMER "Тараканы!"
INDEX 00 32:59:65
INDEX 01 33:01:65
TRACK 15 AUDIO
TITLE "Я тебя люблю?"
PERFORMER "Тараканы!"
INDEX 00 35:27:71
INDEX 01 35:29:71
01. ТУПОЙ ПАНК РОК ДЛЯ ИНТЕЛЛЕКТУАЛОВ (0:59)
02. ПЕСНЯ NR. 1 (1:28)
03. ТУПАЯ СВИНЬЯ (2:11)
04. 365 ДНЕЙ (3:12)
05. ВЕСЕННЕЕ ОБОСТРЕНИЕ (2:02)
06. ВОЕНКОМАТ (2:55)
07. КТО ЖЕ ТЕПЕРЬ БУДЕТ СПАТЬ СО МНОЙ (2:46)
08. ОПАСНЫЙ СЕКС (2:33)
09. I LEFT IT ONCE (2:24)
10. ЕСЛИ БЫ Я БЫЛ САМЫМ ГЛАВНЫМ (2:28)
11. FROM RUSSIA WITH PUNK (2:45)
12. ПРОЧЬ ИЗ ЭТИХ МЕСТ (3:29)
13. МНОГО ТЕЛОК И ПИВА (1:40)
14. ПРО ГОЛОВУ (2:45)
15. ПИТ БРОСИЛ ПИТЬ (7:26)
16. ПИТ БРОСИЛ ПИТЬ (2:30)
Exact Audio Copy V0.99 prebeta 4 from 23. January 2008 

EAC extraction logfile from 19. September 2009, 10:42

Тараканы! / Попкорм. Мы Научили Мир Сосать (Коллекционное издание)

Used drive : ASUS DRW-1814BLT Adapter: 0 ID: 0

Read mode : Secure
Utilize accurate stream : Yes
Defeat audio cache : Yes
Make use of C2 pointers : No

Read offset correction : 6
Overread into Lead-In and Lead-Out : No
Fill up missing offset samples with silence : Yes
Delete leading and trailing silent blocks : No
Null samples used in CRC calculations : Yes
Used interface : Native Win32 interface for Win NT & 2000

Used output format : User Defined Encoder
Selected bitrate : 128 kBit/s
Quality : High
Add ID3 tag : No
Command line compressor : C:\Program Files\FLAC\flac.exe
Additional command line options : -8 -V -T "ARTIST=%a" -T "TITLE=%t" -T "ALBUM=%g" -T "DATE=%y" -T "TRACKNUMBER=%n" -T "GENRE=%m" -T "COMMENT=EAC FLAC -8" %s

TOC of the extracted CD

Track | Start | Length | Start sector | End sector
---------------------------------------------------------
1 | 0:00.00 | 0:58.55 | 0 | 4404
2 | 0:58.55 | 1:27.66 | 4405 | 10995
3 | 2:26.46 | 2:11.17 | 10996 | 20837
4 | 4:37.63 | 3:12.09 | 20838 | 35246
5 | 7:49.72 | 2:01.65 | 35247 | 44386
6 | 9:51.62 | 2:54.18 | 44387 | 57454
7 | 12:46.05 | 2:45.41 | 57455 | 69870
8 | 15:31.46 | 2:33.13 | 69871 | 81358
9 | 18:04.59 | 2:23.30 | 81359 | 92113
10 | 20:28.14 | 2:27.26 | 92114 | 103164
11 | 22:55.40 | 2:44.20 | 103165 | 115484
12 | 25:39.60 | 3:28.26 | 115485 | 131110
13 | 29:08.11 | 1:40.02 | 131111 | 138612
14 | 30:48.13 | 2:44.48 | 138613 | 150960
15 | 33:32.61 | 1:40.21 | 150961 | 158481
16 | 35:13.07 | 7:39.41 | 158482 | 192947

Range status and errors

Selected range

Filename D:\Музыка в Lossless формате\Тараканы!\2000 - Попкорм. Мы Научили Мир Сосать (Коллекционное издание)\Тараканы! - Попкорм. Мы Научили Мир Сосать (Коллекционное издание).wav

Peak level 97.7 %
Range quality 100.0 %
Test CRC 28F86D7B
Copy CRC 28F86D7B
Copy OK

No errors occurred

AccurateRip summary
Track 1 accurately ripped (confidence 1) [6D43CC08]
Track 2 accurately ripped (confidence 1) [1D62AD8C]
Track 3 accurately ripped (confidence 1) [07CEA166]
Track 4 accurately ripped (confidence 1) [0362CE3D]
Track 5 accurately ripped (confidence 1) [7B488F51]
Track 6 accurately ripped (confidence 1) [7413FCEF]
Track 7 accurately ripped (confidence 1) [054CBB2B]
Track 8 accurately ripped (confidence 1) [71B8EDAF]
Track 9 accurately ripped (confidence 1) [1452AC85]
Track 10 accurately ripped (confidence 1) [05052482]
Track 11 accurately ripped (confidence 1) [50B790C2]
Track 12 accurately ripped (confidence 1) [16A4ADFE]
Track 13 accurately ripped (confidence 1) [BD32D509]
Track 14 accurately ripped (confidence 1) [E90CA5AF]
Track 15 accurately ripped (confidence 1) [F3B84144]
Track 16 accurately ripped (confidence 1) [E087175A]
All tracks accurately ripped

End of status report
REM GENRE Punk-Rock 
REM DATE 2000
REM DISCID C50A0C10
REM COMMENT "ExactAudioCopy v0.99pb4"
PERFORMER "Тараканы!"
TITLE "Попкорм. Мы Научили Мир Сосать (Коллекционное издание)"
FILE "Тараканы! - Попкорм. Мы Научили Мир Сосать (Коллекционное издание).flac" WAVE
TRACK 01 AUDIO
TITLE "Тупой панк-рок для интеллектуалов"
PERFORMER "Тараканы!"
INDEX 01 00:00:00
TRACK 02 AUDIO
TITLE "Песня №1"
PERFORMER "Тараканы!"
INDEX 01 00:58:55
TRACK 03 AUDIO
TITLE "Тупая свинья"
PERFORMER "Тараканы!"
INDEX 00 02:25:01
INDEX 01 02:26:46
TRACK 04 AUDIO
TITLE "365 дней"
PERFORMER "Тараканы!"
INDEX 00 04:36:18
INDEX 01 04:37:63
TRACK 05 AUDIO
TITLE "Весеннее обострение"
PERFORMER "Тараканы!"
INDEX 00 07:48:27
INDEX 01 07:49:72
TRACK 06 AUDIO
TITLE "Военкомат"
PERFORMER "Тараканы!"
INDEX 00 09:50:17
INDEX 01 09:51:62
TRACK 07 AUDIO
TITLE "Кто же будет спать со мной"
PERFORMER "Тараканы!"
INDEX 00 12:44:35
INDEX 01 12:46:05
TRACK 08 AUDIO
TITLE "Опасный секс"
PERFORMER "Тараканы!"
INDEX 00 15:30:01
INDEX 01 15:31:46
TRACK 09 AUDIO
TITLE "I Left It Once"
PERFORMER "Тараканы!"
INDEX 00 18:03:14
INDEX 01 18:04:59
TRACK 10 AUDIO
TITLE "Если бы я был самым главным"
PERFORMER "Тараканы!"
INDEX 00 20:26:44
INDEX 01 20:28:14
TRACK 11 AUDIO
TITLE "From Russia With Punk"
PERFORMER "Тараканы!"
INDEX 00 22:53:70
INDEX 01 22:55:40
TRACK 12 AUDIO
TITLE "Прочь из этих мест"
PERFORMER "Тараканы!"
INDEX 00 25:38:15
INDEX 01 25:39:60
TRACK 13 AUDIO
TITLE "Много телок и пива"
PERFORMER "Тараканы!"
INDEX 00 29:06:41
INDEX 01 29:08:11
TRACK 14 AUDIO
TITLE "Про голову"
PERFORMER "Тараканы!"
INDEX 00 30:46:43
INDEX 01 30:48:13
TRACK 15 AUDIO
TITLE "Пит бросил Пить"
PERFORMER "Тараканы!"
INDEX 00 33:31:16
INDEX 01 33:32:61
TRACK 16 AUDIO
TITLE "РУССКИЙ ROK"
PERFORMER "Тараканы!"
INDEX 00 35:11:37
INDEX 01 35:13:07
01. Old Blood (2:42)
02. The Devils` Own Luck (2:20)
03. From Far East (3:11)
04. Triumph - High, Go, Vicious (2:36)
05. реальный панк (2:40)
06. я не верю (2:36)
07. когда я куплю себе пистолет (1:39)
08. я манал (1:27)
Exact Audio Copy V0.99 prebeta 3 from 28. July 2007 

Отчёт EAC об извлечении, выполненном 27. марта 2008, 20:21

Sobout & Тараканы! / Punk This Town/Реальный Панк

Дисковод: ASUS DRW-1814BLT Adapter: 2 ID: 0

Режим чтения : Достоверность
Использование точного потока : Да
Отключение кэша аудио : Да
Использование указателей C2 : Нет

Коррекция смещения при чтении : 6
Способность читать области Lead-in и Lead-out : Нет
Заполнение пропущенных сэмплов тишиной : Да
Удаление блоков с тишиной в начале и конце : Нет
При вычислениях CRC использовались нулевые сэмплы : Да
Интерфейс : Встроенный Win32-интерфейс для Win NT/2000

Выходной формат : Пользовательский кодировщик
Выбранный битрейт : 128 kBit/s
Качество : Высокий
Добавление ID3-тэга : Нет
Утилита сжатия : C:\Program Files\Flac\flac.exe
Дополнительные параметры : -T "artist=%a" -T "title=%t" -T "album=%g" -T "date=%y" -T "tracknumber=%n" -T "genre=%m" -5 %s

TOC извлечённого CD

Трек | Старт | Длительность | Начальный сектор | Конечный сектор
---------------------------------------------------------------------
1 | 0:00.00 | 2:44.01 | 0 | 12300
2 | 2:44.01 | 2:22.06 | 12301 | 22956
3 | 5:06.07 | 3:13.16 | 22957 | 37447
4 | 8:19.23 | 2:38.29 | 37448 | 49326
5 | 10:57.52 | 2:41.60 | 49327 | 61461
6 | 13:39.37 | 2:37.44 | 61462 | 73280
7 | 16:17.06 | 1:40.38 | 73281 | 80818
8 | 17:57.44 | 1:27.00 | 80819 | 87343

Характеристики диапазона извлечения и сообщения об ошибках

Выбранный диапазон

Имя файла J:\Музыка в Lossless формате\Тараканы!\2001 - Sobout & Тараканы! - Punk This Town.Реальный Панк\Sobout & Тараканы! - Punk This Town Реальный Панк.wav

Пиковый уровень 96.6 %
Качество диапазона 100.0 %
CRC копии 961B8C96
Копирование... OK

Ошибок не произошло

Конец отчёта
REM GENRE Punk Rock 
REM DATE 2001
REM DISCID 69048C08
REM COMMENT ExactAudioCopy v0.99pb3
PERFORMER "Sobut & Тараканы!"
TITLE "Punk This Town/Реальный Панк"
FILE "Sobut & Тараканы! - Punk This Town Реальный Панк.flac" WAVE
TRACK 01 AUDIO
TITLE "Old Blood"
INDEX 01 00:00:00
TRACK 02 AUDIO
TITLE "The Devils' Own Luck"
INDEX 01 02:44:01
TRACK 03 AUDIO
TITLE "From Far East"
INDEX 01 05:06:07
TRACK 04 AUDIO
TITLE "Triumph*Hight, Go, Vicious*"
INDEX 01 08:19:23
TRACK 05 AUDIO
TITLE "Реальный Панк?"
INDEX 01 10:57:52
TRACK 06 AUDIO
TITLE "Я Не Верю"
INDEX 01 13:39:37
TRACK 07 AUDIO
TITLE "Когда Я Куплю Себе Пистолет"
INDEX 01 16:17:06
TRACK 08 AUDIO
TITLE "Я Манал"
INDEX 01 17:57:44
01. FM МОЛЧИТ (1:50)
02. Я НЕ ВЕРЮ (2:24)
03. Я СМОТРЮ НА НИХ (3:09)
04. ПРОМОКАМПАНИЯ (2:09)
05. РЕАЛЬНЫЙ ПАНК (FEATURING ЧАЧА) (2:21)
05. РЕАЛЬНЫЙ ПАНК (2:22)
06. КАК В ТРЕТЬЕЙ КВАКЕ (2:02)
07. ЛЕТОМ (2:22)
08. КТО ТО ДРУГОЙ (2:17)
09. Я ТЕБЯ ЛЮБЛЮ (2:39)
10. КОГДА Я КУПЛЮ СЕБЕ ПИСТОЛЕТ (1:36)
11. ПИСЬМО К БРИТНИ (2:46)
12. РУССКИЙ РОК (3:06)
13. САШЕНЬКА (4:26)
14. ЖИТЕЛЬ СТОЛИЦЫ (2:13)
15. ОСТАВАЙСЯ ШЕСТНАДЦАТИЛЕТНЕЙ (2:52)
Exact Audio Copy V0.99 prebeta 5 from 4. May 2009 

EAC extraction logfile from 15. August 2010, 15:01

Тараканы! / Страх И Ненависть (Коллекционное Издание)

Used drive : ASUS DRW-1814BLT Adapter: 2 ID: 0

Read mode : Secure
Utilize accurate stream : Yes
Defeat audio cache : Yes
Make use of C2 pointers : No

Read offset correction : 6
Overread into Lead-In and Lead-Out : No
Fill up missing offset samples with silence : Yes
Delete leading and trailing silent blocks : No
Null samples used in CRC calculations : Yes
Used interface : Native Win32 interface for Win NT & 2000

Used output format : User Defined Encoder
Selected bitrate : 32 kBit/s
Quality : High
Add ID3 tag : No
Command line compressor : C:\Program Files\FLAC\flac.exe
Additional command line options : -8 -V -T "ARTIST=%a" -T "TITLE=%t" -T "ALBUM=%g" -T "DATE=%y" -T "TRACKNUMBER=%n" -T "GENRE=%m" -T "COMMENT=EAC FLAC -8 / By xen0m0rph" %s

TOC of the extracted CD

Track | Start | Length | Start sector | End sector
---------------------------------------------------------
1 | 0:00.00 | 1:50.14 | 0 | 8263
2 | 1:50.14 | 2:23.51 | 8264 | 19039
3 | 4:13.65 | 3:08.58 | 19040 | 33197
4 | 7:22.48 | 2:08.36 | 33198 | 42833
5 | 9:31.09 | 2:22.04 | 42834 | 53487
6 | 11:53.13 | 2:01.66 | 53488 | 62628
7 | 13:55.04 | 2:21.24 | 62629 | 73227
8 | 16:16.28 | 2:16.54 | 73228 | 83481
9 | 18:33.07 | 2:38.36 | 83482 | 95367
10 | 21:11.43 | 1:35.29 | 95368 | 102521
11 | 22:46.72 | 2:45.70 | 102522 | 114966
12 | 25:32.67 | 3:06.12 | 114967 | 128928
13 | 28:39.04 | 4:26.10 | 128929 | 148888
14 | 33:05.14 | 2:12.62 | 148889 | 158850
15 | 35:18.01 | 2:51.30 | 158851 | 171705
16 | 38:09.31 | 2:20.54 | 171706 | 182259

Range status and errors

Selected range

Filename D:\Музыка в Lossless формате\Тараканы!\2001 - Страх И Ненависть (Коллекционное Издание)\Тараканы! - Страх И Ненависть (Коллекционное Издание).wav

Peak level 100.0 %
Range quality 100.0 %
Test CRC B9DD203B
Copy CRC B9DD203B
Copy OK

No errors occurred

AccurateRip summary
Track 1 not present in database
Track 2 not present in database
Track 3 not present in database
Track 4 not present in database
Track 5 not present in database
Track 6 not present in database
Track 7 not present in database
Track 8 not present in database
Track 9 not present in database
Track 10 not present in database
Track 11 not present in database
Track 12 not present in database
Track 13 not present in database
Track 14 not present in database
Track 15 not present in database
Track 16 not present in database
None of the tracks are present in the AccurateRip database

End of status report
REM GENRE Punk 
REM DATE 2001
REM DISCID CF097E10
REM COMMENT "ExactAudioCopy v0.99pb5"
PERFORMER "Тараканы!"
TITLE "Страх И Ненависть (Коллекционное Издание)"
FILE "Тараканы! - Страх И Ненависть (Коллекционное Издание).flac" WAVE
TRACK 01 AUDIO
TITLE "FM Молчит"
PERFORMER "Тараканы!"
FLAGS DCP
INDEX 01 00:00:00
TRACK 02 AUDIO
TITLE "Я Не Верю"
PERFORMER "Тараканы!"
FLAGS DCP
INDEX 00 01:48:14
INDEX 01 01:50:14
TRACK 03 AUDIO
TITLE "Я Смотрю На Них"
PERFORMER "Тараканы!"
FLAGS DCP
INDEX 00 04:11:65
INDEX 01 04:13:65
TRACK 04 AUDIO
TITLE "Промокампания"
PERFORMER "Тараканы!"
FLAGS DCP
INDEX 00 07:20:48
INDEX 01 07:22:48
TRACK 05 AUDIO
TITLE "Реальный Панк?"
PERFORMER "Тараканы!"
FLAGS DCP
INDEX 00 09:29:09
INDEX 01 09:31:09
TRACK 06 AUDIO
TITLE "Как В 3-й Quake"
PERFORMER "Тараканы!"
FLAGS DCP
INDEX 00 11:51:13
INDEX 01 11:53:13
TRACK 07 AUDIO
TITLE "Летом"
PERFORMER "Тараканы!"
FLAGS DCP
INDEX 00 13:53:04
INDEX 01 13:55:04
TRACK 08 AUDIO
TITLE "Кто-то Другой"
PERFORMER "Тараканы!"
FLAGS DCP
INDEX 00 16:14:28
INDEX 01 16:16:28
TRACK 09 AUDIO
TITLE "Я Тебя Люблю"
PERFORMER "Тараканы!"
FLAGS DCP
INDEX 00 18:31:07
INDEX 01 18:33:07
TRACK 10 AUDIO
TITLE "Когда Я Куплю Себе Пистолет"
PERFORMER "Тараканы!"
FLAGS DCP
INDEX 00 21:09:43
INDEX 01 21:11:43
TRACK 11 AUDIO
TITLE "Письмо К Бритни"
PERFORMER "Тараканы!"
FLAGS DCP
INDEX 00 22:44:72
INDEX 01 22:46:72
TRACK 12 AUDIO
TITLE "Русский Рк"
PERFORMER "Тараканы!"
FLAGS DCP
INDEX 00 25:30:67
INDEX 01 25:32:67
TRACK 13 AUDIO
TITLE "Сашенька"
PERFORMER "Тараканы!"
FLAGS DCP
INDEX 00 28:37:04
INDEX 01 28:39:04
TRACK 14 AUDIO
TITLE "Житель Столицы"
PERFORMER "Тараканы!"
FLAGS DCP
INDEX 00 33:03:14
INDEX 01 33:05:14
TRACK 15 AUDIO
TITLE "Оставайся 16-летней"
PERFORMER "Тараканы!"
FLAGS DCP
INDEX 00 35:16:01
INDEX 01 35:18:01
TRACK 16 AUDIO
TITLE "Реальный Панк? feat. ЧАЧА"
PERFORMER "Тараканы!"
FLAGS DCP
INDEX 00 38:07:31
INDEX 01 38:09:31
01. Причина Для Ненависти (2:36)
02. Военкомат (2:52)
03. 03 - Farewell Majority (новая версия) (2:32)
04. Пиво на вино (2:46)
05. Русский рок (3:05)
06. Поезд в сторону Арбатской (3:10)
07. Мальчики-Танчики (новая версия) (2:23)
08. Freedom (новая версия) (2:53)
09. Я пил (версия УП2) (2:28)
10. Дурная башка (2:02)
11. Реальный панк (feat. Чача) (2:21)
12. Много тёлок и пива (1:37)
13. Панк рок песня (2:44)
14. Я смотрю на них (3:08)
15. Украл! Выпил!! В тюрьму!!!(1:31)
Exact Audio Copy V0.99 prebeta 4 from 23. January 2008 

EAC extraction logfile from 19. September 2009, 1:29

Тараканы! / Лучшее. Враг хорошего (Коллекционное издание)

Used drive : ASUS DRW-1814BLT Adapter: 0 ID: 0

Read mode : Secure
Utilize accurate stream : Yes
Defeat audio cache : Yes
Make use of C2 pointers : No

Read offset correction : 6
Overread into Lead-In and Lead-Out : No
Fill up missing offset samples with silence : Yes
Delete leading and trailing silent blocks : No
Null samples used in CRC calculations : Yes
Used interface : Native Win32 interface for Win NT & 2000

Used output format : User Defined Encoder
Selected bitrate : 128 kBit/s
Quality : High
Add ID3 tag : No
Command line compressor : C:\Program Files\FLAC\flac.exe
Additional command line options : -8 -V -T "ARTIST=%a" -T "TITLE=%t" -T "ALBUM=%g" -T "DATE=%y" -T "TRACKNUMBER=%n" -T "GENRE=%m" -T "COMMENT=EAC FLAC -8" %s

TOC of the extracted CD

Track | Start | Length | Start sector | End sector
---------------------------------------------------------
1 | 0:00.00 | 2:38.73 | 0 | 11922
2 | 2:38.73 | 2:54.42 | 11923 | 25014
3 | 5:33.40 | 2:34.47 | 25015 | 36611
4 | 8:08.12 | 2:48.39 | 36612 | 49250
5 | 10:56.51 | 3:08.12 | 49251 | 63362
6 | 14:04.63 | 3:13.05 | 63363 | 77842
7 | 17:17.68 | 2:25.01 | 77843 | 88718
8 | 19:42.69 | 2:55.71 | 88719 | 101914
9 | 22:38.65 | 2:30.21 | 101915 | 113185
10 | 25:09.11 | 2:05.20 | 113186 | 122580
11 | 27:14.31 | 2:22.54 | 122581 | 133284
12 | 29:37.10 | 1:39.49 | 133285 | 140758
13 | 31:16.59 | 2:46.68 | 140759 | 153276
14 | 34:03.52 | 3:11.21 | 153277 | 167622
15 | 37:14.73 | 1:33.52 | 167623 | 174649
16 | 38:48.50 | 2:37.18 | 174650 | 186442

Range status and errors

Selected range

Filename D:\Музыка в Lossless формате\Тараканы!\2002 - Лучшее. Враг хорошего (Коллекционное издание)\Тараканы! - Лучшее. Враг хорошего (Коллекционное издание).wav

Peak level 99.9 %
Range quality 100.0 %
Test CRC C6A1A674
Copy CRC C6A1A674
Copy OK

No errors occurred

AccurateRip summary
Track 1 not present in database
Track 2 not present in database
Track 3 not present in database
Track 4 not present in database
Track 5 not present in database
Track 6 not present in database
Track 7 not present in database
Track 8 not present in database
Track 9 not present in database
Track 10 not present in database
Track 11 not present in database
Track 12 not present in database
Track 13 not present in database
Track 14 not present in database
Track 15 not present in database
Track 16 not present in database
None of the tracks are present in the AccurateRip database

End of status report
REM GENRE Punk-Rock
REM DATE 2002
REM DISCID D309B510
REM COMMENT "ExactAudioCopy v0.99pb4"
PERFORMER "Тараканы!"
TITLE "Лучшее. Враг хорошего (Коллекционное издание)"
FILE "Тараканы! - Лучшее. Враг хорошего (Коллекционное издание).flac" WAVE
TRACK 01 AUDIO
TITLE "Причина для ненависти"
PERFORMER "Тараканы!"
INDEX 01 00:00:00
TRACK 02 AUDIO
TITLE "Военкомат"
PERFORMER "Тараканы!"
INDEX 00 02:36:73
INDEX 01 02:38:73
TRACK 03 AUDIO
TITLE "Farewell Majority (новая версия)"
PERFORMER "Тараканы!"
INDEX 00 05:31:40
INDEX 01 05:33:40
TRACK 04 AUDIO
TITLE "Пиво на вино"
PERFORMER "Тараканы!"
INDEX 00 08:06:12
INDEX 01 08:08:12
TRACK 05 AUDIO
TITLE "Русский рок"
PERFORMER "Тараканы!"
INDEX 00 10:54:51
INDEX 01 10:56:51
TRACK 06 AUDIO
TITLE "Поезд в сторону Арбатской"
PERFORMER "Тараканы!"
INDEX 00 14:02:63
INDEX 01 14:04:63
TRACK 07 AUDIO
TITLE "Мальчики-Танчики (новая версия)"
PERFORMER "Тараканы!"
INDEX 00 17:15:68
INDEX 01 17:17:68
TRACK 08 AUDIO
TITLE "Freedom (новая версия)"
PERFORMER "Тараканы!"
INDEX 00 19:40:69
INDEX 01 19:42:69
TRACK 09 AUDIO
TITLE "Я пил (версия УП2)"
PERFORMER "Тараканы!"
INDEX 00 22:36:65
INDEX 01 22:38:65
TRACK 10 AUDIO
TITLE "Дурная Башка"
PERFORMER "Тараканы!"
INDEX 00 25:07:11
INDEX 01 25:09:11
TRACK 11 AUDIO
TITLE "Реальный панк feat Чача"
PERFORMER "Тараканы!"
INDEX 00 27:12:31
INDEX 01 27:14:31
TRACK 12 AUDIO
TITLE "Много телок и пива"
PERFORMER "Тараканы!"
INDEX 00 29:35:10
INDEX 01 29:37:10
TRACK 13 AUDIO
TITLE "Панк рок песня"
PERFORMER "Тараканы!"
INDEX 00 31:14:59
INDEX 01 31:16:59
TRACK 14 AUDIO
TITLE "Я смотрю на них"
PERFORMER "Тараканы!"
INDEX 00 34:01:52
INDEX 01 34:03:52
TRACK 15 AUDIO
TITLE "Украл? Выпил ?! в Тюрьму!!! (новая версия)"
PERFORMER "Тараканы!"
INDEX 00 37:12:73
INDEX 01 37:14:73
TRACK 16 AUDIO
TITLE "Override Generation (by SOBUT)"
PERFORMER "Тараканы!"
INDEX 00 38:46:50
INDEX 01 38:48:50
01. Делай Сам! (2:23)
02. Восклицания Знаки (2:23)
03. Причина Для Ненависти (2:44)
04. Границы Гетто (3:11)
05. Кто И Когда (2:59)
06. Форева? (1:57)
07. Оставь Это Себе (3:01)
08. Счастье Будет Твоим (2:46)
09. Слово Из Четырёх Букв (2:11)
10. Тронь Меня (2:48)
11. Улица Свободы (2:38)
12. Вся Планета Земля (2:40)
13. Гимн Демократической Молодёжи Мира (2:22)
14. Спасибо И До Свидания (1:51)
15. Кое-Что Абсолютно Другое (1:27)
Exact Audio Copy V0.99 prebeta 3 from 28. July 2007 

Отчёт EAC об извлечении, выполненном 16. августа 2008, 13:23

Тараканы! / Улица Свободы (Коллекционное Издание)

Дисковод: ASUS DRW-1814BLT Adapter: 0 ID: 0

Режим чтения : Достоверность
Использование точного потока : Да
Отключение кэша аудио : Да
Использование указателей C2 : Нет

Коррекция смещения при чтении : 6
Способность читать области Lead-in и Lead-out : Нет
Заполнение пропущенных сэмплов тишиной : Да
Удаление блоков с тишиной в начале и конце : Нет
При вычислениях CRC использовались нулевые сэмплы : Да
Интерфейс : Встроенный Win32-интерфейс для Win NT/2000

Выходной формат : Пользовательский кодировщик
Выбранный битрейт : 128 kBit/s
Качество : Высокий
Добавление ID3-тэга : Нет
Утилита сжатия : C:\Program Files\Flac\flac.exe
Дополнительные параметры : -T "artist=%a" -T "title=%t" -T "album=%g" -T "date=%y" -T "tracknumber=%n" -T "genre=%m" -5 %s

TOC извлечённого CD

Трек | Старт | Длительность | Начальный сектор | Конечный сектор
---------------------------------------------------------------------
1 | 0:00.00 | 2:23.07 | 0 | 10731
2 | 2:23.07 | 2:23.18 | 10732 | 21474
3 | 4:46.25 | 2:44.15 | 21475 | 33789
4 | 7:30.40 | 3:11.00 | 33790 | 48114
5 | 10:41.40 | 2:58.43 | 48115 | 61507
6 | 13:40.08 | 1:56.56 | 61508 | 70263
7 | 15:36.64 | 3:00.47 | 70264 | 83810
8 | 18:37.36 | 2:45.69 | 83811 | 96254
9 | 21:23.30 | 2:10.60 | 96255 | 106064
10 | 23:34.15 | 2:48.14 | 106065 | 118678
11 | 26:22.29 | 2:38.31 | 118679 | 130559
12 | 29:00.60 | 2:40.01 | 130560 | 142560
13 | 31:40.61 | 2:21.43 | 142561 | 153178
14 | 34:02.29 | 1:51.04 | 153179 | 161507
15 | 35:53.33 | 1:27.30 | 161508 | 168062
16 | 37:20.63 | 3:11.00 | 168063 | 182387
17 | 40:31.63 | 2:58.37 | 182388 | 195774
18 | 46:02.25 | 9:31.74 | 207175 | 250073

Характеристики диапазона извлечения и сообщения об ошибках

Выбранный диапазон

Имя файла J:\Музыка в Lossless формате\Тараканы!\2003 - Улица Свободы (Коллекционное Издание)\Тараканы! - Улица Свободы (Коллекционное Издание).wav

Пиковый уровень 98.8 %
Качество диапазона 99.9 %
CRC теста 2760D9BD
CRC копии 2760D9BD
Копирование... OK

Ошибок не произошло

Конец отчёта
REM GENRE Punk 
REM DATE 2003
REM DISCID EA0D0612
REM COMMENT "ExactAudioCopy v0.99pb3"
PERFORMER "Тараканы!"
TITLE "Улица Свободы (Коллекционное Издание)"
FILE "Тараканы! - Улица Свободы (Коллекционное Издание).flac" WAVE
TRACK 01 AUDIO
TITLE "Делай Сам!"
PERFORMER "Тараканы!"
FLAGS DCP
INDEX 01 00:00:00
TRACK 02 AUDIO
TITLE "Восклицания Знаки"
PERFORMER "Тараканы!"
FLAGS DCP
INDEX 01 02:23:07
TRACK 03 AUDIO
TITLE "Причина Для Ненависти"
PERFORMER "Тараканы!"
FLAGS DCP
INDEX 01 04:46:25
TRACK 04 AUDIO
TITLE "Границы Гетто"
PERFORMER "Тараканы!"
FLAGS DCP
INDEX 00 07:29:35
INDEX 01 07:30:40
TRACK 05 AUDIO
TITLE "Кто И Когда"
PERFORMER "Тараканы!"
FLAGS DCP
INDEX 00 10:40:18
INDEX 01 10:41:40
TRACK 06 AUDIO
TITLE "Форева?"
PERFORMER "Тараканы!"
FLAGS DCP
INDEX 00 13:39:28
INDEX 01 13:40:08
TRACK 07 AUDIO
TITLE "Оставь Это Себе"
PERFORMER "Тараканы!"
FLAGS DCP
INDEX 00 15:35:74
INDEX 01 15:36:64
TRACK 08 AUDIO
TITLE "Счастье Будет Твоим"
PERFORMER "Тараканы!"
FLAGS DCP
INDEX 00 18:36:08
INDEX 01 18:37:36
TRACK 09 AUDIO
TITLE "Слово Из Четырёх Букв"
PERFORMER "Тараканы!"
FLAGS DCP
INDEX 00 21:22:49
INDEX 01 21:23:30
TRACK 10 AUDIO
TITLE "Тронь Меня!"
PERFORMER "Тараканы!"
FLAGS DCP
INDEX 00 23:32:46
INDEX 01 23:34:15
TRACK 11 AUDIO
TITLE "Улица Свободы"
PERFORMER "Тараканы!"
FLAGS DCP
INDEX 00 26:21:44
INDEX 01 26:22:29
TRACK 12 AUDIO
TITLE "Вся Планета Земля"
PERFORMER "Тараканы!"
FLAGS DCP
INDEX 00 28:59:26
INDEX 01 29:00:60
TRACK 13 AUDIO
TITLE "Гимн Демократической Молодёжи Мира"
PERFORMER "Тараканы!"
FLAGS DCP
INDEX 00 31:39:61
INDEX 01 31:40:61
TRACK 14 AUDIO
TITLE "Спасибо И До Свиданья"
PERFORMER "Тараканы!"
FLAGS DCP
INDEX 01 34:02:29
TRACK 15 AUDIO
TITLE "Кое-Что Абсолютно Другое"
PERFORMER "Тараканы!"
FLAGS DCP
INDEX 00 35:52:00
INDEX 01 35:53:33
TRACK 16 AUDIO
TITLE "Pfeif Auf Die"
PERFORMER "Тараканы!"
FLAGS DCP
INDEX 00 37:19:60
INDEX 01 37:20:63
TRACK 17 AUDIO
TITLE "Who And When"
PERFORMER "Тараканы!"
FLAGS DCP
INDEX 00 40:30:50
INDEX 01 40:31:63
01. Громче! (0:46)
02. Я Иду Искать (1:37)
03. Улыбайся (Это Раздражает Всех) (1:34)
04. Анестезия (3:14)
05. Мистер Музыкальный Критик (1:33)
06. Последняя Песня Об Этом (3:22)
07. З.Л.О. (0:44)
08. Зубы И Когти (3:26)
09. Ракеты Из России (2:27)
10. Там, Где Руины Превращаются В Нас (3:26)
11. Д.О.Б.Р.О. (0:37)
12. Маша, Скрипачка Из Король и Шут (2:58)
13. Тишина-Это Смерть (3:38)
14. Плохие Девочки Идут За Сцену/Sometime (5:02)
Exact Audio Copy V0.99 prebeta 4 from 23. January 2008 

EAC extraction logfile from 20. October 2009, 0:14

Тараканы! / Ракеты Из России (Коллекционное Издание)

Used drive : ASUS DRW-1814BLT Adapter: 0 ID: 0

Read mode : Secure
Utilize accurate stream : Yes
Defeat audio cache : Yes
Make use of C2 pointers : No

Read offset correction : 6
Overread into Lead-In and Lead-Out : No
Fill up missing offset samples with silence : Yes
Delete leading and trailing silent blocks : No
Null samples used in CRC calculations : Yes
Used interface : Native Win32 interface for Win NT & 2000

Used output format : User Defined Encoder
Selected bitrate : 128 kBit/s
Quality : High
Add ID3 tag : No
Command line compressor : C:\Program Files\FLAC\flac.exe
Additional command line options : -8 -V -T "ARTIST=%a" -T "TITLE=%t" -T "ALBUM=%g" -T "DATE=%y" -T "TRACKNUMBER=%n" -T "GENRE=%m" -T "COMMENT=EAC FLAC -8" %s

TOC of the extracted CD

Track | Start | Length | Start sector | End sector
---------------------------------------------------------
1 | 0:00.00 | 0:45.71 | 0 | 3445
2 | 0:45.71 | 1:37.26 | 3446 | 10746
3 | 2:23.22 | 1:33.49 | 10747 | 17770
4 | 3:56.71 | 3:13.60 | 17771 | 32305
5 | 7:10.56 | 1:33.11 | 32306 | 39291
6 | 8:43.67 | 3:22.17 | 39292 | 54458
7 | 12:06.09 | 0:43.46 | 54459 | 57729
8 | 12:49.55 | 3:26.08 | 57730 | 73187
9 | 16:15.63 | 2:26.67 | 73188 | 84204
10 | 18:42.55 | 3:25.36 | 84205 | 99615
11 | 22:08.16 | 0:37.24 | 99616 | 102414
12 | 22:45.40 | 2:57.51 | 102415 | 115740
13 | 25:43.16 | 3:38.09 | 115741 | 132099
14 | 29:21.25 | 1:43.52 | 132100 | 139876
15 | 31:05.02 | 0:46.24 | 139877 | 143350
16 | 31:51.26 | 6:52.73 | 143351 | 174323

Range status and errors

Selected range

Filename D:\Музыка в Lossless формате\Тараканы!\2004 - Ракеты Из России (Коллекционное Издание)\Тараканы! - Ракеты Из России (Коллекционное Издание).wav

Peak level 97.5 %
Range quality 99.8 %
Test CRC 16DF23F4
Copy CRC 16DF23F4
Copy OK

No errors occurred

AccurateRip summary
Track 1 not present in database
Track 2 not present in database
Track 3 not present in database
Track 4 not present in database
Track 5 not present in database
Track 6 not present in database
Track 7 not present in database
Track 8 not present in database
Track 9 not present in database
Track 10 not present in database
Track 11 not present in database
Track 12 not present in database
Track 13 not present in database
Track 14 not present in database
Track 15 not present in database
Track 16 not present in database
None of the tracks are present in the AccurateRip database

End of status report
REM GENRE Punk-Rock 
REM DATE 2004
REM DISCID D4091410
REM COMMENT "ExactAudioCopy v0.99pb4"
PERFORMER "Тараканы!"
TITLE "Ракеты Из России (Коллекционное Издание)"
FILE "Тараканы! - Ракеты Из России (Коллекционное Издание).flac" WAVE
TRACK 01 AUDIO
TITLE "Громче!"
PERFORMER "Тараканы!"
FLAGS DCP
INDEX 01 00:00:00
TRACK 02 AUDIO
TITLE "Я Иду Искать"
PERFORMER "Тараканы!"
FLAGS DCP
INDEX 01 00:45:71
TRACK 03 AUDIO
TITLE "Улыбайся"
PERFORMER "Тараканы!"
FLAGS DCP
INDEX 01 02:23:22
TRACK 04 AUDIO
TITLE "Анестезия"
PERFORMER "Тараканы!"
FLAGS DCP
INDEX 01 03:56:71
TRACK 05 AUDIO
TITLE "Мистер Музыкальный Критик"
PERFORMER "Тараканы!"
FLAGS DCP
INDEX 01 07:10:56
TRACK 06 AUDIO
TITLE "Последняя Песня Об Этом"
PERFORMER "Тараканы!"
FLAGS DCP
INDEX 00 08:41:67
INDEX 01 08:43:67
TRACK 07 AUDIO
TITLE "З.Л.О."
PERFORMER "Тараканы!"
FLAGS DCP
INDEX 00 12:03:19
INDEX 01 12:06:09
TRACK 08 AUDIO
TITLE "Зубы И Когти"
PERFORMER "Тараканы!"
FLAGS DCP
INDEX 01 12:49:55
TRACK 09 AUDIO
TITLE "Ракеты Из России"
PERFORMER "Тараканы!"
FLAGS DCP
INDEX 00 16:13:41
INDEX 01 16:15:63
TRACK 10 AUDIO
TITLE "Там, Где Руины Превращаются В Нас"
PERFORMER "Тараканы!"
FLAGS DCP
INDEX 01 18:42:55
TRACK 11 AUDIO
TITLE "Д.О.Б.Р.О."
PERFORMER "Тараканы!"
FLAGS DCP
INDEX 00 22:05:19
INDEX 01 22:08:16
TRACK 12 AUDIO
TITLE "Маша, Скрипачка Из Король И Шут"
PERFORMER "Тараканы!"
FLAGS DCP
INDEX 01 22:45:40
TRACK 13 AUDIO
TITLE "Тишина - Это Смерть"
PERFORMER "Тараканы!"
FLAGS DCP
INDEX 00 25:40:59
INDEX 01 25:43:16
TRACK 14 AUDIO
TITLE "Плохие Девочки Идут За Сцену"
PERFORMER "Тараканы!"
FLAGS DCP
INDEX 01 29:21:25
TRACK 15 AUDIO
TITLE "Z.L.O. (deutchpunk version)"
PERFORMER "Тараканы!"
FLAGS DCP
INDEX 00 31:01:37
INDEX 01 31:05:02
TRACK 16 AUDIO
TITLE "Silence Is Death"
PERFORMER "Тараканы!"
FLAGS DCP
INDEX 00 31:48:72
INDEX 01 31:51:26
01. Тишина - Это Смерть (Original Version) (3:42)
02. Gonna Hunt You Down (1:42)
03. Мамы Молоденьких Дочек (1:52)
04. Моя Идеология (2:12)
05. Override Generation (2:55)
06. Она Одна (2:04)
07. Angry Fist Fuck You (3:12)
08. Home Boyz (2:25)
09. Who Killed The Monkey (2:29)
10. Poppin Rock Star (2:36)
11. Sometime (2:58)
Exact Audio Copy V0.99 prebeta 3 from 28. July 2007 

Отчёт EAC об извлечении, выполненном 24. апреля 2008, 22:07

Тараканы! & Scream Of The Presidents / Davay/Давай!

Дисковод: ASUS DRW-1814BLT Adapter: 2 ID: 0

Режим чтения : Достоверность
Использование точного потока : Да
Отключение кэша аудио : Да
Использование указателей C2 : Нет

Коррекция смещения при чтении : 6
Способность читать области Lead-in и Lead-out : Нет
Заполнение пропущенных сэмплов тишиной : Да
Удаление блоков с тишиной в начале и конце : Нет
При вычислениях CRC использовались нулевые сэмплы : Да
Интерфейс : Встроенный Win32-интерфейс для Win NT/2000

Выходной формат : Пользовательский кодировщик
Выбранный битрейт : 128 kBit/s
Качество : Высокий
Добавление ID3-тэга : Нет
Утилита сжатия : C:\Program Files\Flac\flac.exe
Дополнительные параметры : -T "artist=%a" -T "title=%t" -T "album=%g" -T "date=%y" -T "tracknumber=%n" -T "genre=%m" -5 %s

TOC извлечённого CD

Трек | Старт | Длительность | Начальный сектор | Конечный сектор
---------------------------------------------------------------------
1 | 0:00.00 | 3:41.45 | 0 | 16619
2 | 3:41.45 | 1:41.40 | 16620 | 24234
3 | 5:23.10 | 1:52.16 | 24235 | 32650
4 | 7:15.26 | 2:11.52 | 32651 | 42527
5 | 9:27.03 | 2:55.05 | 42528 | 55657
6 | 12:22.08 | 2:04.25 | 55658 | 64982
7 | 14:26.33 | 3:11.69 | 64983 | 79376
8 | 17:38.27 | 2:25.05 | 79377 | 90256
9 | 20:03.32 | 2:29.29 | 90257 | 101460
10 | 22:32.61 | 2:36.09 | 101461 | 113169
11 | 25:08.70 | 2:56.34 | 113170 | 126403
12 | 30:37.29 | 15:34.24 | 137804 | 207877

Характеристики диапазона извлечения и сообщения об ошибках

Выбранный диапазон

Имя файла J:\Музыка в Lossless формате\Тараканы!\2005 - Тараканы! & Scream Of The Presidents\Тараканы! & Scream Of The Presidents - Davay Давай!.wav

Пиковый уровень 98.8 %
Качество диапазона 100.0 %
CRC копии 940C4D8A
Копирование... OK

Ошибок не произошло

Конец отчёта
REM GENRE "Punk Rock" 
REM DATE 2005
REM DISCID 920AD30C
REM COMMENT "ExactAudioCopy v0.99pb3"
PERFORMER "Тараканы! & Scream Of The Presidents"
TITLE "Davay/Давай!"
FILE "Тараканы! & Scream Of The Presidents - Davay Давай!.flac" WAVE
TRACK 01 AUDIO
TITLE "Тишина - это смерть (Original version)"
PERFORMER "Тараканы! & Scream Of The Presidents"
INDEX 01 00:00:00
TRACK 02 AUDIO
TITLE "Gonna hunt you down"
PERFORMER "Тараканы! & Scream Of The Presidents"
INDEX 01 03:41:45
TRACK 03 AUDIO
TITLE "Мамы молоденьких дочек"
PERFORMER "Тараканы! & Scream Of The Presidents"
INDEX 01 05:23:10
TRACK 04 AUDIO
TITLE "Моя идеология"
PERFORMER "Тараканы! & Scream Of The Presidents"
INDEX 01 07:15:26
TRACK 05 AUDIO
TITLE "Override Generation"
PERFORMER "Тараканы! & Scream Of The Presidents"
INDEX 01 09:27:03
TRACK 06 AUDIO
TITLE "Она одна"
PERFORMER "Тараканы! & Scream Of The Presidents"
INDEX 01 12:22:08
TRACK 07 AUDIO
TITLE "Angry first fuck you"
PERFORMER "Тараканы! & Scream Of The Presidents"
INDEX 01 14:26:33
TRACK 08 AUDIO
TITLE "Home Boyz"
PERFORMER "Тараканы! & Scream Of The Presidents"
INDEX 01 17:38:27
TRACK 09 AUDIO
TITLE "Who Killed the Monkey"
PERFORMER "Тараканы! & Scream Of The Presidents"
INDEX 00 20:01:32
INDEX 01 20:03:32
TRACK 10 AUDIO
TITLE "Poppin rock star"
PERFORMER "Тараканы! & Scream Of The Presidents"
INDEX 00 22:30:61
INDEX 01 22:32:61
TRACK 11 AUDIO
TITLE "Sometime"
PERFORMER "Тараканы! & Scream Of The Presidents"
INDEX 01 25:08:70
01. Пиво На Вино (2:11)
02. Старый Новый День (1:38)
03. Когда Я Куплю Себе Пистолет (1:45)
04. Кончились Наркотики (1:55)
05. Улыбайся (Это Раздражает Всех) (2:07)
06. День Рождения (2:11)
07. Прочь Из Этих Мест (2:34)
08. Луна (2:03)
09. Выходной (2:28)
10. Мечта (1:41)
11. Причина Для Ненависти (2:08)
12. В Зеркалах Моей Надежды (4:08)
13. Если Ребят Объединить (14:10)
Exact Audio Copy V0.99 prebeta 3 from 28. July 2007 

Отчёт EAC об извлечении, выполненном 26. марта 2008, 21:25

Tarakany! & Distemper / Если парни объединятся

Дисковод: ASUS DRW-1814BLT Adapter: 2 ID: 0

Режим чтения : Достоверность
Использование точного потока : Да
Отключение кэша аудио : Да
Использование указателей C2 : Нет

Коррекция смещения при чтении : 6
Способность читать области Lead-in и Lead-out : Нет
Заполнение пропущенных сэмплов тишиной : Да
Удаление блоков с тишиной в начале и конце : Нет
При вычислениях CRC использовались нулевые сэмплы : Да
Интерфейс : Встроенный Win32-интерфейс для Win NT/2000

Выходной формат : Пользовательский кодировщик
Выбранный битрейт : 128 kBit/s
Качество : Высокий
Добавление ID3-тэга : Нет
Утилита сжатия : C:\Program Files\Flac\flac.exe
Дополнительные параметры : -T "artist=%a" -T "title=%t" -T "album=%g" -T "date=%y" -T "tracknumber=%n" -T "genre=%m" -5 %s

TOC извлечённого CD

Трек | Старт | Длительность | Начальный сектор | Конечный сектор
---------------------------------------------------------------------
1 | 0:00.00 | 2:11.04 | 0 | 9828
2 | 2:11.04 | 1:37.58 | 9829 | 17161
3 | 3:48.62 | 1:44.55 | 17162 | 25016
4 | 5:33.42 | 1:55.24 | 25017 | 33665
5 | 7:28.66 | 2:06.61 | 33666 | 43176
6 | 9:35.52 | 2:10.64 | 43177 | 52990
7 | 11:46.41 | 2:34.35 | 52991 | 64575
8 | 14:21.01 | 2:03.33 | 64576 | 73833
9 | 16:24.34 | 2:27.59 | 73834 | 84917
10 | 18:52.18 | 1:40.60 | 84918 | 92477
11 | 20:33.03 | 2:08.25 | 92478 | 102102
12 | 22:41.28 | 4:08.12 | 102103 | 120714
13 | 26:49.40 | 14:10.37 | 120715 | 184501

Характеристики диапазона извлечения и сообщения об ошибках

Выбранный диапазон

Имя файла J:\Музыка в Lossless формате\Тараканы!\2006 - Tarakany! & Distemper - Если парни объединятся\Tarakany! & Distemper - Если парни объединятся.wav

Пиковый уровень 98.8 %
Качество диапазона 100.0 %
CRC копии 64C32118
Копирование... OK

Ошибок не произошло

Конец отчёта
REM GENRE Punk 
REM DATE 2006
REM DISCID 96099C0D
REM COMMENT "ExactAudioCopy v0.99pb3"
PERFORMER "Tarakany! & Distemper"
TITLE "Если парни объединятся"
FILE "Tarakany! & Distemper - Если парни объединятся.flac" WAVE
TRACK 01 AUDIO
TITLE "Пиво на вино"
PERFORMER "Tarakany! & Distemper"
FLAGS DCP
INDEX 01 00:00:00
TRACK 02 AUDIO
TITLE "Старый новый день"
PERFORMER "Tarakany! & Distemper"
FLAGS DCP
INDEX 01 02:11:04
TRACK 03 AUDIO
TITLE "Когда я куплю себе пистолет"
PERFORMER "Tarakany! & Distemper"
FLAGS DCP
INDEX 01 03:48:62
TRACK 04 AUDIO
TITLE "Кончились наркотики"
PERFORMER "Tarakany! & Distemper"
FLAGS DCP
INDEX 01 05:33:42
TRACK 05 AUDIO
TITLE "Улыбайся (это раздражает всех)"
PERFORMER "Tarakany! & Distemper"
FLAGS DCP
INDEX 01 07:28:66
TRACK 06 AUDIO
TITLE "День рождения"
PERFORMER "Tarakany! & Distemper"
FLAGS DCP
INDEX 01 09:35:52
TRACK 07 AUDIO
TITLE "Прочь из этих мест"
PERFORMER "Tarakany! & Distemper"
FLAGS DCP
INDEX 01 11:46:41
TRACK 08 AUDIO
TITLE "Луна"
PERFORMER "Tarakany! & Distemper"
FLAGS DCP
INDEX 01 14:21:01
TRACK 09 AUDIO
TITLE "Выходной"
PERFORMER "Tarakany! & Distemper"
FLAGS DCP
INDEX 01 16:24:34
TRACK 10 AUDIO
TITLE "Мечта"
PERFORMER "Tarakany! & Distemper"
FLAGS DCP
INDEX 01 18:52:18
TRACK 11 AUDIO
TITLE "Причина для ненависти"
PERFORMER "Tarakany! & Distemper"
FLAGS DCP
INDEX 01 20:33:03
TRACK 12 AUDIO
TITLE "В зеркалах моей надежды"
PERFORMER "Tarakany! & Distemper"
FLAGS DCP
INDEX 01 22:41:28
TRACK 13 AUDIO
TITLE "Если ребят объединить"
PERFORMER "Tarakany! & Distemper"
FLAGS DCP
INDEX 01 26:49:40
01. Вечер Мокрых Маек (1:02)
02. Верните ХТС На Танцпол (2:44)
03. Диснейленд Закрыт (2:12)
04. Кто-то Из Нас Двоих (3:40)
05. Демоны Внутри Меня (3:02)
06. Я Тебя Найду (4:08)
07. Властелины Intro (0:35)
08. Властелины Вселенной (2:33)
09. Жир (2:11)
10. Позволь Мне Побыть Одному (3:49)
11. Отличные Парни (3:15)
12. В Печь! (2:29)
13. Не Дай Им Добраться До Нас (4:16)
14. Беги, Форрест (2:54)
15. 10.000.000 (3:50)
16. Спокойной Ночи, Детки (3:10)
17. Новая Кровь (1:53)
18. Не Дай Им Добраться До Нас (4:08)
Exact Audio Copy V0.99 prebeta 3 from 28. July 2007 

Отчёт EAC об извлечении, выполненном 16. августа 2008, 14:35

Тараканы! / Властелины Вселенной (Коллекционное Издание)

Дисковод: ASUS DRW-1814BLT Adapter: 0 ID: 0

Режим чтения : Достоверность
Использование точного потока : Да
Отключение кэша аудио : Да
Использование указателей C2 : Нет

Коррекция смещения при чтении : 6
Способность читать области Lead-in и Lead-out : Нет
Заполнение пропущенных сэмплов тишиной : Да
Удаление блоков с тишиной в начале и конце : Нет
При вычислениях CRC использовались нулевые сэмплы : Да
Интерфейс : Встроенный Win32-интерфейс для Win NT/2000

Выходной формат : Пользовательский кодировщик
Выбранный битрейт : 128 kBit/s
Качество : Высокий
Добавление ID3-тэга : Нет
Утилита сжатия : C:\Program Files\Flac\flac.exe
Дополнительные параметры : -T "artist=%a" -T "title=%t" -T "album=%g" -T "date=%y" -T "tracknumber=%n" -T "genre=%m" -5 %s

TOC извлечённого CD

Трек | Старт | Длительность | Начальный сектор | Конечный сектор
---------------------------------------------------------------------
1 | 0:00.00 | 1:01.61 | 0 | 4635
2 | 1:01.61 | 2:43.74 | 4636 | 16934
3 | 3:45.60 | 2:11.65 | 16935 | 26824
4 | 5:57.50 | 3:40.37 | 26825 | 43361
5 | 9:38.12 | 3:01.51 | 43362 | 56987
6 | 12:39.63 | 4:07.66 | 56988 | 75578
7 | 16:47.54 | 0:35.15 | 75579 | 78218
8 | 17:22.69 | 2:33.16 | 78219 | 89709
9 | 19:56.10 | 2:10.65 | 89710 | 99524
10 | 22:07.00 | 3:48.70 | 99525 | 116694
11 | 25:55.70 | 3:14.45 | 116695 | 131289
12 | 29:10.40 | 2:28.63 | 131290 | 142452
13 | 31:39.28 | 4:15.49 | 142453 | 161626
14 | 35:55.02 | 2:54.05 | 161627 | 174681
15 | 38:49.07 | 3:50.36 | 174682 | 191967
16 | 42:39.43 | 3:12.14 | 191968 | 206381
17 | 45:51.57 | 1:53.30 | 206382 | 214886
18 | 47:45.12 | 4:08.40 | 214887 | 233526
19 | 54:25.52 | 8:58.19 | 244927 | 285295

Характеристики диапазона извлечения и сообщения об ошибках

Выбранный диапазон

Имя файла J:\Музыка в Lossless формате\Тараканы!\2006 - Властелины Вселенной (Коллекционное Издание)\Тараканы! - Властелины Вселенной (Коллекционное Издание).wav

Пиковый уровень 100.0 %
Качество диапазона 100.0 %
CRC копии 6D88DDE3
Копирование... OK

Ошибок не произошло

Конец отчёта
REM GENRE Punk Rock 
REM DATE 2006
REM DISCID 040EDB13
REM COMMENT ExactAudioCopy v0.99pb3
PERFORMER "Тараканы!"
TITLE "Властелины Вселенной (Коллекционное Издание)"
FILE "Тараканы! - Властелины Вселенной (Коллекционное Издание).flac" WAVE
TRACK 01 AUDIO
TITLE "Вечер Мокрых Маек"
FLAGS DCP
INDEX 01 00:00:00
TRACK 02 AUDIO
TITLE "Верните XTC На Танцпол"
FLAGS DCP
INDEX 01 01:01:61
TRACK 03 AUDIO
TITLE "Диснейлэнд Закрыт"
FLAGS DCP
INDEX 01 03:45:60
TRACK 04 AUDIO
TITLE "Кто-То Из Нас Двоих"
FLAGS DCP
INDEX 01 05:57:50
TRACK 05 AUDIO
TITLE "Демоны Внутри Меня"
FLAGS DCP
INDEX 00 09:36:12
INDEX 01 09:38:12
TRACK 06 AUDIO
TITLE "Я Тебя Найду"
FLAGS DCP
INDEX 00 12:37:63
INDEX 01 12:39:63
TRACK 07 AUDIO
TITLE "Властелины Intro"
FLAGS DCP
INDEX 00 16:45:54
INDEX 01 16:47:54
TRACK 08 AUDIO
TITLE "Властелины Вселенной"
FLAGS DCP
INDEX 01 17:22:69
TRACK 09 AUDIO
TITLE "Жир"
FLAGS DCP
INDEX 01 19:56:10
TRACK 10 AUDIO
TITLE "Позволь Мне Побыть Одному"
FLAGS DCP
INDEX 00 22:05:00
INDEX 01 22:07:00
TRACK 11 AUDIO
TITLE "Отличные Парни "
FLAGS DCP
INDEX 00 25:53:70
INDEX 01 25:55:70
TRACK 12 AUDIO
TITLE "В Печь!"
FLAGS DCP
INDEX 01 29:10:40
TRACK 13 AUDIO
TITLE "Не Дай Им Добраться До Нас"
FLAGS DCP
INDEX 00 31:37:28
INDEX 01 31:39:28
TRACK 14 AUDIO
TITLE "Беги, Форрест"
FLAGS DCP
INDEX 00 35:53:02
INDEX 01 35:55:02
TRACK 15 AUDIO
TITLE "10.000.000"
FLAGS DCP
INDEX 01 38:49:07
TRACK 16 AUDIO
TITLE "Спокойной Ночи, детки"
FLAGS DCP
INDEX 00 42:37:43
INDEX 01 42:39:43
TRACK 17 AUDIO
TITLE "Новая Кровь"
FLAGS DCP
INDEX 00 45:49:57
INDEX 01 45:51:57
TRACK 18 AUDIO
TITLE "Не Дай Им Добраться До нас (feat. Евгений Хавтан)"
FLAGS DCP
INDEX 00 47:43:12
INDEX 01 47:45:12
01. Я смотрю на них (2:57)
02. Крыса (3:26)
03. Когда я куплю себе пистолет (3:30)
04. Позволь мне побыть одному (4:17)
05. Мне плохо с утра (2:36)
06. Маша, скрипачка из Король и Шут (3:19)
07. Русский рок (5:26)
08. Властелины вселенной (5:09)
09. Поезд в сторону арбатской (2:51)
10. Два по сто (3:09)
11. Улица свободы (3:52)
Exact Audio Copy V0.99 prebeta 3 from 28. July 2007 

EAC extraction logfile from 19. April 2009, 18:55

Тараканы! / Unplugged Unlimited

Used drive : ASUS DRW-1814BLT Adapter: 0 ID: 0

Read mode : Secure
Utilize accurate stream : Yes
Defeat audio cache : Yes
Make use of C2 pointers : No

Read offset correction : 6
Overread into Lead-In and Lead-Out : No
Fill up missing offset samples with silence : Yes
Delete leading and trailing silent blocks : No
Null samples used in CRC calculations : Yes
Used interface : Native Win32 interface for Win NT & 2000

Used output format : User Defined Encoder
Selected bitrate : 128 kBit/s
Quality : High
Add ID3 tag : No
Command line compressor : C:\Program Files\Flac\flac.exe
Additional command line options : -T "artist=%a" -T "title=%t" -T "album=%g" -T "date=%y" -T "tracknumber=%n" -T "genre=%m" -8 %s

TOC of the extracted CD

Track | Start | Length | Start sector | End sector
---------------------------------------------------------
1 | 0:00.00 | 2:59.12 | 0 | 13436
2 | 2:59.12 | 3:27.37 | 13437 | 28998
3 | 6:26.49 | 3:31.49 | 28999 | 44872
4 | 9:58.23 | 4:19.29 | 44873 | 64326
5 | 14:17.52 | 2:37.44 | 64327 | 76145
6 | 16:55.21 | 3:20.40 | 76146 | 91185
7 | 20:15.61 | 5:28.25 | 91186 | 115810
8 | 25:44.11 | 5:11.32 | 115811 | 139167
9 | 30:55.43 | 2:53.26 | 139168 | 152168
10 | 33:48.69 | 3:10.51 | 152169 | 166469
11 | 36:59.45 | 3:52.20 | 166470 | 183889

Range status and errors

Selected range

Filename D:\Музыка в Lossless формате\Тараканы!\2008 - Unplugged Unlimited\Тараканы! - Unplugged Unlimited.wav

Peak level 98.8 %
Range quality 100.0 %
Test CRC 3B1FA999
Copy CRC 3B1FA999
Copy OK

No errors occurred

End of status report
REM GENRE Misc 
REM DATE 2008
REM DISCID 8009930B
REM COMMENT "ExactAudioCopy v0.99pb3"
PERFORMER "Тараканы!"
TITLE "Unplugged Unlimited"
FILE "Тараканы! - Unplugged Unlimited.flac" WAVE
TRACK 01 AUDIO
TITLE "Я Смотрю На Них"
PERFORMER "Тараканы!"
FLAGS DCP
INDEX 01 00:00:00
TRACK 02 AUDIO
TITLE "Крыса"
PERFORMER "Тараканы!"
FLAGS DCP
INDEX 01 02:59:12
TRACK 03 AUDIO
TITLE "Когда Я Куплю Себе Пистолет"
PERFORMER "Тараканы!"
FLAGS DCP
INDEX 01 06:26:49
TRACK 04 AUDIO
TITLE "Позволь Мне Побыть Одному"
PERFORMER "Тараканы!"
FLAGS DCP
INDEX 01 09:58:23
TRACK 05 AUDIO
TITLE "Мне Плохо С Утра"
PERFORMER "Тараканы!"
FLAGS DCP
INDEX 01 14:17:52
TRACK 06 AUDIO
TITLE "Маша, Скрипачка Из Король И Шут"
PERFORMER "Тараканы!"
FLAGS DCP
INDEX 01 16:55:21
TRACK 07 AUDIO
TITLE "Русский Рок"
PERFORMER "Тараканы!"
FLAGS DCP
INDEX 01 20:15:61
TRACK 08 AUDIO
TITLE "Властелины Вселенной"
PERFORMER "Тараканы!"
FLAGS DCP
INDEX 01 25:44:11
TRACK 09 AUDIO
TITLE "Поезд В Сторону Арбатской"
PERFORMER "Тараканы!"
FLAGS DCP
INDEX 01 30:55:43
TRACK 10 AUDIO
TITLE "Два По Сто"
PERFORMER "Тараканы!"
FLAGS DCP
INDEX 01 33:48:69
TRACK 11 AUDIO
TITLE "Улица Свободы"
PERFORMER "Тараканы!"
FLAGS DCP
INDEX 01 36:59:45
01. Выход в город (3:39)
02. Новые звёзды (3:03)
03. Много долларов и мало любви (2:43)
04. То, что не убивает тебя (4:26)
05. После первого выстрела (2:37)
06. Мужчины с электрогитарами (1:53)
07. Законы джунглей (1:39)
08. Алмазы и истребители (3:29)
08. Слушай, Сука (2:28)
09. Всё это уже было в Симпсонах (1:51)
10. Просто сделать это (3:11)
11. Худшие друзья девушек (3:06)
12. Мы снова здесь (2:53)
13. Живи Сегодня (2:04)
14. Настоящие ценности (2:27)
15. Вечно с Тобой (4:20)
Exact Audio Copy V0.99 prebeta 5 from 4. May 2009 

EAC extraction logfile from 7. November 2009, 16:28

Тараканы! / Бой До Дыр (Коллекционное Издание)

Used drive : ASUS DRW-1814BLT Adapter: 0 ID: 0

Read mode : Secure
Utilize accurate stream : Yes
Defeat audio cache : Yes
Make use of C2 pointers : No

Read offset correction : 6
Overread into Lead-In and Lead-Out : No
Fill up missing offset samples with silence : Yes
Delete leading and trailing silent blocks : No
Null samples used in CRC calculations : Yes
Used interface : Native Win32 interface for Win NT & 2000

Used output format : User Defined Encoder
Selected bitrate : 32 kBit/s
Quality : High
Add ID3 tag : No
Command line compressor : C:\Program Files\FLAC\flac.exe
Additional command line options : -8 -V %s

TOC of the extracted CD

Track | Start | Length | Start sector | End sector
---------------------------------------------------------
1 | 0:00.00 | 3:38.48 | 0 | 16397
2 | 3:38.48 | 3:03.29 | 16398 | 30151
3 | 6:42.02 | 2:42.55 | 30152 | 42356
4 | 9:24.57 | 4:25.38 | 42357 | 62269
5 | 13:50.20 | 2:36.71 | 62270 | 74040
6 | 16:27.16 | 1:52.62 | 74041 | 82502
7 | 18:20.03 | 1:38.46 | 82503 | 89898
8 | 19:58.49 | 2:28.10 | 89899 | 101008
9 | 22:26.59 | 3:29.21 | 101009 | 116704
10 | 25:56.05 | 1:51.15 | 116705 | 125044
11 | 27:47.20 | 3:11.16 | 125045 | 139385
12 | 30:58.36 | 3:06.27 | 139386 | 153362
13 | 34:04.63 | 2:04.18 | 153363 | 162680
14 | 36:09.06 | 2:53.03 | 162681 | 175658

Range status and errors

Selected range

Filename D:\Музыка в Lossless формате\Тараканы!\2009 - Бой До Дыр (Коллекционное Издание)\Тараканы! - Бой До Дыр (Коллекционное Издание).wav

Peak level 100.0 %
Range quality 100.0 %
Test CRC 874A80BC
Copy CRC 874A80BC
Copy OK

No errors occurred

AccurateRip summary
Track 1 not present in database
Track 2 not present in database
Track 3 not present in database
Track 4 not present in database
Track 5 not present in database
Track 6 not present in database
Track 7 not present in database
Track 8 not present in database
Track 9 not present in database
Track 10 not present in database
Track 11 not present in database
Track 12 not present in database
Track 13 not present in database
Track 14 not present in database
None of the tracks are present in the AccurateRip database

End of status report
REM GENRE "Punk Rock" 
REM DATE 2009
REM DISCID AC09260E
REM COMMENT "ExactAudioCopy v0.99pb5"
PERFORMER "Тараканы!"
TITLE "Бой До Дыр (Коллекционное Издание)"
FILE "Тараканы! - Бой До Дыр (Коллекционное Издание).flac" WAVE
TRACK 01 AUDIO
TITLE "Выход В Город"
PERFORMER "Тараканы!"
FLAGS DCP
INDEX 01 00:00:00
TRACK 02 AUDIO
TITLE "Новые Звёзды"
PERFORMER "Тараканы!"
FLAGS DCP
INDEX 01 03:38:48
TRACK 03 AUDIO
TITLE "Много Долларов И Мало Любви"
PERFORMER "Тараканы!"
FLAGS DCP
INDEX 01 06:42:02
TRACK 04 AUDIO
TITLE "То, Что Не Убивает Тебя"
PERFORMER "Тараканы!"
FLAGS DCP
INDEX 01 09:24:57
TRACK 05 AUDIO
TITLE "После Первого Выстрела"
PERFORMER "Тараканы!"
FLAGS DCP
INDEX 01 13:50:20
TRACK 06 AUDIO
TITLE "Мужчины С Электрогитарами"
PERFORMER "Тараканы!"
FLAGS DCP
INDEX 01 16:27:16
TRACK 07 AUDIO
TITLE "Законы Джунглей"
PERFORMER "Тараканы!"
FLAGS DCP
INDEX 01 18:20:03
TRACK 08 AUDIO
TITLE "Слушай, Сука"
PERFORMER "Тараканы!"
FLAGS DCP
INDEX 01 19:58:49
TRACK 09 AUDIO
TITLE "Алмазы И Истребители"
PERFORMER "Тараканы!"
FLAGS DCP
INDEX 01 22:26:59
TRACK 10 AUDIO
TITLE "Всё Это Уже Было В Симпсонах"
PERFORMER "Тараканы!"
FLAGS DCP
INDEX 01 25:56:05
TRACK 11 AUDIO
TITLE "Просто Сделать Это"
PERFORMER "Тараканы!"
FLAGS DCP
INDEX 01 27:47:20
TRACK 12 AUDIO
TITLE "Худшие Друзья Девушек"
PERFORMER "Тараканы!"
FLAGS DCP
INDEX 01 30:58:36
TRACK 13 AUDIO
TITLE "Живи Сегодня"
PERFORMER "Тараканы!"
FLAGS DCP
INDEX 01 34:04:63
TRACK 14 AUDIO
TITLE "Мы Снова Здесь"
PERFORMER "Тараканы!"
FLAGS DCP
INDEX 01 36:09:06
01. Корона рушит мозг (3:16)
02. Новости этой минуты (3:56)
03. Пираты старой школы (3:33)
04. Сколько денег у Бога (2:56)
05. Унылое говно (2:10)
Exact Audio Copy V0.99 prebeta 4 from 23. January 2008 

Отчёт EAC об извлечении, выполненном 24. января 2009, 1:42

Тараканы! / Сколько Денег У Бога

Дисковод: ASUS DRW-1814BLT Adapter: 0 ID: 0

Режим чтения : Достоверность
Использование точного потока : Да
Отключение кэша аудио : Да
Использование указателей C2 : Нет

Коррекция смещения при чтении : 6
Способность читать области Lead-in и Lead-out : Нет
Заполнение пропущенных сэмплов тишиной : Да
Удаление блоков с тишиной в начале и конце : Нет
При вычислениях CRC использовались нулевые сэмплы : Да
Интерфейс : Встроенный Win32-интерфейс для Win NT/2000

Выходной формат : Пользовательский кодировщик
Выбранный битрейт : 128 kBit/s
Качество : Высокий
Добавление ID3-тэга : Нет
Утилита сжатия : C:\Program Files\Flac\flac.exe
Дополнительные параметры : -T "artist=%a" -T "title=%t" -T "album=%g" -T "date=%y" -T "tracknumber=%n" -T "genre=%m" -6 %s

TOC извлечённого CD

Трек | Старт | Длительность | Начальный сектор | Конечный сектор
---------------------------------------------------------------------
1 | 0:00.00 | 19:53.03 | 0 | 89477
2 | 19:53.03 | 2:57.40 | 89478 | 102792
3 | 22:50.43 | 3:17.38 | 102793 | 117605
4 | 26:08.06 | 3:34.74 | 117606 | 133729
5 | 29:43.05 | 3:57.36 | 133730 | 151540
6 | 33:40.41 | 2:09.42 | 151541 | 161257

Характеристики диапазона извлечения и сообщения об ошибках

Выбранный диапазон

Имя файла J:\Музыка в Lossless формате\Тараканы!\2009 - Сколько Денег У Бога\Тараканы! - Сколько Денег У Бога.wav

Пиковый уровень 98.8 %
Качество диапазона 99.4 %
CRC теста D26F2CD6
CRC копии D26F2CD6
Копирование... OK

Ошибок не произошло

Конец отчёта
REM GENRE Punk-Rock 
REM DATE 2009
REM DISCID 47086606
REM COMMENT By XeN0M0RpH/ExactAudioCopy v0.99pb4
PERFORMER "Тараканы!"
TITLE "Сколько Денег У Бога"
FILE "Тараканы! - Сколько Денег У Бога.flac" WAVE
TRACK 01 AUDIO
TITLE "Сколько денег у Бога?"
FLAGS DCP
INDEX 01 00:00:00
TRACK 02 AUDIO
TITLE "Корона рушит мозг"
FLAGS DCP
INDEX 00 02:55:40
INDEX 01 02:57:40
TRACK 03 AUDIO
TITLE "Пираты старой школы (такие парни как мы)"
FLAGS DCP
INDEX 01 06:15:03
TRACK 04 AUDIO
TITLE "Новости этой минуты"
FLAGS DCP
INDEX 00 09:48:02
INDEX 01 09:50:02
TRACK 05 AUDIO
TITLE "Унылое говно"
FLAGS DCP
INDEX 00 13:45:38
INDEX 01 13:47:38
01. Плюю я (3:00)
02. Нормальные ребята (2:57)
03. 2 по 100 (4:08)
04. Поезд в сторону Арбатской (3:18)
05. Кто же теперь будет спать со мной (3:51)
AUDIOCHECKER v1.2 - by Dester - opdester@freemail.hu 
~~~~~~~~~~~~~~~~~

1 -===- L:\ -= MussiC =-\lossless\НАШЕ\Альтернатива\Кирпичи\2010 - Сплит с Тараканы!\01. Плюю я.flac
Extracted successfully
Conclusion: This track looks like CDDA with probability 99%

2 -===- L:\ -= MussiC =-\lossless\НАШЕ\Альтернатива\Кирпичи\2010 - Сплит с Тараканы!\02. Нормальные ребята.flac
Extracted successfully
Conclusion: This track looks like CDDA with probability 100%

3 -===- L:\ -= MussiC =-\lossless\НАШЕ\Альтернатива\Кирпичи\2010 - Сплит с Тараканы!\04. 2 по 100.flac
Extracted successfully
Conclusion: This track looks like CDDA with probability 100%

4 -===- L:\ -= MussiC =-\lossless\НАШЕ\Альтернатива\Кирпичи\2010 - Сплит с Тараканы!\05. Поезд в сторону Арбатской.flac
Extracted successfully
Conclusion: This track looks like CDDA with probability 100%

5 -===- L:\ -= MussiC =-\lossless\НАШЕ\Альтернатива\Кирпичи\2010 - Сплит с Тараканы!\06. Кто же теперь будет спать со мной.flac
Extracted successfully
Conclusion: This track looks like CDDA with probability 99%

6 -===- L:\ -= MussiC =-\lossless\НАШЕ\Альтернатива\Кирпичи\2010 - Сплит с Тараканы!\07. Руский рок.flac
Extracted successfully
Conclusion: This track looks like CDDA with probability 100%
01. В день, когда я сдамся (2:42)
02. Дети внезапной свободы (2:52)
03. Крысиные гонки (3:35)
04. Собачье сердце (3:50)
Exact Audio Copy V1.0 beta 1 from 15. November 2010 

EAC extraction logfile from 8. March 2011, 3:28

Тараканы! / Собачье Сердце

Used drive : ASUS DRW-1814BLT Adapter: 0 ID: 0

Read mode : Secure
Utilize accurate stream : Yes
Defeat audio cache : Yes
Make use of C2 pointers : No

Read offset correction : 6
Overread into Lead-In and Lead-Out : No
Fill up missing offset samples with silence : Yes
Delete leading and trailing silent blocks : No
Null samples used in CRC calculations : Yes
Used interface : Native Win32 interface for Win NT & 2000

Used output format : User Defined Encoder
Selected bitrate : 128 kBit/s
Quality : High
Add ID3 tag : No
Command line compressor : C:\Program Files\Exact Audio Copy\Flac\flac.exe
Additional command line options : -8 -V -T "ARTIST=%a" -T "TITLE=%t" -T "ALBUM=%g" -T "DATE=%y" -T "TRACKNUMBER=%n" -T "GENRE=%m" -T "COMMENT=EAC FLAC -8 / By xen0m0rph" %s

TOC of the extracted CD

Track | Start | Length | Start sector | End sector
---------------------------------------------------------
1 | 0:00.00 | 2:43.50 | 0 | 12274
2 | 2:43.50 | 2:53.56 | 12275 | 25305
3 | 5:37.31 | 3:37.03 | 25306 | 41583
4 | 9:14.34 | 3:52.13 | 41584 | 58996

Range status and errors

Selected range

Filename D:\Music\Lossless\Тараканы!\2010 - Собачье Сердце\Тараканы! - Собачье Сердце.wav

Peak level 99.8 %
Extraction speed 1.7 X
Range quality 100.0 %
Test CRC ACB5E440
Copy CRC ACB5E440
Copy OK

No errors occurred

AccurateRip summary
Track 1 not present in database
Track 2 not present in database
Track 3 not present in database
Track 4 not present in database
None of the tracks are present in the AccurateRip database

End of status report

==== Log checksum 378C7E69E9BB9076AADE0751782ACA5BDB7E0AD2E3953551A93B849B5CADEED7 ====
REM GENRE Punk Rock 
REM DATE 2010
REM DISCID 2D031204
REM COMMENT ExactAudioCopy v1.0b1
PERFORMER "Тараканы!"
TITLE "Собачье Сердце"
FILE "Тараканы! - Собачье Сердце.flac" WAVE
TRACK 01 AUDIO
TITLE "В День Когда Я Сдамся"
INDEX 01 00:00:00
TRACK 02 AUDIO
TITLE "Дети Внезапной Свободы"
INDEX 00 02:41:50
INDEX 01 02:43:50
TRACK 03 AUDIO
TITLE "Крысиные Гонки"
INDEX 00 05:35:31
INDEX 01 05:37:31
TRACK 04 AUDIO
TITLE "Собачье Сердце"
INDEX 00 09:12:34
INDEX 01 09:14:34
01. Миру-мир (2:29)
02. Мешки с костями (2:42)
03. Бог и полиция (feat. Anti-Flag) (2:52)
04. 5 слов (feat. Лусинэ Геворкян) (4:05)
05. Плохие танцоры (feat. Rodrigo Gonzalez) (3:37)
06. Мусор (3:31)
07. Шоу с переодеваниями (2:35)
08. Без страха и упрека (3:38)
09. Пусть говорят (2:42)
Exact Audio Copy V1.0 beta 3 from 29. August 2011 

Отчёт EAC об извлечении, выполненном 6. апреля 2013, 0:54

Тараканы / MaximumHappy I

Дисковод: ATAPI iHAS524 B Adapter: 1 ID: 0

Режим чтения : Достоверность
Использование точного потока : Да
Отключение кэша аудио : Да
Использование указателей C2 : Нет

Коррекция смещения при чтении : 6
Способность читать области Lead-in и Lead-out : Нет
Заполнение пропущенных сэмплов тишиной : Да
Удаление блоков с тишиной в начале и конце : Нет
При вычислениях CRC использовались нулевые сэмплы : Да
Интерфейс : Установленный внешний ASPI-интерфейс

Выходной формат : Пользовательский кодировщик
Выбранный битрейт : 128 kBit/s
Качество : Высокий
Добавление ID3-тега : Нет
Утилита сжатия : C:\Program Files\Exact Audio Copy\Flac\flac.exe
Дополнительные параметры : -V -8 -T "Date=%year%" -T "Genre=%genre%" %source%

TOC извлечённого CD

Трек | Старт | Длительность | Начальный сектор | Конечный сектор
---------------------------------------------------------------------
1 | 0:00.00 | 2:29.00 | 0 | 11174
2 | 2:29.00 | 2:42.00 | 11175 | 23324
3 | 5:11.00 | 2:51.69 | 23325 | 36218
4 | 8:02.69 | 4:05.27 | 36219 | 54620
5 | 12:08.21 | 3:36.54 | 54621 | 70874
6 | 15:45.00 | 3:31.37 | 70875 | 86736
7 | 19:16.37 | 2:35.09 | 86737 | 98370
8 | 21:51.46 | 3:38.00 | 98371 | 114720
9 | 25:29.46 | 2:42.00 | 114721 | 126870
10 | 30:43.46 | 15:53.22 | 138271 | 209767

Характеристики диапазона извлечения и сообщения об ошибках

Выбранный диапазон

Имя файла C:\Documents and Settings\Александр\Мои документы\Моя музыка\Exact Audio Copy\Тараканы! - MaximumHappy I (2013).wav

Пиковый уровень 100.0 %
Скорость извлечения 2.6 X
Качество диапазона 100.0 %
CRC теста E33B8824
CRC копии E33B8824
Копирование... OK

Ошибок не произошло

AccurateRip: сводка
Трек 1 отсутствует в базе данных
Трек 2 отсутствует в базе данных
Трек 3 отсутствует в базе данных
Трек 4 отсутствует в базе данных
Трек 5 отсутствует в базе данных
Трек 6 отсутствует в базе данных
Трек 7 отсутствует в базе данных
Трек 8 отсутствует в базе данных
Трек 9 отсутствует в базе данных
Ни одного трека нет в базе AccurateRip

Конец отчёта

==== Контрольная сумма отчёта 99DC31669F3E8527FDC7F684333CDB774CCA4F7FF0370C205DC24CAC988E2139 ====
REM GENRE "Punk Rock" 
REM DATE 2013
REM DISCID 710AEC0A
REM COMMENT "ExactAudioCopy v1.0b3"
PERFORMER "Тараканы!"
TITLE "MaximumHappy I"
FILE "Тараканы! - MaximumHappy I (2013).flac" WAVE
TRACK 01 AUDIO
TITLE "Миру-мир"
PERFORMER "Тараканы!"
INDEX 01 00:00:00
TRACK 02 AUDIO
TITLE "Мешки с костями"
PERFORMER "Тараканы!"
INDEX 01 02:29:00
TRACK 03 AUDIO
TITLE "Бог и полиция (feat. Anti-Flag)"
PERFORMER "Тараканы!"
INDEX 01 05:11:00
TRACK 04 AUDIO
TITLE "5 слов (feat. Лусинэ Геворкян)"
PERFORMER "Тараканы!"
INDEX 01 08:02:69
TRACK 05 AUDIO
TITLE "Плохие танцоры (feat. Rodrigo Gonzalez)"
PERFORMER "Тараканы!"
INDEX 01 12:08:21
TRACK 06 AUDIO
TITLE "Мусор"
PERFORMER "Тараканы!"
INDEX 01 15:45:00
TRACK 07 AUDIO
TITLE "Шоу с переодеваниями"
PERFORMER "Тараканы!"
INDEX 01 19:16:37
TRACK 08 AUDIO
TITLE "Без страха и упрека"
PERFORMER "Тараканы!"
INDEX 01 21:51:46
TRACK 09 AUDIO
TITLE "Пусть говорят"
PERFORMER "Тараканы!"
INDEX 01 25:29:46
01. Я-это я! (2:27)
02. Рыжий и длинный (3:16)
03. Потеря сознания (3:09)
04. Пойдём на улицу! (3:01)
05. Разжигай костры (3:09)
06. Самый счастливый человек на Земле (4:30)
07. Я выпускаю себя на свободу (2:56)
08. Speak Russian or die! (2:18)
09. Любовь со 101 взгляда (3:24)
10. Рыжий и длинный (3:16)
AUDIOCHECKER v2.0 beta (build 457) - by Dester - opdester@freemail.hu 
~~~~~~~~~~~~~~~~~~~~~~~~~~~~~~~~~~
-=== DO NOT EDIT THIS FILE! ===-

Path: ...\Тараканы! - MaximumHappy II (2013) FLAC

01 -=- 01. Я-это я!.flac -=- CDDA (100%)
02 -=- 02. Рыжий и длинный (feat. Frank Turner).flac -=- CDDA (100%)
03 -=- 03. Потеря сознания.flac -=- CDDA (99%)
04 -=- 04. Пойдём на улицу!.flac -=- CDDA (100%)
05 -=- 05. Разжигай костры.flac -=- CDDA (100%)
06 -=- 06. Самый счастливый человек на Земле (feat. Anacondaz).flac -=- CDDA (100%)
07 -=- 07. Я выпускаю себя на свободу.flac -=- CDDA (100%)
08 -=- 08. Speak Russian or die!.flac -=- CDDA (100%)
09 -=- 09. Любовь со 101 взгляда.flac -=- CDDA (100%)
10 -=- 10. Рыжий и длинный.flac -=- CDDA (100%)

Summary 99,90% CDDA

224939316
-----------------------------------------------------------

Started at: воскресенье, 01. 09. 2013. - 22:47.27
10 files found

01 -===- D:\торренты\Тараканы! - MaximumHappy II (2013) FLAC\01. Я-это я!.flac
Extracted successfully
Conclusion: this track is CDDA with probability 100%
Tempfile successfully deleted.

02 -===- D:\торренты\Тараканы! - MaximumHappy II (2013) FLAC\02. Рыжий и длинный (feat. Frank Turner).flac
Extracted successfully
Conclusion: this track is CDDA with probability 100%
Tempfile successfully deleted.

03 -===- D:\торренты\Тараканы! - MaximumHappy II (2013) FLAC\03. Потеря сознания.flac
Extracted successfully
Conclusion: this track is CDDA with probability 99%
Tempfile successfully deleted.

04 -===- D:\торренты\Тараканы! - MaximumHappy II (2013) FLAC\04. Пойдём на улицу!.flac
Extracted successfully
Conclusion: this track is CDDA with probability 100%
Tempfile successfully deleted.

05 -===- D:\торренты\Тараканы! - MaximumHappy II (2013) FLAC\05. Разжигай костры.flac
Extracted successfully
Conclusion: this track is CDDA with probability 100%
Tempfile successfully deleted.

06 -===- D:\торренты\Тараканы! - MaximumHappy II (2013) FLAC\06. Самый счастливый человек на Земле (feat. Anacondaz).flac
Extracted successfully
Conclusion: this track is CDDA with probability 100%
Tempfile successfully deleted.

07 -===- D:\торренты\Тараканы! - MaximumHappy II (2013) FLAC\07. Я выпускаю себя на свободу.flac
Extracted successfully
Conclusion: this track is CDDA with probability 100%
Tempfile successfully deleted.

08 -===- D:\торренты\Тараканы! - MaximumHappy II (2013) FLAC\08. Speak Russian or die!.flac
Extracted successfully
Conclusion: this track is CDDA with probability 100%
Tempfile successfully deleted.

09 -===- D:\торренты\Тараканы! - MaximumHappy II (2013) FLAC\09. Любовь со 101 взгляда.flac
Extracted successfully
Conclusion: this track is CDDA with probability 100%
Tempfile successfully deleted.

10 -===- D:\торренты\Тараканы! - MaximumHappy II (2013) FLAC\10. Рыжий и длинный.flac
Extracted successfully
Conclusion: this track is CDDA with probability 100%
Tempfile successfully deleted.

Finished at: воскресенье, 01. 09. 2013. - 22:50.59 (operation time: 0:03.32)
info [Профиль]  [ЛС] 

TheMrMafiozi

Пол: Пол:Муж

Стаж: 6 лет 9 месяцев

Сообщений: 859

СССР
Рейтинг

post 19-Фев-2012 23:09 (спустя 10 дней) [-]0[+]

[Цитировать] 

Timа
Так тут же к каждому альбому есть и лог и файл куе, так добавьте их в оформление, а лог аудиочекера можете убрать

_________________
観自在菩薩行深般若波羅蜜多時、照見五蘊皆空、度一切苦厄。舎利子
も自由にお使いく
言語の科
info [Профиль]  [ЛС] 

The Royal

Пол: Пол:Муж

Стаж: 6 лет 11 месяцев

Сообщений: 652

Россия
Рейтинг

post 20-Фев-2012 11:47 (спустя 12 часов) [-]0[+]

[Цитировать] 

TheMrMafiozi, убрал везде, кроме сплита с Кирпичами, ибо там нет куе и лога
info [Профиль]  [ЛС] 

TheMrMafiozi

Пол: Пол:Муж

Стаж: 6 лет 9 месяцев

Сообщений: 859

СССР
Рейтинг

post 20-Фев-2012 16:59 (спустя 5 часов) [-]0[+]

[Цитировать] 

ок

_________________
観自在菩薩行深般若波羅蜜多時、照見五蘊皆空、度一切苦厄。舎利子
も自由にお使いく
言語の科
info [Профиль]  [ЛС] 

The Royal

Пол: Пол:Муж

Стаж: 6 лет 11 месяцев

Сообщений: 652

Россия
Рейтинг

post 09-Апр-2013 17:09 (спустя 1 год 1 месяц) [-]0[+]

[Цитировать] 

Добавил 2013 - MaximumHappy I, пока без сканов. По возможности добавлю в раздачу.
info [Профиль]  [ЛС] 

The Royal

Пол: Пол:Муж

Стаж: 6 лет 11 месяцев

Сообщений: 652

Россия
Рейтинг

post 08-Сен-2013 23:24 (спустя 4 месяца 29 дней) [-]0[+]

[Цитировать] 

Добавил 2013 - MaximumHappy II
info [Профиль]  [ЛС] 
Показать сообщения:    
Ответить на тему

Текущее время: 08-Дек 13:58

Часовой пояс: GMT + 4



Вы не можете начинать темы
Вы не можете отвечать на сообщения
Вы не можете редактировать свои сообщения
Вы не можете удалять свои сообщения
Вы не можете голосовать в опросах
Вы не можете прикреплять файлы к сообщениям
Вы не можете скачивать файлы