Ошибка

(Melodic death metal, Euro-trance) Blood Stain Child - Дискография - 2003 - 2011, FLAC, (tracks+.cue\image+.cue), lossless

Ответить на тему
 
Автор Сообщение

VlaDai

Пол: Пол:Муж

Стаж: 5 лет 5 месяцев

Сообщений: 1051

Россия
Рейтинг

post 22-Янв-2012 01:33 0[+]

[Цитировать] 


pic="http://s002.youpic.su/pictures/1327179600/5db4c0f0ba5b53de27beefa9dc8b99b6.jpg"

Жанр:Melodic death metal, avant-garde metal, euro-trance, industrial metal ||Происхождение исполнителя:Osaka, Japan|| Год издания данного носителя: 2003 - 2011 ||Страна-производитель носителя: Japan ||Тип релиза: tracks+.cue\image+.cue|| Аудио кодек: FLAC || Битрейт аудио: lossless || Продолжительность: 03:03:25
2003 - Mystic Your Heart

Жанр:
Происхождение исполнителя: Japan
Год издания данного носителя:2003
Страна-производитель носителя: Japan
Тип релиза:tracks+.cue
Аудио кодек: FLAC
Битрейт аудио: lossless
Продолжительность:00:49:00
Треклист:
01. Be In For Killing Myself (3:57)
02. System (2:50)
03. The Rise Of All The Fall (3:46)
04. Mystic Your Heart (4:17)
05. Artificial Mind (4:01)
06. Em Solution (3:09)
07. Clone Life (3:25)
08. The Road To Ruin (3:48)
09. Deep Silent Memory (19:47)

Код:

Exact Audio Copy V0.99 prebeta 3 from 28. July 2007

EAC extraction logfile from 7. March 2009, 17:37

Blood Stain Child / Mystic Your Heart

Used drive  : TSSTcorpCDDVDW SH-S223F   Adapter: 5  ID: 2

Read mode               : Secure
Utilize accurate stream : Yes
Defeat audio cache      : Yes
Make use of C2 pointers : No

Read offset correction                      : 6
Overread into Lead-In and Lead-Out          : No
Fill up missing offset samples with silence : Yes
Delete leading and trailing silent blocks   : No
Null samples used in CRC calculations       : Yes
Used interface                              : Installed external ASPI interface
Gap handling                                : Appended to previous track

Used output format              : User Defined Encoder
Selected bitrate                : 320 kBit/s
Quality                         : High
Add ID3 tag                     : No
Command line compressor         : C:\Program Files\FLAC\flac.exe
Additional command line options : -V -8 -T "artist=%a" -T "title=%t" -T "album=%g" -T "date=%y" -T "tracknumber=%n" -T "genre=%m" %s 

TOC of the extracted CD

     Track |   Start  |  Length  | Start sector | End sector
    ---------------------------------------------------------
        1  |  0:00.00 |  3:56.57 |         0    |    17756   
        2  |  3:56.57 |  2:50.00 |     17757    |    30506   
        3  |  6:46.57 |  3:45.63 |     30507    |    47444   
        4  | 10:32.45 |  4:16.55 |     47445    |    66699   
        5  | 14:49.25 |  4:01.35 |     66700    |    84809   
        6  | 18:50.60 |  3:09.17 |     84810    |    99001   
        7  | 22:00.02 |  3:25.30 |     99002    |   114406   
        8  | 25:25.32 |  3:47.45 |    114407    |   131476   
        9  | 29:13.02 | 19:47.15 |    131477    |   220516   

Track  1

     Filename D:\FTP\FLAC\Blood_Stain_Child-Mystic_Your_Heart-2003\01 - Blood Stain Child - Be In For Killing Myself.wav

     Pre-gap length  0:00:02.00

     Peak level 100.0 %
     Track quality 99.9 %
     Test CRC 45C9A063
     Copy CRC 45C9A063
     Track not present in AccurateRip database
     Copy OK

Track  2

     Filename D:\FTP\FLAC\Blood_Stain_Child-Mystic_Your_Heart-2003\02 - Blood Stain Child - System.wav

     Pre-gap length  0:00:00.01

     Peak level 98.8 %
     Track quality 99.9 %
     Test CRC D430E398
     Copy CRC D430E398
     Track not present in AccurateRip database
     Copy OK

Track  3

     Filename D:\FTP\FLAC\Blood_Stain_Child-Mystic_Your_Heart-2003\03 - Blood Stain Child - The Rise Of All The Fall.wav

     Peak level 98.8 %
     Track quality 100.0 %
     Test CRC 4392B1D0
     Copy CRC 4392B1D0
     Track not present in AccurateRip database
     Copy OK

Track  4

     Filename D:\FTP\FLAC\Blood_Stain_Child-Mystic_Your_Heart-2003\04 - Blood Stain Child - Mystic Your Heart.wav

     Peak level 98.8 %
     Track quality 100.0 %
     Test CRC 6C1AA78B
     Copy CRC 6C1AA78B
     Track not present in AccurateRip database
     Copy OK

Track  5

     Filename D:\FTP\FLAC\Blood_Stain_Child-Mystic_Your_Heart-2003\05 - Blood Stain Child - Artificial Mind.wav

     Peak level 98.8 %
     Track quality 100.0 %
     Test CRC EAE78251
     Copy CRC EAE78251
     Track not present in AccurateRip database
     Copy OK

Track  6

     Filename D:\FTP\FLAC\Blood_Stain_Child-Mystic_Your_Heart-2003\06 - Blood Stain Child - Em Solution.wav

     Peak level 100.0 %
     Track quality 100.0 %
     Test CRC 7D54EA07
     Copy CRC 7D54EA07
     Track not present in AccurateRip database
     Copy OK

Track  7

     Filename D:\FTP\FLAC\Blood_Stain_Child-Mystic_Your_Heart-2003\07 - Blood Stain Child - Clone Life.wav

     Peak level 98.8 %
     Track quality 100.0 %
     Test CRC FA30B138
     Copy CRC FA30B138
     Track not present in AccurateRip database
     Copy OK

Track  8

     Filename D:\FTP\FLAC\Blood_Stain_Child-Mystic_Your_Heart-2003\08 - Blood Stain Child - The Road To Ruin.wav

     Peak level 98.8 %
     Track quality 100.0 %
     Test CRC 7A8206E4
     Copy CRC 7A8206E4
     Track not present in AccurateRip database
     Copy OK

Track  9

     Filename D:\FTP\FLAC\Blood_Stain_Child-Mystic_Your_Heart-2003\09 - Blood Stain Child - Deep Silent Memory.wav

     Peak level 98.8 %
     Track quality 100.0 %
     Test CRC 3DF3EE46
     Copy CRC 3DF3EE46
     Track not present in AccurateRip database
     Copy OK

None of the tracks are present in the AccurateRip database

No errors occurred

End of status report

 

Код:

REM GENRE Metal
REM DATE 2003
REM DISCID 6A0B7C09
REM COMMENT "ExactAudioCopy v0.99pb3"
FILE "01 - Blood Stain Child - Be In For Killing Myself.wav" WAVE
  TRACK 01 AUDIO
    INDEX 01 00:00:00
  TRACK 02 AUDIO
    INDEX 00 03:56:56
FILE "02 - Blood Stain Child - System.wav" WAVE
    INDEX 01 00:00:00
FILE "03 - Blood Stain Child - The Rise Of All The Fall.wav" WAVE
  TRACK 03 AUDIO
    INDEX 01 00:00:00
FILE "04 - Blood Stain Child - Mystic Your Heart.wav" WAVE
  TRACK 04 AUDIO
    INDEX 01 00:00:00
FILE "05 - Blood Stain Child - Artificial Mind.wav" WAVE
  TRACK 05 AUDIO
    INDEX 01 00:00:00
FILE "06 - Blood Stain Child - Em Solution.wav" WAVE
  TRACK 06 AUDIO
    INDEX 01 00:00:00
FILE "07 - Blood Stain Child - Clone Life.wav" WAVE
  TRACK 07 AUDIO
    INDEX 01 00:00:00
FILE "08 - Blood Stain Child - The Road To Ruin.wav" WAVE
  TRACK 08 AUDIO
    INDEX 01 00:00:00
FILE "09 - Blood Stain Child - Deep Silent Memory.wav" WAVE
  TRACK 09 AUDIO
    INDEX 01 00:00:00

 

2006 - Idolator

Жанр: Melodic death metal, avant-garde metal, euro-trance, industrial metal
Происхождение исполнителя: Japan
Год издания данного носителя:2006
Страна-производитель носителя: Japan
Тип релиза: image+.cue
Аудио кодек: FLAC
Битрейт аудио: lossless
Продолжительность:00:39:10
Треклист:
01. Hyper Sonic (4:43)
02. Truth (3:18)
03. Final Sky (4:05)
04. Live Inside (3:29)
05. Ag2o (3:42)
06. Embrace Me (4:58)
07. Trial Spiral (3:50)
08. Void (4:23)
09. Type-N (3:25)
10. True Blue (3:36)

Код:

Exact Audio Copy V0.99 prebeta 3 from 28. July 2007

Отчёт EAC об извлечении, выполненном 12. апреля 2008, 16:19

Blood Stain Child / Idolator

Дисковод: TEAC    DV-W28EC   Adapter: 1  ID: 0

Режим чтения                 : Достоверность
Использование точного потока : Да
Отключение кэша аудио        : Да
Использование указателей C2  : Нет

Коррекция смещения при чтении                     : 48
Способность читать области Lead-in и Lead-out     : Нет
Заполнение пропущенных сэмплов тишиной            : Да
Удаление блоков с тишиной в начале и конце        : Нет
При вычислениях CRC использовались нулевые сэмплы : Нет
Интерфейс                                         : Встроенный Win32-интерфейс для Win NT/2000

Выходной формат : Внутренние WAV-операции
Формат сэмплов  : 44.100 Гц; 16 бит; стерео

TOC извлечённого CD

     Трек |   Старт  | Длительность | Начальный сектор | Конечный сектор
    ---------------------------------------------------------------------
       1  |  0:00.00 |    4:43.14   |           0      |      21238     
       2  |  4:43.14 |    3:18.31   |       21239      |      36119     
       3  |  8:01.45 |    4:05.24   |       36120      |      54518     
       4  | 12:06.69 |    3:28.65   |       54519      |      70183     
       5  | 15:35.59 |    3:41.48   |       70184      |      86806     
       6  | 19:17.32 |    4:57.52   |       86807      |     109133     
       7  | 24:15.09 |    3:49.47   |      109134      |     126355     
       8  | 28:04.56 |    4:23.04   |      126356      |     146084     
       9  | 32:27.60 |    3:24.39   |      146085      |     161423     
      10  | 35:52.24 |    3:35.65   |      161424      |     177613     
      11  | 42:00.14 |    7:05.22   |      189014      |     220910     

Характеристики диапазона извлечения и сообщения об ошибках

Выбранный диапазон

     Имя файла C:\Documents and Settings\Neosta\Мои документы\Моя музыка\images\Blood Stain Child - Idolator.wav

     Пиковый уровень 99.9 %
     Качество диапазона 100.0 %
     CRC копии 29C655CE
     Копирование... OK

Ошибок не произошло

 
AccurateRip: сводка
 
Трек  1  нет в базе данных
Трек  2  нет в базе данных
Трек  3  нет в базе данных
Трек  4  нет в базе данных
Трек  5  нет в базе данных
Трек  6  нет в базе данных
Трек  7  нет в базе данных
Трек  8  нет в базе данных
Трек  9  нет в базе данных
Трек 10  нет в базе данных
 
Ни одного трека нет в базе AccurateRip

Конец отчёта

------------------------------------------------------------

Exact Audio Copy V0.99 prebeta 3 from 28. July 2007

Отчёт EAC об извлечении, выполненном 12. апреля 2008, 16:35

Blood Stain Child / Idolator

Дисковод: TEAC    DV-W28EC   Adapter: 1  ID: 0

Режим чтения                 : Достоверность
Использование точного потока : Да
Отключение кэша аудио        : Да
Использование указателей C2  : Нет

Коррекция смещения при чтении                     : 48
Способность читать области Lead-in и Lead-out     : Нет
Заполнение пропущенных сэмплов тишиной            : Да
Удаление блоков с тишиной в начале и конце        : Нет
При вычислениях CRC использовались нулевые сэмплы : Нет
Интерфейс                                         : Встроенный Win32-интерфейс для Win NT/2000

Выходной формат          : Пользовательский кодировщик
Выбранный битрейт        : 768 kBit/s
Качество                 : Высокий
Добавление ID3-тэга      : Нет
Утилита сжатия           : C:\Program Files\Exact Audio Copy\Flac\flac.exe
Дополнительные параметры : -6 -V -T "ARTIST=%a" -T "TITLE=%t" -T "ALBUM=%g" -T "DATE=%y" -T "TRACKNUMBER=%n" -T "GENRE=%m" -T "COMMENT=%e" %s -o %d

TOC извлечённого CD

     Трек |   Старт  | Длительность | Начальный сектор | Конечный сектор
    ---------------------------------------------------------------------
       1  |  0:00.00 |    4:43.14   |           0      |      21238     
       2  |  4:43.14 |    3:18.31   |       21239      |      36119     
       3  |  8:01.45 |    4:05.24   |       36120      |      54518     
       4  | 12:06.69 |    3:28.65   |       54519      |      70183     
       5  | 15:35.59 |    3:41.48   |       70184      |      86806     
       6  | 19:17.32 |    4:57.52   |       86807      |     109133     
       7  | 24:15.09 |    3:49.47   |      109134      |     126355     
       8  | 28:04.56 |    4:23.04   |      126356      |     146084     
       9  | 32:27.60 |    3:24.39   |      146085      |     161423     
      10  | 35:52.24 |    3:35.65   |      161424      |     177613     
      11  | 42:00.14 |    7:05.22   |      189014      |     220910     

Характеристики диапазона извлечения и сообщения об ошибках

Выбранный диапазон

     Имя файла C:\Documents and Settings\Neosta\Мои документы\Моя музыка\images\Blood Stain Child - Idolator.wav

     Пиковый уровень 99.9 %
     Качество диапазона 100.0 %
     CRC копии 29C655CE
     Копирование... OK

Ошибок не произошло

 
AccurateRip: сводка
 
Трек  1  нет в базе данных
Трек  2  нет в базе данных
Трек  3  нет в базе данных
Трек  4  нет в базе данных
Трек  5  нет в базе данных
Трек  6  нет в базе данных
Трек  7  нет в базе данных
Трек  8  нет в базе данных
Трек  9  нет в базе данных
Трек 10  нет в базе данных
 
Ни одного трека нет в базе AccurateRip

Конец отчёта

 

Код:

REM GENRE Metal
REM DATE 2006
REM DISCID A80B810B
REM COMMENT "ExactAudioCopy v0.99pb3"
PERFORMER "Blood Stain Child"
TITLE "Idolator"
FILE "Blood Stain Child - Idolator.flac" WAVE
  TRACK 01 AUDIO
    TITLE "Hyper Sonic"
    PERFORMER "Blood Stain Child"
    FLAGS DCP
    INDEX 01 00:00:00
  TRACK 02 AUDIO
    TITLE "Truth"
    PERFORMER "Blood Stain Child"
    FLAGS DCP
    INDEX 00 04:41:14
    INDEX 01 04:43:14
  TRACK 03 AUDIO
    TITLE "Final Sky"
    PERFORMER "Blood Stain Child"
    FLAGS DCP
    INDEX 00 07:59:45
    INDEX 01 08:01:45
  TRACK 04 AUDIO
    TITLE "Live Inside"
    PERFORMER "Blood Stain Child"
    FLAGS DCP
    INDEX 00 12:04:69
    INDEX 01 12:06:69
  TRACK 05 AUDIO
    TITLE "Ag2o"
    PERFORMER "Blood Stain Child"
    FLAGS DCP
    INDEX 00 15:33:59
    INDEX 01 15:35:59
  TRACK 06 AUDIO
    TITLE "Embrace Me"
    PERFORMER "Blood Stain Child"
    FLAGS DCP
    INDEX 00 19:15:32
    INDEX 01 19:17:32
  TRACK 07 AUDIO
    TITLE "Trial Spiral"
    PERFORMER "Blood Stain Child"
    FLAGS DCP
    INDEX 00 24:13:09
    INDEX 01 24:15:09
  TRACK 08 AUDIO
    TITLE "Void"
    PERFORMER "Blood Stain Child"
    FLAGS DCP
    INDEX 00 28:02:56
    INDEX 01 28:04:56
  TRACK 09 AUDIO
    TITLE "Type-N"
    PERFORMER "Blood Stain Child"
    FLAGS DCP
    INDEX 00 32:25:60
    INDEX 01 32:27:60
  TRACK 10 AUDIO
    TITLE "True Blue"
    PERFORMER "Blood Stain Child"
    FLAGS DCP
    INDEX 00 35:50:24
    INDEX 01 35:52:24

 

2007 - Mozaiq

Жанр: Melodic death metal, avant-garde metal, euro-trance, industrial metal
Происхождение исполнителя: Japan
Год издания данного носителя:2007
Страна-производитель носителя: Japan
Тип релиза: tracks+.cue
Аудио кодек: FLAC
Битрейт аудио: lossless
Продолжительность:00:45:56
Треклист:
01. Exotic-6-Coordinator (3:37)
02. Cyber Green (3:20)
03. Freedom (4:17)
04. Energy Blast (3:47)
05. Pitch Black Room (4:16)
06. Another Dimension (3:45)
07. Metropolice (4:00)
08. C.E.0079 (4:43)
09. Innocence (3:32)
10. Peacemaker (3:34)
11. Neo-Gothic Romance (3:58)
12. Cosmic Highway (Bonus Track) (3:08)

Код:

EAC extraction logfile from 10. January 2008, 1:25 for CD
Blood Stain Child / Mozaiq

Used drive  : BENQ    DVD DD DW1620   Adapter: 1  ID: 0
Read mode   : Secure with NO C2, accurate stream, NO disable cache
Read offset correction : 618
Overread into Lead-In and Lead-Out : No

Used output format : Internal WAV Routines
                     44.100 Hz; 16 Bit; Stereo

Other options      :
    Fill up missing offset samples with silence : Yes
    Delete leading and trailing silent blocks : No
    Installed external ASPI interface

Track  1
     Filename C:\Documents and Settings\Soylent Green\Desktop\New Folder\EAC Files\Blood Stain Child - Mozaiq - 01 - Exotic-6-Coordinator.wav

     Pre-gap length  0:00:02.00

     Peak level 100.0 %
     Track quality 100.0 %
     Test CRC C2946002
     Copy CRC C2946002
     Copy OK

Track  2
     Filename C:\Documents and Settings\Soylent Green\Desktop\New Folder\EAC Files\Blood Stain Child - Mozaiq - 02 - Cyber Green.wav

     Pre-gap length  0:00:03.65

     Peak level 100.0 %
     Track quality 100.0 %
     Test CRC A52B367B
     Copy CRC A52B367B
     Copy OK

Track  3
     Filename C:\Documents and Settings\Soylent Green\Desktop\New Folder\EAC Files\Blood Stain Child - Mozaiq - 03 - Freedom.wav

     Pre-gap length  0:00:03.65

     Peak level 100.0 %
     Track quality 100.0 %
     Test CRC 998A0706
     Copy CRC 998A0706
     Copy OK

Track  4
     Filename C:\Documents and Settings\Soylent Green\Desktop\New Folder\EAC Files\Blood Stain Child - Mozaiq - 04 - Energy Blast.wav

     Pre-gap length  0:00:03.65

     Peak level 100.0 %
     Track quality 100.0 %
     Test CRC FF606BB0
     Copy CRC FF606BB0
     Copy OK

Track  5
     Filename C:\Documents and Settings\Soylent Green\Desktop\New Folder\EAC Files\Blood Stain Child - Mozaiq - 05 - Pitch Black Room.wav

     Pre-gap length  0:00:03.65

     Peak level 100.0 %
     Track quality 100.0 %
     Test CRC 3305EC56
     Copy CRC 3305EC56
     Copy OK

Track  6
     Filename C:\Documents and Settings\Soylent Green\Desktop\New Folder\EAC Files\Blood Stain Child - Mozaiq - 06 - Another Dimension.wav

     Pre-gap length  0:00:03.65

     Peak level 100.0 %
     Track quality 100.0 %
     Test CRC A1805B80
     Copy CRC A1805B80
     Copy OK

Track  7
     Filename C:\Documents and Settings\Soylent Green\Desktop\New Folder\EAC Files\Blood Stain Child - Mozaiq - 07 - Metropolice.wav

     Pre-gap length  0:00:03.65

     Peak level 100.0 %
     Track quality 99.9 %
     Test CRC FF5DEA23
     Copy CRC FF5DEA23
     Copy OK

Track  8
     Filename C:\Documents and Settings\Soylent Green\Desktop\New Folder\EAC Files\Blood Stain Child - Mozaiq - 08 - C.E.0079.wav

     Pre-gap length  0:00:03.65

     Peak level 99.9 %
     Track quality 100.0 %
     Test CRC CD29585C
     Copy CRC CD29585C
     Copy OK

Track  9
     Filename C:\Documents and Settings\Soylent Green\Desktop\New Folder\EAC Files\Blood Stain Child - Mozaiq - 09 - Innocence.wav

     Pre-gap length  0:00:03.65

     Peak level 100.0 %
     Track quality 100.0 %
     Test CRC 17D7C7D8
     Copy CRC 17D7C7D8
     Copy OK

Track 10
     Filename C:\Documents and Settings\Soylent Green\Desktop\New Folder\EAC Files\Blood Stain Child - Mozaiq - 10 - Peacemaker.wav

     Pre-gap length  0:00:03.65

     Peak level 99.9 %
     Track quality 100.0 %
     Test CRC F8D8430E
     Copy CRC F8D8430E
     Copy OK

Track 11
     Filename C:\Documents and Settings\Soylent Green\Desktop\New Folder\EAC Files\Blood Stain Child - Mozaiq - 11 - Neo-Gothic Romance.wav

     Pre-gap length  0:00:03.65

     Peak level 100.0 %
     Track quality 100.0 %
     Test CRC 07C93608
     Copy CRC 07C93608
     Copy OK

Track 12
     Filename C:\Documents and Settings\Soylent Green\Desktop\New Folder\EAC Files\Blood Stain Child - Mozaiq - 12 - Cosmic Highway (Bonus Track).wav

     Pre-gap length  0:00:03.65

     Peak level 100.0 %
     Track quality 100.0 %
     Test CRC AE5E76A7
     Copy CRC AE5E76A7
     Copy OK

No errors occured

End of status report

 

Код:

REM GENRE Metal
REM DATE 2007
REM DISCID 9A0AC40C
REM COMMENT "ExactAudioCopy v0.95b4"
PERFORMER "Blood Stain Child"
TITLE "Mozaiq"
FILE "Blood Stain Child - Mozaiq - 01 - Exotic-6-Coordinator.wav" WAVE
  TRACK 01 AUDIO
    TITLE "Exotic-6-Coordinator"
    PERFORMER "Blood Stain Child"
    FLAGS DCP
    INDEX 01 00:00:00
  TRACK 02 AUDIO
    TITLE "Cyber Green"
    PERFORMER "Blood Stain Child"
    FLAGS DCP
    INDEX 00 03:32:68
FILE "Blood Stain Child - Mozaiq - 02 - Cyber Green.wav" WAVE
    INDEX 01 00:00:00
  TRACK 03 AUDIO
    TITLE "Freedom"
    PERFORMER "Blood Stain Child"
    FLAGS DCP
    INDEX 00 03:16:45
FILE "Blood Stain Child - Mozaiq - 03 - Freedom.wav" WAVE
    INDEX 01 00:00:00
  TRACK 04 AUDIO
    TITLE "Energy Blast"
    PERFORMER "Blood Stain Child"
    FLAGS DCP
    INDEX 00 04:13:05
FILE "Blood Stain Child - Mozaiq - 04 - Energy Blast.wav" WAVE
    INDEX 01 00:00:00
  TRACK 05 AUDIO
    TITLE "Pitch Black Room"
    PERFORMER "Blood Stain Child"
    FLAGS DCP
    INDEX 00 03:43:25
FILE "Blood Stain Child - Mozaiq - 05 - Pitch Black Room.wav" WAVE
    INDEX 01 00:00:00
  TRACK 06 AUDIO
    TITLE "Another Dimension"
    PERFORMER "Blood Stain Child"
    FLAGS DCP
    INDEX 00 04:11:57
FILE "Blood Stain Child - Mozaiq - 06 - Another Dimension.wav" WAVE
    INDEX 01 00:00:00
  TRACK 07 AUDIO
    TITLE "Metropolice"
    PERFORMER "Blood Stain Child"
    FLAGS DCP
    INDEX 00 03:41:03
FILE "Blood Stain Child - Mozaiq - 07 - Metropolice.wav" WAVE
    INDEX 01 00:00:00
  TRACK 08 AUDIO
    TITLE "C.E.0079"
    PERFORMER "Blood Stain Child"
    FLAGS DCP
    INDEX 00 03:56:16
FILE "Blood Stain Child - Mozaiq - 08 - C.E.0079.wav" WAVE
    INDEX 01 00:00:00
  TRACK 09 AUDIO
    TITLE "Innocence"
    PERFORMER "Blood Stain Child"
    FLAGS DCP
    INDEX 00 04:38:74
FILE "Blood Stain Child - Mozaiq - 09 - Innocence.wav" WAVE
    INDEX 01 00:00:00
  TRACK 10 AUDIO
    TITLE "Peacemaker"
    PERFORMER "Blood Stain Child"
    FLAGS DCP
    INDEX 00 03:28:38
FILE "Blood Stain Child - Mozaiq - 10 - Peacemaker.wav" WAVE
    INDEX 01 00:00:00
  TRACK 11 AUDIO
    TITLE "Neo-Gothic Romance"
    PERFORMER "Blood Stain Child"
    FLAGS DCP
    INDEX 00 03:29:63
FILE "Blood Stain Child - Mozaiq - 11 - Neo-Gothic Romance.wav" WAVE
    INDEX 01 00:00:00
  TRACK 12 AUDIO
    TITLE "Cosmic Highway (Bonus Track)"
    PERFORMER "Blood Stain Child"
    FLAGS DCP
    INDEX 00 03:54:04
FILE "Blood Stain Child - Mozaiq - 12 - Cosmic Highway (Bonus Track).wav" WAVE
    INDEX 01 00:00:00

 

2011 - Epsilon

Жанр: Melodic death metal, avant-garde metal, euro-trance, industrial metal
Происхождение исполнителя: Japan
Год издания данного носителя:2011
Страна-производитель носителя: Japan
Тип релиза: tracks+.cue
Аудио кодек: FLAC
Битрейт аудио: lossless
Продолжительность:00:49:18
Треклист:
01. Sirius VI (4:28)
02. Forever Free (3:58)
03. Stargazer (4:21)
04. S.O.P.H.I.A (2:52)
05. Unlimited Alchemist (3:51)
06. Electricity (3:40)
07. Eternal (4:34)
08. Moon Light Wave (2:45)
09. Dedicated To Violator (3:53)
10. Merry-Go-Round (4:35)
11. La+ (3:19)
12. Sai-Ka-No (2:59)
13. Royal Sky (4:06)

Код:

Exact Audio Copy V1.0 beta 2 from 29. April 2011

EAC extraction logfile from 4. August 2011, 14:24

Blood Stain Child / Epsilon

Used drive  : SONY    DVD RW DRU-V200S   Adapter: 2  ID: 0

Read mode               : Secure
Utilize accurate stream : Yes
Defeat audio cache      : Yes
Make use of C2 pointers : No

Read offset correction                      : 48
Overread into Lead-In and Lead-Out          : No
Fill up missing offset samples with silence : Yes
Delete leading and trailing silent blocks   : No
Null samples used in CRC calculations       : Yes
Used interface                              : Native Win32 interface for Win NT & 2000
Gap handling                                : Appended to previous track

Used output format              : User Defined Encoder
Selected bitrate                : 1024 kBit/s
Quality                         : High
Add ID3 tag                     : No
Command line compressor         : C:\FLAC\flac.exe
Additional command line options : -8 -V -T "ARTIST=%artist%" -T "TITLE=%title%" -T "ALBUM=%albumtitle%" -T "DATE=%year%" -T "TRACKNUMBER=%tracknr%" -T "GENRE=%genre%" -T "PERFORMER=%albuminterpret%" -T "COMPOSER=%composer%" %haslyrics%--tag-from-file=LYRICS

TOC of the extracted CD

     Track |   Start  |  Length  | Start sector | End sector
    ---------------------------------------------------------
        1  |  0:00.00 |  4:27.38 |         0    |    20062   
        2  |  4:27.38 |  3:57.70 |     20063    |    37907   
        3  |  8:25.33 |  4:21.01 |     37908    |    57483   
        4  | 12:46.34 |  2:52.23 |     57484    |    70406   
        5  | 15:38.57 |  3:50.39 |     70407    |    87695   
        6  | 19:29.21 |  3:39.55 |     87696    |   104175   
        7  | 23:09.01 |  4:33.40 |    104176    |   124690   
        8  | 27:42.41 |  2:44.39 |    124691    |   137029   
        9  | 30:27.05 |  3:53.31 |    137030    |   154535   
       10  | 34:20.36 |  4:35.07 |    154536    |   175167   
       11  | 38:55.43 |  3:18.41 |    175168    |   190058   
       12  | 42:14.09 |  2:58.47 |    190059    |   203455   
       13  | 45:12.56 |  4:05.48 |    203456    |   221878   

Track  1

     Filename D:\New Music\Blood Stain Child - Epsilon [FLAC]\01 Sirius VI.wav

     Pre-gap length  0:00:02.00

     Peak level 97.6 %
     Extraction speed 2.3 X
     Track quality 100.0 %
     Test CRC 92CCEE10
     Copy CRC 92CCEE10
     Track not present in AccurateRip database
     Copy OK

Track  2

     Filename D:\New Music\Blood Stain Child - Epsilon [FLAC]\02 Forever Free.wav

     Peak level 97.6 %
     Extraction speed 2.5 X
     Track quality 100.0 %
     Test CRC 14E407EF
     Copy CRC 14E407EF
     Track not present in AccurateRip database
     Copy OK

Track  3

     Filename D:\New Music\Blood Stain Child - Epsilon [FLAC]\03 Stargazer.wav

     Peak level 98.7 %
     Extraction speed 2.8 X
     Track quality 100.0 %
     Test CRC 3FF77DDB
     Copy CRC 3FF77DDB
     Track not present in AccurateRip database
     Copy OK

Track  4

     Filename D:\New Music\Blood Stain Child - Epsilon [FLAC]\04 S.O.P.H.I.A.wav

     Peak level 98.7 %
     Extraction speed 2.4 X
     Track quality 99.9 %
     Test CRC DB50BCD7
     Copy CRC DB50BCD7
     Track not present in AccurateRip database
     Copy OK

Track  5

     Filename D:\New Music\Blood Stain Child - Epsilon [FLAC]\05 Unlimited Alchemist.wav

     Peak level 97.6 %
     Extraction speed 3.1 X
     Track quality 100.0 %
     Test CRC FE3CADF6
     Copy CRC FE3CADF6
     Track not present in AccurateRip database
     Copy OK

Track  6

     Filename D:\New Music\Blood Stain Child - Epsilon [FLAC]\06 Electricity.wav

     Peak level 97.6 %
     Extraction speed 2.8 X
     Track quality 99.9 %
     Test CRC C331469B
     Copy CRC C331469B
     Track not present in AccurateRip database
     Copy OK

Track  7

     Filename D:\New Music\Blood Stain Child - Epsilon [FLAC]\07 Eternal.wav

     Peak level 97.6 %
     Extraction speed 3.2 X
     Track quality 99.9 %
     Test CRC 53761E89
     Copy CRC 53761E89
     Track not present in AccurateRip database
     Copy OK

Track  8

     Filename D:\New Music\Blood Stain Child - Epsilon [FLAC]\08 Moon Light Wave.wav

     Peak level 97.6 %
     Extraction speed 3.4 X
     Track quality 100.0 %
     Test CRC B14A1B26
     Copy CRC B14A1B26
     Track not present in AccurateRip database
     Copy OK

Track  9

     Filename D:\New Music\Blood Stain Child - Epsilon [FLAC]\09 Dedicated To Violator.wav

     Peak level 97.2 %
     Extraction speed 3.7 X
     Track quality 100.0 %
     Test CRC E79E64FA
     Copy CRC E79E64FA
     Track not present in AccurateRip database
     Copy OK

Track 10

     Filename D:\New Music\Blood Stain Child - Epsilon [FLAC]\10 Merry-Go-Round.wav

     Peak level 97.6 %
     Extraction speed 4.0 X
     Track quality 100.0 %
     Test CRC 117EAC7F
     Copy CRC 117EAC7F
     Track not present in AccurateRip database
     Copy OK

Track 11

     Filename D:\New Music\Blood Stain Child - Epsilon [FLAC]\11 La+.wav

     Peak level 97.6 %
     Extraction speed 3.4 X
     Track quality 99.9 %
     Test CRC 2CE07D82
     Copy CRC 2CE07D82
     Track not present in AccurateRip database
     Copy OK

Track 12

     Filename D:\New Music\Blood Stain Child - Epsilon [FLAC]\12 Sai-Ka-No.wav

     Peak level 96.5 %
     Extraction speed 3.4 X
     Track quality 99.9 %
     Test CRC 925095C1
     Copy CRC 925095C1
     Track not present in AccurateRip database
     Copy OK

Track 13

     Filename D:\New Music\Blood Stain Child - Epsilon [FLAC]\13 Royal Sky.wav

     Peak level 97.6 %
     Extraction speed 4.3 X
     Track quality 100.0 %
     Test CRC 3BEC0355
     Copy CRC 3BEC0355
     Track not present in AccurateRip database
     Copy OK

None of the tracks are present in the AccurateRip database

No errors occurred

End of status report

==== Log checksum 0D053E3438D4A44CD3535574FFF50385EAF027008B071FFEB3B605B117E07ED8 ====

 

Код:

REM GENRE "Melodic Death Metal"
REM DATE 2011
REM DISCID B50B8E0D
REM COMMENT "ExactAudioCopy v1.0b2"
PERFORMER "Blood Stain Child"
TITLE "Epsilon"
FILE "01 Sirius VI.flac" WAVE
  TRACK 01 AUDIO
    TITLE "Sirius VI"
    PERFORMER "Blood Stain Child"
    INDEX 01 00:00:00
FILE "02 Forever Free.flac" WAVE
  TRACK 02 AUDIO
    TITLE "Forever Free"
    PERFORMER "Blood Stain Child"
    INDEX 01 00:00:00
FILE "03 Stargazer.flac" WAVE
  TRACK 03 AUDIO
    TITLE "Stargazer"
    PERFORMER "Blood Stain Child"
    INDEX 01 00:00:00
FILE "04 S.O.P.H.I.A.flac" WAVE
  TRACK 04 AUDIO
    TITLE "S.O.P.H.I.A"
    PERFORMER "Blood Stain Child"
    INDEX 01 00:00:00
FILE "05 Unlimited Alchemist.flac" WAVE
  TRACK 05 AUDIO
    TITLE "Unlimited Alchemist"
    PERFORMER "Blood Stain Child"
    INDEX 01 00:00:00
FILE "06 Electricity.flac" WAVE
  TRACK 06 AUDIO
    TITLE "Electricity"
    PERFORMER "Blood Stain Child"
    INDEX 01 00:00:00
FILE "07 Eternal.flac" WAVE
  TRACK 07 AUDIO
    TITLE "Eternal"
    PERFORMER "Blood Stain Child"
    INDEX 01 00:00:00
FILE "08 Moon Light Wave.flac" WAVE
  TRACK 08 AUDIO
    TITLE "Moon Light Wave"
    PERFORMER "Blood Stain Child"
    INDEX 01 00:00:00
FILE "09 Dedicated To Violator.flac" WAVE
  TRACK 09 AUDIO
    TITLE "Dedicated To Violator"
    PERFORMER "Blood Stain Child"
    INDEX 01 00:00:00
FILE "10 Merry-Go-Round.flac" WAVE
  TRACK 10 AUDIO
    TITLE "Merry-Go-Round"
    PERFORMER "Blood Stain Child"
    INDEX 01 00:00:00
FILE "11 La+.flac" WAVE
  TRACK 11 AUDIO
    TITLE "La+"
    PERFORMER "Blood Stain Child"
    INDEX 01 00:00:00
FILE "12 Sai-Ka-No.flac" WAVE
  TRACK 12 AUDIO
    TITLE "Sai-Ka-No"
    PERFORMER "Blood Stain Child"
    INDEX 01 00:00:00
FILE "13 Royal Sky.flac" WAVE
  TRACK 13 AUDIO
    TITLE "Royal Sky"
    PERFORMER "Blood Stain Child"
    INDEX 01 00:00:00

 

Информация о группе

Blood Stain Child — японская дэт-метал группа из города Осака, играющая в стиле melodic death metal. Группа сформировалась в 1999 году под названием «Visionquest», но в 2000 году они переименовались в Blood Stain Child. Иногда использовала элементы Visual kei, который сейчас проявляется в основном только в образе гитаристов группы Ryo и G.S.R. Выделяется добавлением элементов техно и транс в мелодик дэт метал.
Если раздача нравиться - не забудь сказать спасибо!

info [Профиль]  [ЛС] 

post 23-Янв-2012 18:33 (спустя 1 день 17 часов) [-]0[+]

Топик был перенесен из форума Оформление раздач в форум Mеtаl (losslеss)

VlaDai
 

VlaDai

Пол: Пол:Муж

Стаж: 5 лет 5 месяцев

Сообщений: 1051

Россия
Рейтинг

post 23-Янв-2012 21:48 (спустя 1 день 20 часов) [-]2[+]

[Цитировать] 

Имхо лучший их альбом это Mozaiq -очень цельно, в меру смесь электроники и метала, плюс очень много твёрдо запоминающихся мелодий - например Freedom.А вообще группа самобытна как и всё японское, так что вполне с уверенностью можно ознакамливаться, причём мне лично старые альбомы нравятся больше epsilon)
вот кстать клип на эту песню
          

_________________
Слушаю митол и читаю мангу - айко наркоман.
info [Профиль]  [ЛС] 

VlaDai

Пол: Пол:Муж

Стаж: 5 лет 5 месяцев

Сообщений: 1051

Россия
Рейтинг

post 29-Мар-2012 19:29 (спустя 2 месяца 5 дней) [-]0[+]

[Цитировать] 

позолотил

_________________
Слушаю митол и читаю мангу - айко наркоман.
info [Профиль]  [ЛС] 

Mr Spock

Пол: Пол:Муж

Стаж: 5 лет 5 месяцев

Сообщений: 144

Антарктида
Рейтинг

post 10-Мар-2013 00:55 (спустя 11 месяцев 11 дней) [-]1[+]

[Цитировать] 

VlaDai, а мне вот наоборот первые альбомы без женского вокала не особо нравятся. Они конечно являются образчиком неплохого мдм'а, но все ж таки фишкой стал именно дуэт металла и электроники, и сбалансированное сочетание гроулинга и чистого женского вокала, коей иллюстрацией и является Mozaiq. Metropolice я наверное могу бесконечно слушать. Да и Epsilon получился довольно занятной штукой. Не такой сильной, но определенно другой и хорошей в своем плане. Forever Free и Stargazer особенно запомнились.
Мне вот уже интересно услышать новый альбом. София вроде из группы ушла, интересно как это повлияет на творчество.

_________________
info [Профиль]  [ЛС] 

VlaDai

Пол: Пол:Муж

Стаж: 5 лет 5 месяцев

Сообщений: 1051

Россия
Рейтинг

post 10-Мар-2013 13:41 (спустя 12 часов) [-]1[+]

[Цитировать] 

Mr Spock
Там новая вокалистка японка, так что хз что с ними станет. А для меня самой запоминающейся штукой стала Freedom и truth, хотя поначалу именно новый альбом понравился,а потом как-то поднадоел и начал старые альбомы слушать и очень понравился именно Mozaiq

_________________
Слушаю митол и читаю мангу - айко наркоман.
info [Профиль]  [ЛС] 

Dennis_Gray

Пол: Пол:Муж

Стаж: 2 года

Сообщений: 174

Белоруссия
Рейтинг

post 09-Авг-2015 13:17 (спустя 2 года 4 месяца) [-]0[+]

[Цитировать] 

уважаемые, неужели ни у кого нет их дисков чтобы сделать нормальный flac? эта раздача уже почти на каждом трекере лежит. Думал здесь хоть отличается, ошибся....

_________________
Лучше быть умным и иногда тупить, чем тупым и постоянно умничать.
info [Профиль]  [ЛС] 
Показать сообщения:    
Ответить на тему

Текущее время: 05-Дек 18:34

Часовой пояс: GMT + 4



Вы не можете начинать темы
Вы не можете отвечать на сообщения
Вы не можете редактировать свои сообщения
Вы не можете удалять свои сообщения
Вы не можете голосовать в опросах
Вы не можете прикреплять файлы к сообщениям
Вы не можете скачивать файлы