Ошибка

(Alternative Metal / Nu-Metal / Rapcore / Christian Metal / Reggae) P.O.D. (Payable On Death) - Discography (16 СDs) - 1994-2012, FLAC (image+.cue, tracks+.cue), lossless+covers

Ответить на тему
 
Автор Сообщение

The Buzzhorn

Пол: Пол:Муж

Стаж: 6 лет 1 месяц

Сообщений: 901

Германия
Рейтинг

post 21-Янв-2012 14:06 0[+]

[Цитировать] 

pic="http://i41.fastpic.ru/big/2012/0808/8a/12fdb7c1cfe23aa4328917b22b8f5b8a.jpg"


Жанр: Alternative metal / Nu metal / Rap metal / Christian metal / Reggae || Происхождение исполнителя: Southtown, San Diego, California, United States || Год издания носителей:1994-2012
Страна-производитель носителя: USA || Тип релиза: image+.cue, tracks+.cue || Аудио кодек: FLAC || Битрейт аудио: lossless
Год первого издания: 1994 || Лейбл: Rescue, Atlantic, Columbia/INO, Razor & Tie, Tooth & Nail || Продолжительность: 10:26:54

Цитата:

P.O.D. — американская рок-группа из города Сан-Диего, Калифорния. Неоднократно номинирована на премию Грэмми. Работает в стилях рэпкор,ню-метал, альтернативный метал, христианский метал, изредка добавляя элементы рэгги. Название группы — аббревиатура от «Payable On Death» («Выплата в случае смерти»). «Payable on Death» — это банковский термин, но группа метафорично переносит его на образ Иисуса Христа, который искупил грехи всего человечества. P.O.D. — одна из самых успешных христианских рок-групп нашего времени.


Трэклист:
01. Coming Back
02. Let The Music Do The Talking
03. Draw The Line
04. Who Is Right
05. Get It Straight
06. Run
07. Snuff The Punk
08. Can You Feel It
09. Three In The Power Of One
10. Every Knee
11. Who's In This House? / Murder

Код:

Exact Audio Copy V0.99 prebeta 5 from 4. May 2009

EAC extraction logfile from 23. September 2009, 21:21

P.O.D / Snuff The Punk

Used drive : PIONEER BD-ROM BDC-202 Adapter: 2 ID: 1

Read mode : Secure
Utilize accurate stream : Yes
Defeat audio cache : Yes
Make use of C2 pointers : No

Read offset correction : 667
Overread into Lead-In and Lead-Out : No
Fill up missing offset samples with silence : Yes
Delete leading and trailing silent blocks : No
Null samples used in CRC calculations : Yes
Used interface : Native Win32 interface for Win NT & 2000
Gap handling : Appended to previous track

Used output format : User Defined Encoder
Selected bitrate : 1024 kBit/s
Quality : High
Add ID3 tag : No
Command line compressor : C:\Program Files\Exact Audio Copy 1\Flac\flac.exe
Additional command line options : -V -8 -T "artist=%a" -T "title=%t" -T "album=%g" -T "date=%y" -T "tracknumber=%n" -T "genre=%m" %s

TOC of the extracted CD

Track | Start | Length | Start sector | End sector
---------------------------------------------------------
1 | 0:00.00 | 3:50.39 | 0 | 17288
2 | 3:50.39 | 3:46.50 | 17289 | 34288
3 | 7:37.14 | 2:52.34 | 34289 | 47222
4 | 10:29.48 | 3:51.62 | 47223 | 64609
5 | 14:21.35 | 3:20.25 | 64610 | 79634
6 | 17:41.60 | 3:21.59 | 79635 | 94768
7 | 21:03.44 | 3:05.45 | 94769 | 108688
8 | 24:09.14 | 4:52.29 | 108689 | 130617
9 | 29:01.43 | 4:21.47 | 130618 | 150239
10 | 33:23.15 | 4:19.40 | 150240 | 169704
11 | 37:42.55 | 7:16.71 | 169705 | 202475
12 | 47:31.51 | 7:00.23 | 213876 | 245398

Track 1

Filename C:\Users\General1k\Desktop\Snuff The Punk\01 - Coming Back.wav

Pre-gap length 0:00:02.00

Peak level 95.7 %
Track quality 100.0 %
Test CRC F451DA19
Copy CRC F451DA19
Accurately ripped (confidence 5) [842965F5]
Copy OK

Track 2

Filename C:\Users\General1k\Desktop\Snuff The Punk\02 - Let The Music Do The Talking.wav

Pre-gap length 0:00:01.74

Peak level 96.2 %
Track quality 100.0 %
Test CRC AD31FD10
Copy CRC AD31FD10
Accurately ripped (confidence 5) [43F55395]
Copy OK

Track 3

Filename C:\Users\General1k\Desktop\Snuff The Punk\03 - Draw The Line.wav

Pre-gap length 0:00:01.74

Peak level 97.0 %
Track quality 100.0 %
Test CRC 12CC5798
Copy CRC 12CC5798
Accurately ripped (confidence 5) [E86CA239]
Copy OK

Track 4

Filename C:\Users\General1k\Desktop\Snuff The Punk\04 - Who Is Right .wav

Pre-gap length 0:00:01.74

Peak level 96.7 %
Track quality 100.0 %
Test CRC B545CDC0
Copy CRC B545CDC0
Accurately ripped (confidence 5) [E62C7CEF]
Copy OK

Track 5

Filename C:\Users\General1k\Desktop\Snuff The Punk\05 - Get It Straight.wav

Pre-gap length 0:00:01.74

Peak level 96.0 %
Track quality 100.0 %
Test CRC 7449EE89
Copy CRC 7449EE89
Accurately ripped (confidence 5) [FAA87C21]
Copy OK

Track 6

Filename C:\Users\General1k\Desktop\Snuff The Punk\06 - Run.wav

Pre-gap length 0:00:01.74

Peak level 96.4 %
Track quality 100.0 %
Test CRC 0C1BA4C3
Copy CRC 0C1BA4C3
Accurately ripped (confidence 5) [802606BD]
Copy OK

Track 7

Filename C:\Users\General1k\Desktop\Snuff The Punk\07 - Snuff The Punk.wav

Pre-gap length 0:00:01.74

Peak level 96.7 %
Track quality 99.9 %
Test CRC 23268E86
Copy CRC 23268E86
Accurately ripped (confidence 5) [E65353F8]
Copy OK

Track 8

Filename C:\Users\General1k\Desktop\Snuff The Punk\08 - Can You Feel It .wav

Pre-gap length 0:00:01.74

Peak level 97.1 %
Track quality 100.0 %
Test CRC 37320EE0
Copy CRC 37320EE0
Accurately ripped (confidence 5) [141A335B]
Copy OK

Track 9

Filename C:\Users\General1k\Desktop\Snuff The Punk\09 - Three In The Power Of One.wav

Pre-gap length 0:00:01.74

Peak level 96.6 %
Track quality 100.0 %
Test CRC B0AC1AA5
Copy CRC B0AC1AA5
Accurately ripped (confidence 5) [B2FF0810]
Copy OK

Track 10

Filename C:\Users\General1k\Desktop\Snuff The Punk\10 - Every Knee.wav

Pre-gap length 0:00:01.74

Peak level 96.3 %
Track quality 100.0 %
Test CRC 697C2C06
Copy CRC 697C2C06
Accurately ripped (confidence 5) [4BDA3501]
Copy OK

Track 11

Filename C:\Users\General1k\Desktop\Snuff The Punk\11 - Murder.wav

Pre-gap length 0:00:01.74

Peak level 97.0 %
Track quality 100.0 %
Test CRC 2920FE4E
Copy CRC 2920FE4E
Accurately ripped (confidence 5) [FE6EE78B]
Copy OK

All tracks accurately ripped

No errors occurred

End of status report

Код:

REM GENRE Alternative
REM DATE 1994
PERFORMER "P.O.D."
TITLE "Snuff the Punk"
FILE "P.O.D. - Snuff the Punk.flac" WAVE
  TRACK 01 AUDIO
    TITLE "Coming Back"
    INDEX 01 00:00:00
  TRACK 02 AUDIO
    TITLE "Let the Music Do the Talking"
    INDEX 01 03:48:37
  TRACK 03 AUDIO
    TITLE "Draw the Line"
    INDEX 01 07:33:10
  TRACK 04 AUDIO
    TITLE "Who Is Right"
    INDEX 01 10:23:42
  TRACK 05 AUDIO
    TITLE "Get It Straight"
    INDEX 01 14:13:27
  TRACK 06 AUDIO
    TITLE "Run"
    INDEX 01 17:31:50
  TRACK 07 AUDIO
    TITLE "Snuff the Punk"
    INDEX 01 20:51:32
  TRACK 08 AUDIO
    TITLE "Can You Feel It"
    INDEX 01 23:55:00
  TRACK 09 AUDIO
    TITLE "Three in the Power Of One"
    INDEX 01 28:45:27
  TRACK 10 AUDIO
    TITLE "Every Knee"
    INDEX 01 33:04:72
  TRACK 11 AUDIO
    TITLE "Abortion Is Murder"
    INDEX 01 37:22:35
Трэклист:
01. Intro
02. Know Me
03. Selah
04. Visions
05. Brown
06. One Day
07. Punks Rock
08. Breathe Babylon
09. Funk Jam
10. Preach
11. Reggae Jam
12. Full Color
13. Seeking The Wise
14. Live And Die
15. Outro

Код:

EAC extraction logfile from 1. June 2007, 21:02 for CD
P.O.D. / Brown

Used drive  : PIONEER DVD-RW  DVR-111D   Adapter: 1  ID: 0
Read mode   : Secure with NO C2, accurate stream, disable cache
Read offset correction : 48
Overread into Lead-In and Lead-Out : No

Used output format : E:\Dump\Exact Audio Copy\flac.exe   (User Defined Encoder)
                     192 kBit/s
                     Additional command line options : -8 -V -T "ARTIST=%a" -T "TITLE=%t" -T "ALBUM=%g" -T "DATE=%y" -T "TRACKNUMBER=%n" -T "GENRE=%m" -T "COMMENT=EAC Flac 1.1.4 -8" %s

Other options      :
    Fill up missing offset samples with silence : Yes
    Delete leading and trailing silent blocks : No
    Native Win32 interface for Win NT & 2000

Track  1
     Filename E:\Dump\flac\P.O.D. - Brown\01 - Intro.wav

     Peak level 98.8 %
     Track quality 100.0 %
     Test CRC 166C923E
     Copy CRC 166C923E
     Copy OK

Track  2
     Filename E:\Dump\flac\P.O.D. - Brown\02 - Know Me.wav

     Peak level 98.8 %
     Track quality 100.0 %
     Test CRC 3BDCA700
     Copy CRC 3BDCA700
     Copy OK

Track  3
     Filename E:\Dump\flac\P.O.D. - Brown\03 - Selah.wav

     Peak level 98.8 %
     Track quality 100.0 %
     Test CRC 203DD519
     Copy CRC 203DD519
     Copy OK

Track  4
     Filename E:\Dump\flac\P.O.D. - Brown\04 - Visions.wav

     Peak level 98.8 %
     Track quality 100.0 %
     Test CRC 8F8557D4
     Copy CRC 8F8557D4
     Copy OK

Track  5
     Filename E:\Dump\flac\P.O.D. - Brown\05 - Brown.wav

     Peak level 98.8 %
     Track quality 100.0 %
     Test CRC 2623C5D6
     Copy CRC 2623C5D6
     Copy OK

Track  6
     Filename E:\Dump\flac\P.O.D. - Brown\06 - One Day.wav

     Peak level 98.8 %
     Track quality 99.9 %
     Test CRC 07AA21C5
     Copy CRC 07AA21C5
     Copy OK

Track  7
     Filename E:\Dump\flac\P.O.D. - Brown\07 - Punks Rock.wav

     Peak level 98.8 %
     Track quality 100.0 %
     Test CRC F2213D23
     Copy CRC F2213D23
     Copy OK

Track  8
     Filename E:\Dump\flac\P.O.D. - Brown\08 - Breathe Babylon.wav

     Peak level 98.8 %
     Track quality 100.0 %
     Test CRC 72B428F7
     Copy CRC 72B428F7
     Copy OK

Track  9
     Filename E:\Dump\flac\P.O.D. - Brown\09 - Funk Jam.wav

     Peak level 98.8 %
     Track quality 99.9 %
     Test CRC 753928AA
     Copy CRC 753928AA
     Copy OK

Track 10
     Filename E:\Dump\flac\P.O.D. - Brown\10 - Preach.wav

     Peak level 98.8 %
     Track quality 100.0 %
     Test CRC 5FFCE334
     Copy CRC 5FFCE334
     Copy OK

Track 11
     Filename E:\Dump\flac\P.O.D. - Brown\11 - Reggae Jam.wav

     Peak level 98.8 %
     Track quality 100.0 %
     Test CRC 04734967
     Copy CRC 04734967
     Copy OK

Track 12
     Filename E:\Dump\flac\P.O.D. - Brown\12 - Full Color.wav

     Peak level 98.8 %
     Track quality 99.9 %
     Test CRC B7956420
     Copy CRC 471F15BE
     Copy OK

Track 13
     Filename E:\Dump\flac\P.O.D. - Brown\13 - Seeking the Wise.wav

     Peak level 98.8 %
     Track quality 100.0 %
     Test CRC DFFB4CC5
     Copy CRC DFFB4CC5
     Copy OK

Track 14
     Filename E:\Dump\flac\P.O.D. - Brown\14 - Live and Die.wav

     Peak level 98.8 %
     Track quality 100.0 %
     Test CRC D23C9993
     Copy CRC D23C9993
     Copy OK

Track 15
     Filename E:\Dump\flac\P.O.D. - Brown\15 - Outro.wav

     Peak level 98.8 %
     Track quality 100.0 %
     Test CRC 89D9DF9A
     Copy CRC 89D9DF9A
     Copy OK

No errors occured

End of status report

Код:

REM GENRE Christian Rock
REM DATE 1996
REM COMMENT EAC Flac 1.1.4 -8
PERFORMER "P.O.D."
TITLE "Brown"
FILE "P.O.D. - Brown.flac" WAVE
  TRACK 01 AUDIO
    TITLE "Intro"
    INDEX 01 00:00:00
  TRACK 02 AUDIO
    TITLE "Know Me"
    INDEX 01 00:45:42
  TRACK 03 AUDIO
    TITLE "Selah"
    INDEX 01 05:17:45
  TRACK 04 AUDIO
    TITLE "Visions"
    INDEX 01 09:35:50
  TRACK 05 AUDIO
    TITLE "Brown"
    INDEX 01 13:03:50
  TRACK 06 AUDIO
    TITLE "One Day"
    INDEX 01 16:55:12
  TRACK 07 AUDIO
    TITLE "Punks Rock"
    INDEX 01 20:55:67
  TRACK 08 AUDIO
    TITLE "Breathe Babylon"
    INDEX 01 22:39:65
  TRACK 09 AUDIO
    TITLE "Funk Jam"
    INDEX 01 27:42:22
  TRACK 10 AUDIO
    TITLE "Preach"
    INDEX 01 30:58:37
  TRACK 11 AUDIO
    TITLE "Reggae Jam"
    INDEX 01 33:31:15
  TRACK 12 AUDIO
    TITLE "Full Color"
    INDEX 01 34:28:32
  TRACK 13 AUDIO
    TITLE "Seeking the Wise"
    INDEX 01 40:44:72
  TRACK 14 AUDIO
    TITLE "Live and Die"
    INDEX 01 45:16:30
  TRACK 15 AUDIO
    TITLE "Outro"
    INDEX 01 48:45:67
Трэклист:
01. Greetings
02. Hollywood
03. Southtown
04. Checkin' Levels
05. Rock The Party [Off The Hook]
06. Lie Down
07. Set Your Eyes To Zion
08. Lo Siento
09. Bullet The Blue Sky
10. Psalm 150
11. Image
12. Shouts
13. Tribal
14. Freestyle
15. Follow Me
16. Outkast

Код:

EAC extraction logfile from 7. January 2007, 14:40 for CD
P.O.D. / The Fundamental Elements Of Southtown

Used drive  : MATSHITADVD-RAM UJ-840S   Adapter: 1  ID: 0
Read mode   : Secure with NO C2, accurate stream, disable cache
Read offset correction : 102
Overread into Lead-In and Lead-Out : No

Used output format : C:\Program Files\FLAC\flac.exe   (User Defined Encoder)
                     128 kBit/s
                     Additional command line options : -V -8 -T "artist=%a" -T "title=%t" -T "album=%g" -T "date=%y" -T "tracknumber=%n" -T "genre=%m" %s

Other options      :
    Fill up missing offset samples with silence : Yes
    Delete leading and trailing silent blocks : No
    Native Win32 interface for Win NT & 2000

Track  1
     Filename C:\Documents and Settings\James\Desktop\P.O.D\The Fundamental Elements Of Southtown\01 - Greetings .wav

     Pre-gap length  0:00:02.42

     Peak level 98.8 %
     Track quality 100.0 %
     Test CRC 20C2566B
     Copy CRC 20C2566B
     Copy OK

Track  2
     Filename C:\Documents and Settings\James\Desktop\P.O.D\The Fundamental Elements Of Southtown\02 - Hollywood .wav

     Peak level 98.8 %
     Track quality 100.0 %
     Test CRC 2F8E4F81
     Copy CRC 2F8E4F81
     Copy OK

Track  3
     Filename C:\Documents and Settings\James\Desktop\P.O.D\The Fundamental Elements Of Southtown\03 - Southtown .wav

     Peak level 98.8 %
     Track quality 100.0 %
     Test CRC C3949B1F
     Copy CRC C3949B1F
     Copy OK

Track  4
     Filename C:\Documents and Settings\James\Desktop\P.O.D\The Fundamental Elements Of Southtown\04 - Checkin' Levels .wav

     Pre-gap length  0:00:00.96

     Peak level 98.8 %
     Track quality 99.8 %
     Test CRC 39E1E126
     Copy CRC 39E1E126
     Copy OK

Track  5
     Filename C:\Documents and Settings\James\Desktop\P.O.D\The Fundamental Elements Of Southtown\05 - Rock The Party (Off The Hook) .wav

     Peak level 98.8 %
     Track quality 100.0 %
     Test CRC 50E1C2BE
     Copy CRC 50E1C2BE
     Copy OK

Track  6
     Filename C:\Documents and Settings\James\Desktop\P.O.D\The Fundamental Elements Of Southtown\06 - Lie Down .wav

     Peak level 98.8 %
     Track quality 100.0 %
     Test CRC 9221A058
     Copy CRC 9221A058
     Copy OK

Track  7
     Filename C:\Documents and Settings\James\Desktop\P.O.D\The Fundamental Elements Of Southtown\07 - Set Your Eyes To Zion .wav

     Pre-gap length  0:00:00.29

     Peak level 98.8 %
     Track quality 100.0 %
     Test CRC 0515E0E2
     Copy CRC 0515E0E2
     Copy OK

Track  8
     Filename C:\Documents and Settings\James\Desktop\P.O.D\The Fundamental Elements Of Southtown\08 - Lo Siento .wav

     Pre-gap length  0:00:00.13

     Peak level 98.8 %
     Track quality 100.0 %
     Test CRC 8B3AB25E
     Copy CRC 8B3AB25E
     Copy OK

Track  9
     Filename C:\Documents and Settings\James\Desktop\P.O.D\The Fundamental Elements Of Southtown\09 - Bullet The Blue Sky .wav

     Pre-gap length  0:00:00.66

     Peak level 98.8 %
     Track quality 100.0 %
     Test CRC 15CEBEBF
     Copy CRC 15CEBEBF
     Copy OK

Track 10
     Filename C:\Documents and Settings\James\Desktop\P.O.D\The Fundamental Elements Of Southtown\10 - Psalm 150 .wav

     Pre-gap length  0:00:00.93

     Peak level 77.5 %
     Track quality 100.0 %
     Test CRC 202459BB
     Copy CRC 202459BB
     Copy OK

Track 11
     Filename C:\Documents and Settings\James\Desktop\P.O.D\The Fundamental Elements Of Southtown\11 - Image .wav

     Peak level 98.8 %
     Track quality 100.0 %
     Test CRC FB458E91
     Copy CRC FB458E91
     Copy OK

Track 12
     Filename C:\Documents and Settings\James\Desktop\P.O.D\The Fundamental Elements Of Southtown\12 - Shouts .wav

     Peak level 98.8 %
     Track quality 100.0 %
     Test CRC 948920AF
     Copy CRC 948920AF
     Copy OK

Track 13
     Filename C:\Documents and Settings\James\Desktop\P.O.D\The Fundamental Elements Of Southtown\13 - Tribal .wav

     Pre-gap length  0:00:00.46

     Peak level 98.8 %
     Track quality 99.9 %
     Test CRC 7606004F
     Copy CRC 7606004F
     Copy OK

Track 14
     Filename C:\Documents and Settings\James\Desktop\P.O.D\The Fundamental Elements Of Southtown\14 - Freestyle .wav

     Peak level 98.8 %
     Track quality 100.0 %
     Test CRC 3FE604B2
     Copy CRC 3FE604B2
     Copy OK

Track 15
     Filename C:\Documents and Settings\James\Desktop\P.O.D\The Fundamental Elements Of Southtown\15 - Follow Me .wav

     Peak level 98.8 %
     Track quality 100.0 %
     Test CRC 7A6FC599
     Copy CRC 7A6FC599
     Copy OK

Track 16
     Filename C:\Documents and Settings\James\Desktop\P.O.D\The Fundamental Elements Of Southtown\16 - Outkast .wav

     Pre-gap length  0:00:00.13

     Peak level 100.0 %
     Track quality 99.9 %
     Test CRC 3A3A2E81
     Copy CRC 3A3A2E81
     Copy OK

No errors occured

End of status report

Код:

REM GENRE Alternative
REM DATE 1999
PERFORMER "P.O.D."
TITLE "The Fundamental Elements Of Southtown"
FILE "P.O.D. - The Fundamental Elements Of Southtown.flac" WAVE
  TRACK 01 AUDIO
    TITLE "Greetings"
    INDEX 01 00:00:00
  TRACK 02 AUDIO
    TITLE "Hollywood"
    INDEX 01 01:29:58
  TRACK 03 AUDIO
    TITLE "Southtown"
    INDEX 01 06:52:10
  TRACK 04 AUDIO
    TITLE "Checkin' Levels"
    INDEX 01 11:00:35
  TRACK 05 AUDIO
    TITLE "Rock The Party (Off The Hook)"
    INDEX 01 12:06:38
  TRACK 06 AUDIO
    TITLE "Lie Down"
    INDEX 01 15:31:05
  TRACK 07 AUDIO
    TITLE "Set Your Eyes To Zion"
    INDEX 01 20:40:05
  TRACK 08 AUDIO
    TITLE "Lo Siento"
    INDEX 01 24:46:63
  TRACK 09 AUDIO
    TITLE "Bullet The Blue Sky"
    INDEX 01 25:19:68
  TRACK 10 AUDIO
    TITLE "Psalm 150"
    INDEX 01 30:38:38
  TRACK 11 AUDIO
    TITLE "Image"
    INDEX 01 31:34:28
  TRACK 12 AUDIO
    TITLE "Shouts"
    INDEX 01 35:07:08
  TRACK 13 AUDIO
    TITLE "Tribal"
    INDEX 01 36:03:03
  TRACK 14 AUDIO
    TITLE "Freestyle"
    INDEX 01 40:29:23
  TRACK 15 AUDIO
    TITLE "Follow Me"
    INDEX 01 44:26:50
  TRACK 16 AUDIO
    TITLE "Outkast"
    INDEX 01 48:10:15
Трэклист:
01. Set It Off
02. Alive
03. Boom
04. Youth Of The Nation
05. Celestial
06. Satellite
07. Ridiculous [Featuring Eek-A-Mouse]
08. The Messenjah
09. Guitarras De Amor
10. Anything Right [Featuring Christian Of Blindside]
11. Ghetto
12. Masterpiece Conspiracy
13. Without Jah, Nothin' [Featuring H.R.]
14. Thinking About Forever
15. Portrait

Код:

Exact Audio Copy V0.99 prebeta 4 from 23. January 2008

Отчёт EAC об извлечении, выполненном 4. июня 2008, 18:40

P.O.D. / Satellite

Дисковод: ASUS    DRW-1814BLT   Adapter: 1  ID: 0

Режим чтения                 : Достоверность
Использование точного потока : Да
Отключение кэша аудио        : Да
Использование указателей C2  : Нет

Коррекция смещения при чтении                     : 6
Способность читать области Lead-in и Lead-out     : Нет
Заполнение пропущенных сэмплов тишиной            : Да
Удаление блоков с тишиной в начале и конце        : Нет
При вычислениях CRC использовались нулевые сэмплы : Да
Интерфейс                                         : Встроенный Win32-интерфейс для Win NT/2000

Выходной формат : Внутренние WAV-операции
Формат сэмплов  : 44.100 Гц; 16 бит; стерео

TOC извлечённого CD

     Трек |   Старт  | Длительность | Начальный сектор | Конечный сектор
    ---------------------------------------------------------------------
       1  |  0:00.32 |    4:16.25   |          32      |      19256     
       2  |  4:16.57 |    3:23.48   |       19257      |      34529     
       3  |  7:40.30 |    3:08.60   |       34530      |      48689     
       4  | 10:49.15 |    4:19.25   |       48690      |      68139     
       5  | 15:08.40 |    1:24.62   |       68140      |      74501     
       6  | 16:33.27 |    3:30.65   |       74502      |      90316     
       7  | 20:04.17 |    4:17.58   |       90317      |     109649     
       8  | 24:22.00 |    4:19.30   |      109650      |     129104     
       9  | 28:41.30 |    1:14.62   |      129105      |     134716     
      10  | 29:56.17 |    4:17.65   |      134717      |     154056     
      11  | 34:14.07 |    3:37.33   |      154057      |     170364     
      12  | 37:51.40 |    3:11.55   |      170365      |     184744     
      13  | 41:03.20 |    3:42.10   |      184745      |     201404     
      14  | 44:45.30 |    3:46.25   |      201405      |     218379     
      15  | 48:31.55 |    4:32.32   |      218380      |     238811     

Характеристики диапазона извлечения и сообщения об ошибках

Выбранный диапазон

     Имя файла C:\Users\General\Music\P.O.D. - Satellite.wav

     Пиковый уровень 99.8 %
     Качество диапазона 99.9 %
     CRC копии BDB3D906
     Копирование... OK

Ошибок не произошло

Конец отчёта

Код:

REM GENRE Alternative
REM DATE 2001
REM DISCID DA0C700F
REM COMMENT "ExactAudioCopy v0.99pb4"
PERFORMER "P.O.D."
TITLE "Satellite"
FILE "P.O.D. - Satellite.flac" WAVE
  TRACK 01 AUDIO
    TITLE "Set It Off"
    PERFORMER "P.O.D."
    INDEX 00 00:00:00
    INDEX 01 00:00:32
  TRACK 02 AUDIO
    TITLE "Alive"
    PERFORMER "P.O.D."
    INDEX 01 04:16:57
  TRACK 03 AUDIO
    TITLE "Boom"
    PERFORMER "P.O.D."
    INDEX 00 07:39:37
    INDEX 01 07:40:30
  TRACK 04 AUDIO
    TITLE "Youth of the Nation"
    PERFORMER "P.O.D."
    INDEX 00 10:46:22
    INDEX 01 10:49:15
  TRACK 05 AUDIO
    TITLE "Celestial"
    PERFORMER "P.O.D."
    INDEX 00 15:06:15
    INDEX 01 15:08:40
  TRACK 06 AUDIO
    TITLE "Satellite"
    PERFORMER "P.O.D."
    INDEX 01 16:33:27
  TRACK 07 AUDIO
    TITLE "Ridiculous"
    PERFORMER "P.O.D."
    INDEX 01 20:04:17
  TRACK 08 AUDIO
    TITLE "The Messenjah"
    PERFORMER "P.O.D."
    INDEX 00 24:21:20
    INDEX 01 24:22:00
  TRACK 09 AUDIO
    TITLE "Guitarras de Amor"
    PERFORMER "P.O.D."
    INDEX 00 28:39:37
    INDEX 01 28:41:30
  TRACK 10 AUDIO
    TITLE "Anything Right"
    PERFORMER "P.O.D."
    INDEX 01 29:56:17
  TRACK 11 AUDIO
    TITLE "Ghetto"
    PERFORMER "P.O.D."
    INDEX 00 34:13:47
    INDEX 01 34:14:07
  TRACK 12 AUDIO
    TITLE "Masterpiece Conspiracy"
    PERFORMER "P.O.D."
    INDEX 00 37:51:02
    INDEX 01 37:51:40
  TRACK 13 AUDIO
    TITLE "Without Jah, Nothin'"
    PERFORMER "P.O.D."
    INDEX 01 41:03:20
  TRACK 14 AUDIO
    TITLE "Thinking About Forever"
    PERFORMER "P.O.D."
    INDEX 00 44:43:35
    INDEX 01 44:45:30
  TRACK 15 AUDIO
    TITLE "Portrait"
    PERFORMER "P.O.D."
    INDEX 00 48:30:45
    INDEX 01 48:31:55
Трэклист:
01. Set It Off
02. Alive
03. Boom
04. Youth Of The Nation
05. Celestial
06. Satellite
07. Ridiculous [Featuring Eek-A-Mouse]
08. The Messenjah
09. Guitarras De Amor
10. Anything Right [Featuring Christian Of Blindside]
11. Ghetto
12. Masterpiece Conspiracy
13. Without Jah, Nothin' [Featuring H.R.]
14. Thinking About Forever
15. Portrait
16. Alive [Semi-Acoustic]
17. Youth Of The Nation [Conjure One Remix]
18. Boom [The Crystal Method Remix]

Код:

Exact Audio Copy V0.99 prebeta 4 from 23. January 2008

EAC extraction logfile from 8. May 2009, 3:56

P.O.D. / Satellite (Limited Edition)

Used drive : LITE-ON DVDRW SOHW-1213S Adapter: 0 ID: 1

Read mode : Secure
Utilize accurate stream : Yes
Defeat audio cache : Yes
Make use of C2 pointers : No

Read offset correction : 12
Overread into Lead-In and Lead-Out : No
Fill up missing offset samples with silence : Yes
Delete leading and trailing silent blocks : No
Null samples used in CRC calculations : Yes
Used interface : Native Win32 interface for Win NT & 2000
Gap handling : Appended to previous track

Used output format : User Defined Encoder
Selected bitrate : 320 kBit/s
Quality : High
Add ID3 tag : No
Command line compressor : C:\Program\Exact Audio Copy\Flac\flac.exe
Additional command line options : -V -8 -T "artist=%a" -T "title=%t" -T "album=%g" -T "date=%y" -T "tracknumber=%n" -T "genre=%m" %s

TOC of the extracted CD

Track | Start | Length | Start sector | End sector
---------------------------------------------------------
1 | 0:00.00 | 4:16.52 | 0 | 19251
2 | 4:16.52 | 3:23.33 | 19252 | 34509
3 | 7:40.10 | 3:08.60 | 34510 | 48669
4 | 10:48.70 | 4:19.22 | 48670 | 68116
5 | 15:08.17 | 1:25.05 | 68117 | 74496
6 | 16:33.22 | 3:30.65 | 74497 | 90311
7 | 20:04.12 | 4:17.65 | 90312 | 109651
8 | 24:22.02 | 4:19.08 | 109652 | 129084
9 | 28:41.10 | 1:14.67 | 129085 | 134701
10 | 29:56.02 | 4:18.08 | 134702 | 154059
11 | 34:14.10 | 3:37.25 | 154060 | 170359
12 | 37:51.35 | 3:11.52 | 170360 | 184736
13 | 41:03.12 | 3:41.70 | 184737 | 201381
14 | 44:45.07 | 3:46.25 | 201382 | 218356
15 | 48:31.32 | 4:33.15 | 218357 | 238846
16 | 53:04.47 | 3:25.03 | 238847 | 254224
17 | 56:29.50 | 3:55.30 | 254225 | 271879
18 | 60:25.05 | 3:16.72 | 271880 | 286651

Track 1

Filename C:\Documents and Settings\Administratцr\Mina dokument\Exact Audio Rip - FLAC\P.O.D. - 2002 - Satellite (Limited Edition)\01 - Set It Off.wav

Pre-gap length 0:00:02.00

Peak level 99.8 %
Track quality 99.9 %
Test CRC E50217C4
Copy CRC E50217C4
Accurately ripped (confidence 5) [4D7A968E]
Copy OK

Track 2

Filename C:\Documents and Settings\Administratцr\Mina dokument\Exact Audio Rip - FLAC\P.O.D. - 2002 - Satellite (Limited Edition)\02 - Alive.wav

Peak level 98.7 %
Track quality 100.0 %
Test CRC 2C5CC2BB
Copy CRC 2C5CC2BB
Accurately ripped (confidence 5) [E6DD8F38]
Copy OK

Track 3

Filename C:\Documents and Settings\Administratцr\Mina dokument\Exact Audio Rip - FLAC\P.O.D. - 2002 - Satellite (Limited Edition)\03 - Boom.wav

Peak level 98.6 %
Track quality 100.0 %
Test CRC 19067633
Copy CRC 19067633
Accurately ripped (confidence 5) [C64B76C0]
Copy OK

Track 4

Filename C:\Documents and Settings\Administratцr\Mina dokument\Exact Audio Rip - FLAC\P.O.D. - 2002 - Satellite (Limited Edition)\04 - Youth Of The Nation.wav

Pre-gap length 0:00:02.77

Peak level 99.8 %
Track quality 100.0 %
Test CRC EB5B5B32
Copy CRC EB5B5B32
Accurately ripped (confidence 5) [B7EFD445]
Copy OK

Track 5

Filename C:\Documents and Settings\Administratцr\Mina dokument\Exact Audio Rip - FLAC\P.O.D. - 2002 - Satellite (Limited Edition)\05 - Celestial.wav

Pre-gap length 0:00:02.13

Peak level 99.8 %
Track quality 100.0 %
Test CRC 08D4DD15
Copy CRC 08D4DD15
Accurately ripped (confidence 5) [52D086CE]
Copy OK

Track 6

Filename C:\Documents and Settings\Administratцr\Mina dokument\Exact Audio Rip - FLAC\P.O.D. - 2002 - Satellite (Limited Edition)\06 - Satellite.wav

Peak level 99.8 %
Track quality 99.9 %
Test CRC 42BD71E4
Copy CRC 42BD71E4
Accurately ripped (confidence 5) [C80AF083]
Copy OK

Track 7

Filename C:\Documents and Settings\Administratцr\Mina dokument\Exact Audio Rip - FLAC\P.O.D. - 2002 - Satellite (Limited Edition)\07 - Ridiculous (Featuring Eek-A-Mouse).wav

Peak level 99.8 %
Track quality 100.0 %
Test CRC 26A7D507
Copy CRC 26A7D507
Accurately ripped (confidence 5) [725F578B]
Copy OK

Track 8

Filename C:\Documents and Settings\Administratцr\Mina dokument\Exact Audio Rip - FLAC\P.O.D. - 2002 - Satellite (Limited Edition)\08 - The Messenjah.wav

Peak level 99.8 %
Track quality 100.0 %
Test CRC A394AE36
Copy CRC A394AE36
Accurately ripped (confidence 5) [D51B8C53]
Copy OK

Track 9

Filename C:\Documents and Settings\Administratцr\Mina dokument\Exact Audio Rip - FLAC\P.O.D. - 2002 - Satellite (Limited Edition)\09 - Guitarras De Amor.wav

Pre-gap length 0:00:01.72

Peak level 86.4 %
Track quality 100.0 %
Test CRC 45789996
Copy CRC 45789996
Accurately ripped (confidence 5) [76FDDD53]
Copy OK

Track 10

Filename C:\Documents and Settings\Administratцr\Mina dokument\Exact Audio Rip - FLAC\P.O.D. - 2002 - Satellite (Limited Edition)\10 - Anything Right (Featuring Christian Of Blindside).wav

Peak level 99.8 %
Track quality 100.0 %
Test CRC 1E8A450D
Copy CRC 1E8A450D
Accurately ripped (confidence 5) [6DFEC1B4]
Copy OK

Track 11

Filename C:\Documents and Settings\Administratцr\Mina dokument\Exact Audio Rip - FLAC\P.O.D. - 2002 - Satellite (Limited Edition)\11 - Ghetto.wav

Peak level 99.8 %
Track quality 100.0 %
Test CRC E059EC47
Copy CRC E059EC47
Accurately ripped (confidence 5) [79B55221]
Copy OK

Track 12

Filename C:\Documents and Settings\Administratцr\Mina dokument\Exact Audio Rip - FLAC\P.O.D. - 2002 - Satellite (Limited Edition)\12 - Masterpiece Conspiracy.wav

Peak level 99.8 %
Track quality 100.0 %
Test CRC 9E4E56E9
Copy CRC 9E4E56E9
Accurately ripped (confidence 5) [00629EC5]
Copy OK

Track 13

Filename C:\Documents and Settings\Administratцr\Mina dokument\Exact Audio Rip - FLAC\P.O.D. - 2002 - Satellite (Limited Edition)\13 - Without Jah, Nothin' (Featuring H.R.).wav

Peak level 99.8 %
Track quality 100.0 %
Test CRC 570C5B31
Copy CRC 570C5B31
Accurately ripped (confidence 5) [4601156E]
Copy OK

Track 14

Filename C:\Documents and Settings\Administratцr\Mina dokument\Exact Audio Rip - FLAC\P.O.D. - 2002 - Satellite (Limited Edition)\14 - Thinking About Forever.wav

Pre-gap length 0:00:01.76

Peak level 99.8 %
Track quality 100.0 %
Test CRC 7CC21155
Copy CRC 7CC21155
Accurately ripped (confidence 5) [3AE3EE38]
Copy OK

Track 15

Filename C:\Documents and Settings\Administratцr\Mina dokument\Exact Audio Rip - FLAC\P.O.D. - 2002 - Satellite (Limited Edition)\15 - Portrait.wav

Peak level 99.8 %
Track quality 100.0 %
Test CRC 49727047
Copy CRC 49727047
Accurately ripped (confidence 5) [4378C636]
Copy OK

Track 16

Filename C:\Documents and Settings\Administratцr\Mina dokument\Exact Audio Rip - FLAC\P.O.D. - 2002 - Satellite (Limited Edition)\16 - Alive (Semi-Acoustic).wav

Peak level 98.7 %
Track quality 100.0 %
Test CRC 838D4890
Copy CRC 838D4890
Accurately ripped (confidence 5) [F0245D22]
Copy OK

Track 17

Filename C:\Documents and Settings\Administratцr\Mina dokument\Exact Audio Rip - FLAC\P.O.D. - 2002 - Satellite (Limited Edition)\17 - Youth Of The Nation (Conjure One Remix).wav

Pre-gap length 0:00:01.57

Peak level 99.8 %
Track quality 100.0 %
Test CRC DD55DCDD
Copy CRC DD55DCDD
Accurately ripped (confidence 5) [F833EDBE]
Copy OK

Track 18

Filename C:\Documents and Settings\Administratцr\Mina dokument\Exact Audio Rip - FLAC\P.O.D. - 2002 - Satellite (Limited Edition)\18 - Boom (The Crystal Method Remix).wav

Peak level 99.8 %
Track quality 100.0 %
Test CRC D6085F0C
Copy CRC D6085F0C
Accurately ripped (confidence 5) [149F472A]
Copy OK

All tracks accurately ripped

No errors occurred

End of status report

Код:

REM ACCURATERIPID 00290911-02233358-0e0eee12
REM GENRE "Nu Metal"
REM DATE 2002
REM DISCID 0E0EEE12
REM COMMENT "ExactAudioCopy v0.99pb4"
PERFORMER "P.O.D."
TITLE "Satellite [Limited Edition]"
CATALOG 7567-83597-2
FILE "P.O.D. - Satellite [Limited Edition].image_my.wav" WAVE
  TRACK 01 AUDIO
    PERFORMER "P.O.D."
    TITLE "Set It Off"
    INDEX 01 00:00:00
  TRACK 02 AUDIO
    PERFORMER "P.O.D."
    TITLE "Alive"
    INDEX 01 04:16:52
  TRACK 03 AUDIO
    PERFORMER "P.O.D."
    TITLE "Boom"
    INDEX 01 07:40:10
  TRACK 04 AUDIO
    PERFORMER "P.O.D."
    TITLE "Youth Of The Nation"
    INDEX 00 10:46:12
    INDEX 01 10:48:70
  TRACK 05 AUDIO
    PERFORMER "P.O.D."
    TITLE "Celestial"
    INDEX 00 15:06:07
    INDEX 01 15:08:17
  TRACK 06 AUDIO
    PERFORMER "P.O.D."
    TITLE "Satellite"
    INDEX 01 16:33:22
  TRACK 07 AUDIO
    PERFORMER "P.O.D."
    TITLE "Ridiculous [Featuring Eek-A-Mouse]"
    INDEX 01 20:04:12
  TRACK 08 AUDIO
    PERFORMER "P.O.D."
    TITLE "The Messenjah"
    INDEX 01 24:22:02
  TRACK 09 AUDIO
    PERFORMER "P.O.D."
    TITLE "Guitarras De Amor"
    INDEX 00 28:39:31
    INDEX 01 28:41:10
  TRACK 10 AUDIO
    PERFORMER "P.O.D."
    TITLE "Anything Right [Featuring Christian Of Blindside]"
    INDEX 01 29:56:02
  TRACK 11 AUDIO
    PERFORMER "P.O.D."
    TITLE "Ghetto"
    INDEX 01 34:14:10
  TRACK 12 AUDIO
    PERFORMER "P.O.D."
    TITLE "Masterpiece Conspiracy"
    INDEX 01 37:51:35
  TRACK 13 AUDIO
    PERFORMER "P.O.D."
    TITLE "Without Jah, Nothin' [Featuring H.R.]"
    INDEX 01 41:03:12
  TRACK 14 AUDIO
    PERFORMER "P.O.D."
    TITLE "Thinking About Forever"
    INDEX 00 44:43:25
    INDEX 01 44:45:07
  TRACK 15 AUDIO
    PERFORMER "P.O.D."
    TITLE "Portrait"
    INDEX 01 48:31:32
  TRACK 16 AUDIO
    PERFORMER "P.O.D."
    TITLE "Alive [Semi-Acoustic]"
    INDEX 01 53:04:47
  TRACK 17 AUDIO
    PERFORMER "P.O.D."
    TITLE "Youth Of The Nation [Conjure One Remix]"
    INDEX 00 56:28:07
    INDEX 01 56:29:50
  TRACK 18 AUDIO
    PERFORMER "P.O.D."
    TITLE "Boom [The Crystal Method Remix]"
    INDEX 01 60:25:05
Трэклист:
01. Wildfire
02. Will You?
03. Change The World
04. Execute The Sounds
05. Find My Way
06. Revolution
07. The Reasons
08. Freedom Fighters
09. Waiting On Today
10. I And Identify
11. Asthma
12. Eternal
13. Sleeping Awake [bonus track]

Код:

Exact Audio Copy V0.99 prebeta 4 from 23. January 2008

Отчёт EAC об извлечении, выполненном 4. июня 2008, 15:35

P.O.D. / Payable On Death

Дисковод: ASUS    DRW-1814BLT   Adapter: 1  ID: 0

Режим чтения                 : Достоверность
Использование точного потока : Да
Отключение кэша аудио        : Да
Использование указателей C2  : Нет

Коррекция смещения при чтении                     : 6
Способность читать области Lead-in и Lead-out     : Нет
Заполнение пропущенных сэмплов тишиной            : Да
Удаление блоков с тишиной в начале и конце        : Нет
При вычислениях CRC использовались нулевые сэмплы : Да
Интерфейс                                         : Встроенный Win32-интерфейс для Win NT/2000

Выходной формат : Внутренние WAV-операции
Формат сэмплов  : 44.100 Гц; 16 бит; стерео

TOC извлечённого CD

     Трек |   Старт  | Длительность | Начальный сектор | Конечный сектор
    ---------------------------------------------------------------------
       1  |  0:00.00 |    3:15.62   |           0      |      14686     
       2  |  3:15.62 |    3:47.18   |       14687      |      31729     
       3  |  7:03.05 |    3:03.57   |       31730      |      45511     
       4  | 10:06.62 |    3:01.03   |       45512      |      59089     
       5  | 13:07.65 |    3:09.40   |       59090      |      73304     
       6  | 16:17.30 |    3:25.35   |       73305      |      88714     
       7  | 19:42.65 |    3:44.50   |       88715      |     105564     
       8  | 23:27.40 |    4:12.20   |      105565      |     124484     
       9  | 27:39.60 |    3:06.47   |      124485      |     138481     
      10  | 30:46.32 |    3:15.05   |      138482      |     153111     
      11  | 34:01.37 |    4:01.23   |      153112      |     171209     
      12  | 38:02.60 |    6:20.22   |      171210      |     199731     
      13  | 44:23.07 |    3:22.53   |      199732      |     214934     
      14  | 50:17.60 |   16:13.08   |      226335      |     299317     

Характеристики диапазона извлечения и сообщения об ошибках

Выбранный диапазон

     Имя файла C:\Users\General\Music\P.O.D. - Payable On Death.wav

     Пиковый уровень 98.8 %
     Качество диапазона 100.0 %
     CRC копии D3C8E5D3
     Копирование... OK

Ошибок не произошло

Конец отчёта

Код:

REM GENRE Alternative
REM DATE 2003
REM DISCID D50F960E
REM COMMENT "ExactAudioCopy v0.99pb4"
PERFORMER "P.O.D."
TITLE "Payable On Death"
FILE "P.O.D. - Payable On Death.wav" WAVE
  TRACK 01 AUDIO
    TITLE "Wildfire"
    PERFORMER "P.O.D."
    INDEX 01 00:00:00
  TRACK 02 AUDIO
    TITLE "Will You?"
    PERFORMER "P.O.D."
    INDEX 01 03:15:62
  TRACK 03 AUDIO
    TITLE "Change The World"
    PERFORMER "P.O.D."
    INDEX 01 07:03:05
  TRACK 04 AUDIO
    TITLE "Execute The Sounds"
    PERFORMER "P.O.D."
    INDEX 01 10:06:62
  TRACK 05 AUDIO
    TITLE "Find My Way"
    PERFORMER "P.O.D."
    INDEX 01 13:07:65
  TRACK 06 AUDIO
    TITLE "Revolution"
    PERFORMER "P.O.D."
    INDEX 01 16:17:30
  TRACK 07 AUDIO
    TITLE "The Reasons"
    PERFORMER "P.O.D."
    INDEX 01 19:42:65
  TRACK 08 AUDIO
    TITLE "Freedom Fighters"
    PERFORMER "P.O.D."
    INDEX 01 23:27:40
  TRACK 09 AUDIO
    TITLE "Waiting On Today"
    PERFORMER "P.O.D."
    INDEX 01 27:39:60
  TRACK 10 AUDIO
    TITLE "I And Identify"
    PERFORMER "P.O.D."
    INDEX 01 30:46:32
  TRACK 11 AUDIO
    TITLE "Asthma"
    PERFORMER "P.O.D."
    INDEX 01 34:01:37
  TRACK 12 AUDIO
    TITLE "Eternal (Instrumental)"
    PERFORMER "P.O.D."
    INDEX 01 38:02:60
  TRACK 13 AUDIO
    TITLE "Sleeping Awake"
    PERFORMER "P.O.D."
    INDEX 01 44:23:07
Трэклист:
01. Roots In Stereo
02. Lights Out
03. If You Could See Me Now
04. Goodbye For Now
05. Sounds Like War
06. On The Grind
07. This Time
08. Mistakes & Glories
09. Let You Down
10. Teachers
11. Strength Of My Life
12. Say Hello
13. Mark My Words

Код:

EAC extraction logfile from 8. April 2007, 22:03 for CD
P.O.D. / Testify

Used drive  : _NEC    DVD_RW ND-3550A   Adapter: 0  ID: 0
Read mode   : Secure with NO C2, accurate stream, disable cache
Read offset correction : 0
Overread into Lead-In and Lead-Out : No

Used output format : D:\the rest\downloads\Software\DVD1\flac-1.1.4-win\bin\flac.exe   (User Defined Encoder)
                     256 kBit/s
                     Additional command line options : -8 -A tukey(0.25) -A gauss(0.1875) -b 4096 -V -T "artist=%a" -T "title=%t" -T "album=%g" -T "date=%y" -T "tracknumber=%n" -T "genre=%m" %s --sector-align

Other options      :
    Fill up missing offset samples with silence : Yes
    Delete leading and trailing silent blocks : No
    Installed external ASPI interface

Track  1
     Filename D:\Music\P.O.D. - Testify\01 - P.O.D. - Roots In Stereo.wav

     Peak level 96.6 %
     Track quality 99.9 %
     Copy CRC 7315A1EB
     Copy OK

Track  2
     Filename D:\Music\P.O.D. - Testify\02 - P.O.D. - Lights Out.wav

     Peak level 96.6 %
     Track quality 100.0 %
     Copy CRC 6A668C7D
     Copy OK

Track  3
     Filename D:\Music\P.O.D. - Testify\03 - P.O.D. - If You Could See Me Now.wav

     Peak level 96.6 %
     Track quality 100.0 %
     Copy CRC 6CD426C7
     Copy OK

Track  4
     Filename D:\Music\P.O.D. - Testify\04 - P.O.D. - Goodbye For Now.wav

     Peak level 96.6 %
     Track quality 99.9 %
     Copy CRC 7B7E7B76
     Copy OK

Track  5
     Filename D:\Music\P.O.D. - Testify\05 - P.O.D. - Sounds Like War.wav

     Peak level 96.6 %
     Track quality 100.0 %
     Copy CRC D37FEA01
     Copy OK

Track  6
     Filename D:\Music\P.O.D. - Testify\06 - P.O.D. - On The Grind.wav

     Peak level 96.6 %
     Track quality 100.0 %
     Copy CRC F59365DA
     Copy OK

Track  7
     Filename D:\Music\P.O.D. - Testify\07 - P.O.D. - This Time.wav

     Peak level 96.6 %
     Track quality 99.9 %
     Copy CRC 9D498726
     Copy OK

Track  8
     Filename D:\Music\P.O.D. - Testify\08 - P.O.D. - Mistakes & Glories.wav

     Peak level 96.6 %
     Track quality 100.0 %
     Copy CRC CFC7DE76
     Copy OK

Track  9
     Filename D:\Music\P.O.D. - Testify\09 - P.O.D. - Let You Down.wav

     Peak level 96.6 %
     Track quality 100.0 %
     Copy CRC 68908705
     Copy OK

Track 10
     Filename D:\Music\P.O.D. - Testify\10 - P.O.D. - Teachers.wav

     Peak level 96.6 %
     Track quality 100.0 %
     Copy CRC A393BEA6
     Copy OK

Track 11
     Filename D:\Music\P.O.D. - Testify\11 - P.O.D. - Strength Of My Life.wav

     Peak level 96.6 %
     Track quality 99.9 %
     Copy CRC 36346A3D
     Copy OK

Track 12
     Filename D:\Music\P.O.D. - Testify\12 - P.O.D. - Say Hello.wav

     Peak level 96.6 %
     Track quality 100.0 %
     Copy CRC 5D8508B8
     Copy OK

Track 13
     Filename D:\Music\P.O.D. - Testify\13 - P.O.D. - Mark My Words.wav

     Peak level 96.6 %
     Track quality 100.0 %
     Copy CRC 9466E9C4
     Copy OK

No errors occured

End of status report

Код:

REM GENRE Alternative
REM DATE 2006
PERFORMER "P.O.D."
TITLE "Testify"
FILE "P.O.D. - Testify.flac" WAVE
  TRACK 01 AUDIO
    TITLE "Roots In Stereo"
    INDEX 01 00:00:00
  TRACK 02 AUDIO
    TITLE "Lights Out"
    INDEX 01 04:42:47
  TRACK 03 AUDIO
    TITLE "If You Could See Me Now"
    INDEX 01 07:29:72
  TRACK 04 AUDIO
    TITLE "Goodbye For Now"
    INDEX 01 10:37:61
  TRACK 05 AUDIO
    TITLE "Sounds Like War"
    INDEX 01 15:12:55
  TRACK 06 AUDIO
    TITLE "On The Grind"
    INDEX 01 19:05:26
  TRACK 07 AUDIO
    TITLE "This Time"
    INDEX 01 23:30:03
  TRACK 08 AUDIO
    TITLE "Mistakes & Glories"
    INDEX 01 28:11:22
  TRACK 09 AUDIO
    TITLE "Let You Down"
    INDEX 01 31:49:29
  TRACK 10 AUDIO
    TITLE "Teachers"
    INDEX 01 36:04:25
  TRACK 11 AUDIO
    TITLE "Strength Of My Life"
    INDEX 01 40:26:17
  TRACK 12 AUDIO
    TITLE "Say Hello"
    INDEX 01 44:03:60
  TRACK 13 AUDIO
    TITLE "Mark My Words"
    INDEX 01 46:36:02
Трэклист:
01. Addicted
02. Shine With Me
03. Condescending
04. It Can't Rain Every Day
05. Kaliforn-Eye-A [Feat. Mike Muir]
06. I'll Be Ready [Feat. The Marley Girls]
07. The End Of The World
08. This Ain't No Ordinary Love Song
09. God Forbid [Feat. Page Hamilton]
10. Roman Empire
11. When Angels & Serpents Dance
12. Tell Me Why
13. Rise Against

Код:

Exact Audio Copy V0.99 prebeta 5 from 4. May 2009

EAC extraction logfile from 18. February 2010, 9:50

P.O.D. / When Angels And Serpents Dance

Used drive  : HL-DT-STDVD-RAM GSA-H55N   Adapter: 0  ID: 0

Read mode               : Secure
Utilize accurate stream : Yes
Defeat audio cache      : Yes
Make use of C2 pointers : No

Read offset correction                      : 102
Overread into Lead-In and Lead-Out          : No
Fill up missing offset samples with silence : Yes
Delete leading and trailing silent blocks   : No
Null samples used in CRC calculations       : Yes
Used interface                              : Native Win32 interface for Win NT & 2000
Gap handling                                : Appended to previous track

Used output format              : User Defined Encoder
Selected bitrate                : 768 kBit/s
Quality                         : High
Add ID3 tag                     : No
Command line compressor         : C:\Program Files\Exact Audio Copy\FLAC\FLAC.EXE
Additional command line options : -8 -V -T "ARTIST=%a" -T "TITLE=%t" -T "ALBUM=%g" -T "DATE=%y" -T "TRACKNUMBER=%n" -T "GENRE=%m" -T "COMMENT=%e" %s -o %d

TOC of the extracted CD

     Track |   Start  |  Length  | Start sector | End sector
    ---------------------------------------------------------
        1  |  0:00.00 |  3:32.19 |         0    |    15918   
        2  |  3:32.19 |  3:32.16 |     15919    |    31834   
        3  |  7:04.35 |  4:02.09 |     31835    |    49993   
        4  | 11:06.44 |  4:42.50 |     49994    |    71193   
        5  | 15:49.19 |  4:29.70 |     71194    |    91438   
        6  | 20:19.14 |  4:43.04 |     91439    |   112667   
        7  | 25:02.18 |  4:34.15 |    112668    |   133232   
        8  | 29:36.33 |  3:43.66 |    133233    |   150023   
        9  | 33:20.24 |  3:55.06 |    150024    |   167654   
       10  | 37:15.30 |  2:42.24 |    167655    |   179828   
       11  | 39:57.54 |  3:16.28 |    179829    |   194556   
       12  | 43:14.07 |  3:19.25 |    194557    |   209506   
       13  | 46:33.32 |  4:52.55 |    209507    |   231461   

Track  1

     Filename C:\Documents and Settings\Scan14\Мои документы\Моя музыка\flac\P.O.D. - When Angels And Serpents Dance - 01 - Addicted.wav

     Pre-gap length  0:00:02.00

     Peak level 100.0 %
     Track quality 100.0 %
     Test CRC 9FA162C0
     Copy CRC 9FA162C0
     Accurately ripped (confidence 28)  [3173A0B3]
     Copy OK

Track  2

     Filename C:\Documents and Settings\Scan14\Мои документы\Моя музыка\flac\P.O.D. - When Angels And Serpents Dance - 02 - Shine With Me.wav

     Peak level 100.0 %
     Track quality 100.0 %
     Test CRC 6814902C
     Copy CRC 6814902C
     Accurately ripped (confidence 28)  [52E6E83F]
     Copy OK

Track  3

     Filename C:\Documents and Settings\Scan14\Мои документы\Моя музыка\flac\P.O.D. - When Angels And Serpents Dance - 03 - Condescending.wav

     Peak level 100.0 %
     Track quality 100.0 %
     Test CRC FD4DB1D3
     Copy CRC FD4DB1D3
     Accurately ripped (confidence 28)  [2CD09582]
     Copy OK

Track  4

     Filename C:\Documents and Settings\Scan14\Мои документы\Моя музыка\flac\P.O.D. - When Angels And Serpents Dance - 04 - It Can't Rain Everyday.wav

     Peak level 100.0 %
     Track quality 100.0 %
     Test CRC 76A5738B
     Copy CRC 76A5738B
     Accurately ripped (confidence 28)  [9B628D07]
     Copy OK

Track  5

     Filename C:\Documents and Settings\Scan14\Мои документы\Моя музыка\flac\P.O.D. - When Angels And Serpents Dance - 05 - Kaliforn-Eye-A.wav

     Peak level 100.0 %
     Track quality 100.0 %
     Test CRC A1B7FAB1
     Copy CRC A1B7FAB1
     Accurately ripped (confidence 28)  [57F8672C]
     Copy OK

Track  6

     Filename C:\Documents and Settings\Scan14\Мои документы\Моя музыка\flac\P.O.D. - When Angels And Serpents Dance - 06 - I'll Be Ready.wav

     Peak level 100.0 %
     Track quality 100.0 %
     Test CRC B4083691
     Copy CRC B4083691
     Accurately ripped (confidence 28)  [112C2DF3]
     Copy OK

Track  7

     Filename C:\Documents and Settings\Scan14\Мои документы\Моя музыка\flac\P.O.D. - When Angels And Serpents Dance - 07 - End Of The World.wav

     Peak level 100.0 %
     Track quality 100.0 %
     Test CRC 3580EAFA
     Copy CRC 3580EAFA
     Accurately ripped (confidence 28)  [A7B9EFF6]
     Copy OK

Track  8

     Filename C:\Documents and Settings\Scan14\Мои документы\Моя музыка\flac\P.O.D. - When Angels And Serpents Dance - 08 - This Ain't No Ordinary Love Song.wav

     Peak level 100.0 %
     Track quality 100.0 %
     Test CRC 91A4F4C5
     Copy CRC 91A4F4C5
     Accurately ripped (confidence 28)  [74EE792D]
     Copy OK

Track  9

     Filename C:\Documents and Settings\Scan14\Мои документы\Моя музыка\flac\P.O.D. - When Angels And Serpents Dance - 09 - God Forbid.wav

     Peak level 100.0 %
     Track quality 99.9 %
     Test CRC 67BEF05F
     Copy CRC 67BEF05F
     Accurately ripped (confidence 28)  [F73071C0]
     Copy OK

Track 10

     Filename C:\Documents and Settings\Scan14\Мои документы\Моя музыка\flac\P.O.D. - When Angels And Serpents Dance - 10 - Roman Empire.wav

     Peak level 100.0 %
     Track quality 100.0 %
     Test CRC A3383730
     Copy CRC A3383730
     Accurately ripped (confidence 28)  [2200790B]
     Copy OK

Track 11

     Filename C:\Documents and Settings\Scan14\Мои документы\Моя музыка\flac\P.O.D. - When Angels And Serpents Dance - 11 - When Angels And Serpents Dance.wav

     Peak level 100.0 %
     Track quality 100.0 %
     Test CRC D16DE186
     Copy CRC D16DE186
     Accurately ripped (confidence 28)  [5B9BD788]
     Copy OK

Track 12

     Filename C:\Documents and Settings\Scan14\Мои документы\Моя музыка\flac\P.O.D. - When Angels And Serpents Dance - 12 - Tell My Why.wav

     Peak level 100.0 %
     Track quality 100.0 %
     Test CRC F1C5EE6B
     Copy CRC F1C5EE6B
     Accurately ripped (confidence 28)  [07BECC71]
     Copy OK

Track 13

     Filename C:\Documents and Settings\Scan14\Мои документы\Моя музыка\flac\P.O.D. - When Angels And Serpents Dance - 13 - Rise Against.wav

     Peak level 100.0 %
     Track quality 100.0 %
     Test CRC 709E4D63
     Copy CRC 709E4D63
     Accurately ripped (confidence 26)  [C253039C]
     Copy OK

All tracks accurately ripped

No errors occurred

End of status report

Код:

REM GENRE Alternative
REM DATE 2008
PERFORMER "P.O.D."
TITLE "When Angels & Serpents Dance"
FILE "P.O.D. - When Angels & Serpents Dance.flac" WAVE
  TRACK 01 AUDIO
    TITLE "Addicted"
    INDEX 01 00:00:00
  TRACK 02 AUDIO
    TITLE "Shine With Me"
    INDEX 01 03:32:19
  TRACK 03 AUDIO
    TITLE "Condescending"
    INDEX 01 07:04:35
  TRACK 04 AUDIO
    TITLE "It Can't Rain Everyday"
    INDEX 01 11:06:44
  TRACK 05 AUDIO
    TITLE "Kaliforn-Eye-A (Feat. Mike Muir)"
    INDEX 01 15:49:19
  TRACK 06 AUDIO
    TITLE "I'll Be Ready (Feat. The Marley Girls)"
    INDEX 01 20:19:14
  TRACK 07 AUDIO
    TITLE "End Of The World"
    INDEX 01 25:02:18
  TRACK 08 AUDIO
    TITLE "This Ain't No Ordinary Love Song"
    INDEX 01 29:36:33
  TRACK 09 AUDIO
    TITLE "God Forbid (Feat. Page Hamilton)"
    INDEX 01 33:20:24
  TRACK 10 AUDIO
    TITLE "Roman Empire"
    INDEX 01 37:15:30
  TRACK 11 AUDIO
    TITLE "When Angels & Serpents Dance"
    INDEX 01 39:57:54
  TRACK 12 AUDIO
    TITLE "Tell Me Why"
    INDEX 01 43:14:07
  TRACK 13 AUDIO
    TITLE "Rise Against"
    INDEX 01 46:33:32
Трэклист:
01. Eyez (feat. Jamey Jasta Of Hatebreed) [02:46]
02. Murdered Love (feat. Sick Jacken Of Psycho Realm) [03:44]
03. Higher [03:22]
04. Lost In Forever (Screams)[04:05]
05. West Coast Rock Steady (feat. Sen Dog Of Cypress Hill) [03:05]
06. Beautiful [03:52]
07. Babylon The Murderer [04:18]
08. On Fire [03:43]
09. Bad Boy [03:18]
10. Panic & Run [03:15]
11. I Am [05:09]

Код:

Exact Audio Copy V1.0 beta 3 from 29. August 2011

EAC extraction logfile from 7. July 2012, 15:58

P.O.D. / Murdered Love

Used drive  : PLDS    DVD+-RW DS-8A5SH   Adapter: 1  ID: 0

Read mode               : Secure
Utilize accurate stream : Yes
Defeat audio cache      : Yes
Make use of C2 pointers : No

Read offset correction                      : 6
Overread into Lead-In and Lead-Out          : No
Fill up missing offset samples with silence : Yes
Delete leading and trailing silent blocks   : No
Null samples used in CRC calculations       : Yes
Used interface                              : Native Win32 interface for Win NT & 2000
Gap handling                                : Appended to previous track

Used output format              : User Defined Encoder
Selected bitrate                : 32 kBit/s
Quality                         : High
Add ID3 tag                     : No
Command line compressor         : C:\Program Files (x86)\FLAC\flac.exe
Additional command line options : -T "artist=%artist%" -T "title=%title%" -T "album=%albumtitle%" -T "date=%year%" -T "tracknumber=%tracknr%" -T "genre=%genre%" -8 --verify %source%

TOC of the extracted CD

     Track |   Start  |  Length  | Start sector | End sector
    ---------------------------------------------------------
        1  |  0:00.00 |  2:46.40 |         0    |    12489
        2  |  2:46.40 |  3:44.71 |     12490    |    29360
        3  |  6:31.36 |  3:22.18 |     29361    |    44528
        4  |  9:53.54 |  4:05.56 |     44529    |    62959
        5  | 13:59.35 |  3:05.33 |     62960    |    76867
        6  | 17:04.68 |  3:52.74 |     76868    |    94341
        7  | 20:57.67 |  4:18.72 |     94342    |   113763
        8  | 25:16.64 |  3:43.52 |    113764    |   130540
        9  | 29:00.41 |  3:18.12 |    130541    |   145402
       10  | 32:18.53 |  3:15.60 |    145403    |   160087
       11  | 35:34.38 |  5:09.71 |    160088    |   183333

Track  1

     Filename G:\pod\201-P.O.D.-Eyez.wav

     Pre-gap length  0:00:02.00

     Peak level 96.5 %
     Extraction speed 2.5 X
     Track quality 100.0 %
     Test CRC 25AC3591
     Copy CRC 25AC3591
     Track not present in AccurateRip database
     Copy OK

Track  2

     Filename G:\pod\202-P.O.D.-Murdered_Love.wav

     Peak level 96.2 %
     Extraction speed 2.9 X
     Track quality 100.0 %
     Test CRC E0636864
     Copy CRC E0636864
     Track not present in AccurateRip database
     Copy OK

Track  3

     Filename G:\pod\203-P.O.D.-Higher.wav

     Peak level 96.5 %
     Extraction speed 3.1 X
     Track quality 100.0 %
     Test CRC DCBE7389
     Copy CRC DCBE7389
     Track not present in AccurateRip database
     Copy OK

Track  4

     Filename G:\pod\204-P.O.D.-Lost_In_Forever.wav

     Peak level 96.6 %
     Extraction speed 3.4 X
     Track quality 100.0 %
     Test CRC 8C8A511E
     Copy CRC 8C8A511E
     Track not present in AccurateRip database
     Copy OK

Track  5

     Filename G:\pod\205-P.O.D.-West_Coast_Rock_Steady.wav

     Peak level 96.6 %
     Extraction speed 3.5 X
     Track quality 100.0 %
     Test CRC 9C97DB37
     Copy CRC 9C97DB37
     Track not present in AccurateRip database
     Copy OK

Track  6

     Filename G:\pod\206-P.O.D.-Beautiful.wav

     Peak level 96.5 %
     Extraction speed 3.7 X
     Track quality 100.0 %
     Test CRC 98AAB163
     Copy CRC 98AAB163
     Track not present in AccurateRip database
     Copy OK

Track  7

     Filename G:\pod\207-P.O.D.-Babylon_The_Murderer.wav

     Peak level 96.6 %
     Extraction speed 3.4 X
     Track quality 99.9 %
     Test CRC 06CD30E6
     Copy CRC 06CD30E6
     Track not present in AccurateRip database
     Copy OK

Track  8

     Filename G:\pod\208-P.O.D.-On_Fire.wav

     Peak level 96.6 %
     Extraction speed 4.2 X
     Track quality 100.0 %
     Test CRC 113C7384
     Copy CRC 113C7384
     Track not present in AccurateRip database
     Copy OK

Track  9

     Filename G:\pod\209-P.O.D.-Bad_Boy.wav

     Peak level 96.5 %
     Extraction speed 4.2 X
     Track quality 100.0 %
     Test CRC 15509EDA
     Copy CRC 15509EDA
     Track not present in AccurateRip database
     Copy OK

Track 10

     Filename G:\pod\210-P.O.D.-Panic_&_Run.wav

     Peak level 96.6 %
     Extraction speed 4.4 X
     Track quality 100.0 %
     Test CRC EF81AC5B
     Copy CRC EF81AC5B
     Track not present in AccurateRip database
     Copy OK

Track 11

     Filename G:\pod\211-P.O.D.-I_Am.wav

     Peak level 96.6 %
     Extraction speed 4.8 X
     Track quality 100.0 %
     Test CRC 27570FF3
     Copy CRC 27570FF3
     Track not present in AccurateRip database
     Copy OK

None of the tracks are present in the AccurateRip database

No errors occurred

End of status report

==== Log checksum 932C85AEEB3D35FA7538BEE10336A9E8549AB8B8A5A17B4112FF063BBC9BA590 ====

Код:

REM GENRE Rock
REM DATE 2012
REM DISCID 91098C0B
REM COMMENT "Team PERFECT"
CATALOG 7930183330230
PERFORMER "P.O.D."
TITLE "Murdered Love"
FILE "01-p.o.d.-eyez.flac" WAVE
  TRACK 01 AUDIO
    TITLE "Eyez"
    PERFORMER "P.O.D."
    ISRC USRZR1233001
    FLAGS DCP
    INDEX 01 00:00:00
FILE "02-p.o.d.-murdered_love.flac" WAVE
  TRACK 02 AUDIO
    TITLE "Murdered Love"
    PERFORMER "P.O.D."
    ISRC USRZR1233002
    FLAGS DCP
    INDEX 01 00:00:00
FILE "03-p.o.d.-higher.flac" WAVE
  TRACK 03 AUDIO
    TITLE "Higher"
    PERFORMER "P.O.D."
    ISRC USRZR1233003
    FLAGS DCP
    INDEX 01 00:00:00
FILE "04-p.o.d.-lost_in_forever.flac" WAVE
  TRACK 04 AUDIO
    TITLE "Lost In Forever"
    PERFORMER "P.O.D."
    ISRC USRZR1233008
    FLAGS DCP
    INDEX 01 00:00:00
FILE "05-p.o.d.-west_coast_rock_steady.flac" WAVE
  TRACK 05 AUDIO
    TITLE "West Coast Rock Steady"
    PERFORMER "P.O.D."
    ISRC USRZR1233005
    FLAGS DCP
    INDEX 01 00:00:00
FILE "06-p.o.d.-beautiful.flac" WAVE
  TRACK 06 AUDIO
    TITLE "Beautiful"
    PERFORMER "P.O.D."
    ISRC USRZR1233006
    FLAGS DCP
    INDEX 01 00:00:00
FILE "07-p.o.d.-babylon_the_murderer.flac" WAVE
  TRACK 07 AUDIO
    TITLE "Babylon The Murderer"
    PERFORMER "P.O.D."
    ISRC USRZR1233004
    FLAGS DCP
    INDEX 01 00:00:00
FILE "08-p.o.d.-on_fire.flac" WAVE
  TRACK 08 AUDIO
    TITLE "On Fire"
    PERFORMER "P.O.D."
    ISRC USRZR1233007
    FLAGS DCP
    INDEX 01 00:00:00
FILE "09-p.o.d.-bad_boy.flac" WAVE
  TRACK 09 AUDIO
    TITLE "Bad Boy"
    PERFORMER "P.O.D."
    ISRC USRZR1233009
    FLAGS DCP
    INDEX 01 00:00:00
FILE "10-p.o.d.-panic_and_run.flac" WAVE
  TRACK 10 AUDIO
    TITLE "Panic & Run"
    PERFORMER "P.O.D."
    ISRC USRZR1233010
    FLAGS DCP
    INDEX 01 00:00:00
FILE "11-p.o.d.-i_am.flac" WAVE
  TRACK 11 AUDIO
    TITLE "I Am"
    PERFORMER "P.O.D."
    ISRC USRZR1233011
    FLAGS DCP
    INDEX 01 00:00:00
Трэклист:
01. Eyez (feat. Jamey Jasta Of Hatebreed) [02:46]
02. Murdered Love (feat. Sick Jacken Of Psycho Realm) [03:44]
03. Higher [03:22]
04. Lost In Forever (Screams)[04:05]
05. West Coast Rock Steady (feat. Sen Dog Of Cypress Hill) [03:05]
06. Beautiful [03:52]
07. Babylon The Murderer [04:18]
08. On Fire [03:43]
09. Bad Boy [03:18]
10. Panic & Run [03:15]
11. I Am [05:09]
12. Find a Way (2:54) (Japanese Edition Bonus)

Код:

Exact Audio Copy V1.0 beta 3 from 29. August 2011

EAC extraction logfile from 27. July 2012, 12:43

P.O.D. / Murdered Love

Used drive  : Optiarc DVD RW AD-7191A   Adapter: 4  ID: 0

Read mode               : Secure
Utilize accurate stream : Yes
Defeat audio cache      : Yes
Make use of C2 pointers : No

Read offset correction                      : 6
Overread into Lead-In and Lead-Out          : No
Fill up missing offset samples with silence : Yes
Delete leading and trailing silent blocks   : No
Null samples used in CRC calculations       : Yes
Used interface                              : Native Win32 interface for Win NT & 2000
Gap handling                                : Appended to previous track

Used output format              : User Defined Encoder
Selected bitrate                : 1024 kBit/s
Quality                         : High
Add ID3 tag                     : No
Command line compressor         : C:\Program Files\Exact Audio Copy\Flac\flac.exe
Additional command line options : -V -8 -T "artist=%artist%" -T "title=%title%" -T "album=%albumtitle%" -T "date=%year%" -T "tracknumber=%tracknr%" -T "genre=%genre%" %source%

TOC of the extracted CD

     Track |   Start  |  Length  | Start sector | End sector
    ---------------------------------------------------------
        1  |  0:00.00 |  2:46.40 |         0    |    12489
        2  |  2:46.40 |  3:44.71 |     12490    |    29360
        3  |  6:31.36 |  3:22.18 |     29361    |    44528
        4  |  9:53.54 |  4:05.56 |     44529    |    62959
        5  | 13:59.35 |  3:05.33 |     62960    |    76867
        6  | 17:04.68 |  3:52.74 |     76868    |    94341
        7  | 20:57.67 |  4:18.72 |     94342    |   113763
        8  | 25:16.64 |  3:43.52 |    113764    |   130540
        9  | 29:00.41 |  3:18.12 |    130541    |   145402
       10  | 32:18.53 |  3:15.60 |    145403    |   160087
       11  | 35:34.38 |  5:09.65 |    160088    |   183327
       12  | 40:44.28 |  2:53.40 |    183328    |   196342

Track  1

     Filename C:\Documents and Settings\LEXUS\My Documents\My Music\P.O.D\Murdered Love (Japanese Edition) FLAC\01 – Eyez.wav

     Pre-gap length  0:00:02.00

     Peak level 96.5 %
     Extraction speed 3.2 X
     Track quality 100.0 %
     Test CRC A50149EB
     Copy CRC A50149EB
     Track not present in AccurateRip database
     Copy OK

Track  2

     Filename C:\Documents and Settings\LEXUS\My Documents\My Music\P.O.D\Murdered Love (Japanese Edition) FLAC\02 – Murdered Love.wav

     Peak level 96.2 %
     Extraction speed 3.7 X
     Track quality 100.0 %
     Test CRC E96C0B04
     Copy CRC E96C0B04
     Track not present in AccurateRip database
     Copy OK

Track  3

     Filename C:\Documents and Settings\LEXUS\My Documents\My Music\P.O.D\Murdered Love (Japanese Edition) FLAC\03 – Higher.wav

     Peak level 96.5 %
     Extraction speed 3.9 X
     Track quality 100.0 %
     Test CRC 070C5279
     Copy CRC 070C5279
     Track not present in AccurateRip database
     Copy OK

Track  4

     Filename C:\Documents and Settings\LEXUS\My Documents\My Music\P.O.D\Murdered Love (Japanese Edition) FLAC\04 – Lost In Forever.wav

     Peak level 96.6 %
     Extraction speed 4.4 X
     Track quality 100.0 %
     Test CRC DB1E03C4
     Copy CRC DB1E03C4
     Track not present in AccurateRip database
     Copy OK

Track  5

     Filename C:\Documents and Settings\LEXUS\My Documents\My Music\P.O.D\Murdered Love (Japanese Edition) FLAC\05 – West Coast Rock Steady.wav

     Peak level 96.6 %
     Extraction speed 4.4 X
     Track quality 100.0 %
     Test CRC 43BD6527
     Copy CRC 43BD6527
     Track not present in AccurateRip database
     Copy OK

Track  6

     Filename C:\Documents and Settings\LEXUS\My Documents\My Music\P.O.D\Murdered Love (Japanese Edition) FLAC\06 – Beautiful.wav

     Peak level 96.5 %
     Extraction speed 4.8 X
     Track quality 100.0 %
     Test CRC A1008F6F
     Copy CRC A1008F6F
     Track not present in AccurateRip database
     Copy OK

Track  7

     Filename C:\Documents and Settings\LEXUS\My Documents\My Music\P.O.D\Murdered Love (Japanese Edition) FLAC\07 – Babylon The Murderer.wav

     Peak level 96.6 %
     Extraction speed 4.2 X
     Track quality 99.9 %
     Test CRC 61BEAFD1
     Copy CRC 61BEAFD1
     Track not present in AccurateRip database
     Copy OK

Track  8

     Filename C:\Documents and Settings\LEXUS\My Documents\My Music\P.O.D\Murdered Love (Japanese Edition) FLAC\08 – On Fire.wav

     Peak level 96.6 %
     Extraction speed 5.3 X
     Track quality 100.0 %
     Test CRC ABFCAC7A
     Copy CRC ABFCAC7A
     Track not present in AccurateRip database
     Copy OK

Track  9

     Filename C:\Documents and Settings\LEXUS\My Documents\My Music\P.O.D\Murdered Love (Japanese Edition) FLAC\09 – Bad Boy.wav

     Peak level 96.5 %
     Extraction speed 5.4 X
     Track quality 100.0 %
     Test CRC 72B7CE77
     Copy CRC 72B7CE77
     Track not present in AccurateRip database
     Copy OK

Track 10

     Filename C:\Documents and Settings\LEXUS\My Documents\My Music\P.O.D\Murdered Love (Japanese Edition) FLAC\10 – Panic & Run.wav

     Peak level 96.6 %
     Extraction speed 5.6 X
     Track quality 100.0 %
     Test CRC 5B072485
     Copy CRC 5B072485
     Track not present in AccurateRip database
     Copy OK

Track 11

     Filename C:\Documents and Settings\LEXUS\My Documents\My Music\P.O.D\Murdered Love (Japanese Edition) FLAC\11 – I Am.wav

     Peak level 96.6 %
     Extraction speed 6.2 X
     Track quality 100.0 %
     Test CRC B47E40D0
     Copy CRC B47E40D0
     Track not present in AccurateRip database
     Copy OK

Track 12

     Filename C:\Documents and Settings\LEXUS\My Documents\My Music\P.O.D\Murdered Love (Japanese Edition) FLAC\12 – Find a Way.wav

     Peak level 96.3 %
     Extraction speed 5.9 X
     Track quality 100.0 %
     Test CRC E05C4284
     Copy CRC E05C4284
     Track not present in AccurateRip database
     Copy OK

None of the tracks are present in the AccurateRip database

No errors occurred

End of status report

==== Log checksum A0EC22FE55C09861455B9419688005E96C5C9C09C0901B12809663445058EA02 ====

Код:

REM GENRE Alternative
REM DATE 2012
REM DISCID A10A390C
REM COMMENT "ExactAudioCopy v1.0b3"
PERFORMER "P.O.D."
TITLE "Murdered Love"
FILE "01 – Eyez.wav" WAVE
  TRACK 01 AUDIO
    TITLE "Eyez"
    PERFORMER "P.O.D."
    INDEX 01 00:00:00
FILE "02 – Murdered Love.wav" WAVE
  TRACK 02 AUDIO
    TITLE "Murdered Love"
    PERFORMER "P.O.D."
    INDEX 01 00:00:00
FILE "03 – Higher.wav" WAVE
  TRACK 03 AUDIO
    TITLE "Higher"
    PERFORMER "P.O.D."
    INDEX 01 00:00:00
FILE "04 – Lost In Forever.wav" WAVE
  TRACK 04 AUDIO
    TITLE "Lost In Forever"
    PERFORMER "P.O.D."
    INDEX 01 00:00:00
FILE "05 – West Coast Rock Steady.wav" WAVE
  TRACK 05 AUDIO
    TITLE "West Coast Rock Steady"
    PERFORMER "P.O.D."
    INDEX 01 00:00:00
FILE "06 – Beautiful.wav" WAVE
  TRACK 06 AUDIO
    TITLE "Beautiful"
    PERFORMER "P.O.D."
    INDEX 01 00:00:00
FILE "07 – Babylon The Murderer.wav" WAVE
  TRACK 07 AUDIO
    TITLE "Babylon The Murderer"
    PERFORMER "P.O.D."
    INDEX 01 00:00:00
FILE "08 – On Fire.wav" WAVE
  TRACK 08 AUDIO
    TITLE "On Fire"
    PERFORMER "P.O.D."
    INDEX 01 00:00:00
FILE "09 – Bad Boy.wav" WAVE
  TRACK 09 AUDIO
    TITLE "Bad Boy"
    PERFORMER "P.O.D."
    INDEX 01 00:00:00
FILE "10 – Panic & Run.wav" WAVE
  TRACK 10 AUDIO
    TITLE "Panic & Run"
    PERFORMER "P.O.D."
    INDEX 01 00:00:00
FILE "11 – I Am.wav" WAVE
  TRACK 11 AUDIO
    TITLE "I Am"
    PERFORMER "P.O.D."
    INDEX 01 00:00:00
FILE "12 – Find a Way.wav" WAVE
  TRACK 12 AUDIO
    TITLE "Find a Way"
    PERFORMER "P.O.D."
    INDEX 01 00:00:00

Трэклист:
01. Intro
02. Southtown
03. Breathe Babylon
04. Rosa Linda
05. Draw The Line
06. Full Color
07. Sabbath

Код:

Exact Audio Copy V0.99 prebeta 4 from 23. January 2008

EAC extraction logfile from 4. January 2009, 13:01

P.O.D. / The Warriors EP

Used drive : HL-DT-STDVDRAM GSA-H40N Adapter: 0 ID: 0

Read mode : Secure
Utilize accurate stream : Yes
Defeat audio cache : Yes
Make use of C2 pointers : No

Read offset correction : 667
Overread into Lead-In and Lead-Out : No
Fill up missing offset samples with silence : Yes
Delete leading and trailing silent blocks : No
Null samples used in CRC calculations : Yes
Used interface : Native Win32 interface for Win NT & 2000
Gap handling : Appended to previous track

Used output format : User Defined Encoder
Selected bitrate : 128 kBit/s
Quality : High
Add ID3 tag : No
Command line compressor : C:\Program Files\Exact Audio Copy\Flac\flac.exe
Additional command line options : -V -8 -T "artist=%a" -T "title=%t" -T "album=%g" -T "date=%y" -T "tracknumber=%n" -T "genre=%m" %s

TOC of the extracted CD

Track | Start | Length | Start sector | End sector
---------------------------------------------------------
1 | 0:00.00 | 1:38.40 | 0 | 7389
2 | 1:38.40 | 4:30.12 | 7390 | 27651
3 | 6:08.52 | 6:02.63 | 27652 | 54864
4 | 12:11.40 | 1:42.50 | 54865 | 62564
5 | 13:54.15 | 3:14.00 | 62565 | 77114
6 | 17:08.15 | 5:53.50 | 77115 | 103639
7 | 23:01.65 | 4:33.35 | 103640 | 124149

Track 1

Filename C:\Users\Brian\Desktop\P.O.D\The Warriors EP\01 - Intro.wav

Pre-gap length 0:00:02.00

Peak level 100.0 %
Track quality 99.7 %
Test CRC E5B0A691
Copy CRC E5B0A691
Accurately ripped (confidence 4) [755BF7A3]
Copy OK

Track 2

Filename C:\Users\Brian\Desktop\P.O.D\The Warriors EP\02 - Southtown.wav

Peak level 100.0 %
Track quality 100.0 %
Test CRC 505B872C
Copy CRC 505B872C
Accurately ripped (confidence 4) [B27BD45D]
Copy OK

Track 3

Filename C:\Users\Brian\Desktop\P.O.D\The Warriors EP\03 - Breathe Babylon.wav

Peak level 100.0 %
Track quality 100.0 %
Test CRC 1840F51C
Copy CRC 1840F51C
Accurately ripped (confidence 4) [2C287226]
Copy OK

Track 4

Filename C:\Users\Brian\Desktop\P.O.D\The Warriors EP\04 - Rosa Linda.wav

Peak level 71.2 %
Track quality 100.0 %
Test CRC 57A59F71
Copy CRC 57A59F71
Accurately ripped (confidence 4) [878AB86C]
Copy OK

Track 5

Filename C:\Users\Brian\Desktop\P.O.D\The Warriors EP\05 - Draw The Line.wav

Peak level 100.0 %
Track quality 100.0 %
Test CRC 4271F989
Copy CRC 4271F989
Accurately ripped (confidence 4) [9CD1A68A]
Copy OK

Track 6

Filename C:\Users\Brian\Desktop\P.O.D\The Warriors EP\06 - Full Color.wav

Peak level 100.0 %
Track quality 99.9 %
Test CRC 41FFEE90
Copy CRC 41FFEE90
Accurately ripped (confidence 4) [E644A8F8]
Copy OK

Track 7

Filename C:\Users\Brian\Desktop\P.O.D\The Warriors EP\07 - Sabbath.wav

Pre-gap length 0:00:00.04

Peak level 100.0 %
Track quality 100.0 %
Test CRC 0B163A8A
Copy CRC 0B163A8A
Accurately ripped (confidence 4) [A8C0BC3A]
Copy OK

All tracks accurately ripped

No errors occurred

End of status report

Код:

REM ACCURATERIPID 0006faa1-002ae600-3e067707
REM GENRE "Nu Metal"
REM DATE 1999
REM DISCID 3E067707
REM COMMENT "ExactAudioCopy v0.99pb4"
PERFORMER "P.O.D."
TITLE "The Warriors [EP]"
FILE "P.O.D. - The Warriors [EP].image_my.wav" WAVE
  TRACK 01 AUDIO
    TITLE "Intro"
    PERFORMER "P.O.D."
    INDEX 01 00:00:00
  TRACK 02 AUDIO
    TITLE "Southtown"
    PERFORMER "P.O.D."
    INDEX 01 01:38:40
  TRACK 03 AUDIO
    TITLE "Breathe Babylon"
    PERFORMER "P.O.D."
    INDEX 01 06:08:52
  TRACK 04 AUDIO
    TITLE "Rosa Linda"
    PERFORMER "P.O.D."
    INDEX 01 12:11:40
  TRACK 05 AUDIO
    TITLE "Draw The Line"
    PERFORMER "P.O.D."
    INDEX 01 13:54:15
  TRACK 06 AUDIO
    TITLE "Full Color"
    PERFORMER "P.O.D."
    INDEX 01 17:08:15
  TRACK 07 AUDIO
    TITLE "Sabbath"
    PERFORMER "P.O.D."
    INDEX 00 23:01:62
    INDEX 01 23:01:65
Трэклист:
01. If It Wasn't For You
02. Teachers [Palm Springs Demo]
03. Ya Mama [Palm Springs Demo]
04. Why Wait?
05. Eyes Of A Stranger
06. Boom [Live At Cornerstone]
07. Wildfire [Live At Cornerstone]

Код:

Exact Audio Copy V0.99 prebeta 5 from 4. May 2009

EAC extraction logfile from 6. November 2009, 3:34

P.O.D. / The Warriors EP Vol.2

Used drive  : PIONEER BD-ROM  BDC-202   Adapter: 2  ID: 1

Read mode               : Secure
Utilize accurate stream : Yes
Defeat audio cache      : Yes
Make use of C2 pointers : No

Read offset correction                      : 667
Overread into Lead-In and Lead-Out          : No
Fill up missing offset samples with silence : Yes
Delete leading and trailing silent blocks   : No
Null samples used in CRC calculations       : Yes
Used interface                              : Native Win32 interface for Win NT & 2000
Gap handling                                : Appended to previous track

Used output format              : User Defined Encoder
Selected bitrate                : 768 kBit/s
Quality                         : High
Add ID3 tag                     : No
Command line compressor         : C:\Program Files (x86)\Exact Audio Copy\FLAC\FLAC.EXE
Additional command line options : -6 -V -T "ARTIST=%a" -T "TITLE=%t" -T "ALBUM=%g" -T "DATE=%y" -T "TRACKNUMBER=%n" -T "GENRE=%m" -T "COMMENT=%e" %s -o %d

TOC of the extracted CD

     Track |   Start  |  Length  | Start sector | End sector
    ---------------------------------------------------------
        1  |  0:00.00 |  3:40.20 |         0    |    16519   
        2  |  3:40.20 |  4:28.10 |     16520    |    36629   
        3  |  8:08.30 |  3:10.37 |     36630    |    50916   
        4  | 11:18.67 |  3:41.65 |     50917    |    67556   
        5  | 15:00.57 |  4:18.25 |     67557    |    86931   
        6  | 19:19.07 |  5:14.33 |     86932    |   110514   
        7  | 24:33.40 |  3:22.47 |    110515    |   125711   

Track  1

     Filename C:\EAC\01 - If It Wasn't For You.wav

     Pre-gap length  0:00:02.00

     Peak level 98.8 %
     Track quality 100.0 %
     Test CRC F9BB7D70
     Copy CRC F9BB7D70
     Accurately ripped (confidence 2)  [BF5C422F]
     Copy OK

Track  2

     Filename C:\EAC\02 - Teachers.wav

     Pre-gap length  0:00:01.45

     Peak level 98.8 %
     Track quality 100.0 %
     Test CRC 4EDA0F7C
     Copy CRC 4EDA0F7C
     Accurately ripped (confidence 2)  [1A323790]
     Copy OK

Track  3

     Filename C:\EAC\03 - Ya Mama.wav

     Pre-gap length  0:00:01.43

     Peak level 98.8 %
     Track quality 100.0 %
     Test CRC 05D1B9DC
     Copy CRC 05D1B9DC
     Accurately ripped (confidence 2)  [9BF72D3C]
     Copy OK

Track  4

     Filename C:\EAC\04 - Why Wait.wav

     Pre-gap length  0:00:01.42

     Peak level 97.6 %
     Track quality 100.0 %
     Test CRC 79726C6C
     Copy CRC 79726C6C
     Accurately ripped (confidence 2)  [612F3DB1]
     Copy OK

Track  5

     Filename C:\EAC\05 - Eyes Of A Stranger.wav

     Pre-gap length  0:00:01.47

     Peak level 98.8 %
     Track quality 99.9 %
     Test CRC C6391FC0
     Copy CRC C6391FC0
     Accurately ripped (confidence 2)  [6685A001]
     Copy OK

Track  6

     Filename C:\EAC\06 - Boom (Live At Cornerstone).wav

     Pre-gap length  0:00:02.45

     Peak level 96.5 %
     Track quality 99.9 %
     Test CRC 117A785F
     Copy CRC 117A785F
     Accurately ripped (confidence 2)  [3975B493]
     Copy OK

Track  7

     Filename C:\EAC\07 - Wildfire (Live At Cornerstone).wav

     Peak level 99.8 %
     Track quality 100.0 %
     Test CRC 9CAFF629
     Copy CRC 9CAFF629
     Accurately ripped (confidence 2)  [442C6AE9]
     Copy OK

All tracks accurately ripped

No errors occurred

End of status report

Код:

REM ACCURATERIPID 00078cbf-002d8d3d-48068c07
REM GENRE "Nu Metal"
REM DATE 2005
REM DISCID 48068C07
REM COMMENT "ExactAudioCopy v0.99pb5"
PERFORMER "P.O.D."
TITLE "The Warriors [EP] Vol.2"
CATALOG 7567-83889-2
FILE "P.O.D. - The Warriors [EP] Vol.2.image_my.wav" WAVE
  TRACK 01 AUDIO
    TITLE "If It Wasn't For You"
    PERFORMER "P.O.D."
    INDEX 01 00:00:00
  TRACK 02 AUDIO
    TITLE "Teachers [Palm Springs Demo]"
    PERFORMER "P.O.D."
    INDEX 00 03:38:50
    INDEX 01 03:40:20
  TRACK 03 AUDIO
    TITLE "Ya Mama [Palm Springs Demo]"
    PERFORMER "P.O.D."
    INDEX 00 08:06:62
    INDEX 01 08:08:30
  TRACK 04 AUDIO
    TITLE "Why Wait?"
    PERFORMER "P.O.D."
    INDEX 00 11:17:25
    INDEX 01 11:18:67
  TRACK 05 AUDIO
    TITLE "Eyes Of A Stranger"
    PERFORMER "P.O.D."
    INDEX 00 14:59:10
    INDEX 01 15:00:57
  TRACK 06 AUDIO
    TITLE "Boom [Live At Cornerstone]"
    PERFORMER "P.O.D."
    INDEX 00 19:16:37
    INDEX 01 19:19:07
  TRACK 07 AUDIO
    TITLE "Wildfire [Live At Cornerstone]"
    PERFORMER "P.O.D."
    INDEX 01 24:33:40

Трэклист:
01. Southtown
02. Boom
03. Going In Blind
04. Roots In Stereo
05. Alive
06. Youth Of The Nation
07. Sleeping Awake
08. Rock the Party [Off The Hook]
09. Lights Out
10. Goodbye For Now
11. Execute The Sounds
12. Will You?
13. Truly Amazing
14. Satellite
15. Set Your Eyes To Zion
16. Here We Go
16. If It Wasn't For You

Код:

Exact Audio Copy V0.99 prebeta 4 from 23. January 2008

Отчёт EAC об извлечении, выполненном 5. июня 2008, 17:42

P.O.D. / Greatest Hits (The Atlantic Years)

Дисковод: ASUS    DRW-1814BLT   Adapter: 1  ID: 0

Режим чтения                 : Достоверность
Использование точного потока : Да
Отключение кэша аудио        : Да
Использование указателей C2  : Нет

Коррекция смещения при чтении                     : 6
Способность читать области Lead-in и Lead-out     : Нет
Заполнение пропущенных сэмплов тишиной            : Да
Удаление блоков с тишиной в начале и конце        : Нет
При вычислениях CRC использовались нулевые сэмплы : Да
Интерфейс                                         : Встроенный Win32-интерфейс для Win NT/2000

Выходной формат : Внутренние WAV-операции
Формат сэмплов  : 44.100 Гц; 16 бит; стерео

TOC извлечённого CD

     Трек |   Старт  | Длительность | Начальный сектор | Конечный сектор
    ---------------------------------------------------------------------
       1  |  0:00.00 |    4:08.52   |           0      |      18651     
       2  |  4:08.52 |    3:07.18   |       18652      |      32694     
       3  |  7:15.70 |    4:28.15   |       32695      |      52809     
       4  | 11:44.10 |    4:43.00   |       52810      |      74034     
       5  | 16:27.10 |    3:23.52   |       74035      |      89311     
       6  | 19:50.62 |    4:18.13   |       89312      |     108674     
       7  | 24:09.00 |    3:24.60   |      108675      |     124034     
       8  | 27:33.60 |    3:27.37   |      124035      |     139596     
       9  | 31:01.22 |    2:46.68   |      139597      |     152114     
      10  | 33:48.15 |    4:33.60   |      152115      |     172649     
      11  | 38:22.00 |    3:01.10   |      172650      |     186234     
      12  | 41:23.10 |    3:47.50   |      186235      |     203309     
      13  | 45:10.60 |    3:03.05   |      203310      |     217039     
      14  | 48:13.65 |    3:32.27   |      217040      |     232966     
      15  | 51:46.17 |    4:07.73   |      232967      |     251564     
      16  | 55:54.15 |    3:28.60   |      251565      |     267224     
      17  | 59:23.00 |    3:38.57   |      267225      |     283631     

Характеристики диапазона извлечения и сообщения об ошибках

Выбранный диапазон

     Имя файла C:\Users\General\Music\P.O.D. - Greatest Hits (The Atlantic Years).wav

     Пиковый уровень 99.8 %
     Качество диапазона 100.0 %
     CRC копии 6A306850
     Копирование... OK

Ошибок не произошло

Конец отчёта

Код:

REM GENRE Alternative
REM DATE 2006
REM DISCID EE0EC511
REM COMMENT "ExactAudioCopy v0.99pb4"
PERFORMER "P.O.D."
TITLE "Greatest Hits (The Atlantic Years)"
FILE "P.O.D. - Greatest Hits (The Atlantic Years).flac" WAVE
  TRACK 01 AUDIO
    TITLE "Southtown"
    PERFORMER "P.O.D."
    INDEX 01 00:00:00
  TRACK 02 AUDIO
    TITLE "Boom"
    PERFORMER "P.O.D."
    INDEX 01 04:08:52
  TRACK 03 AUDIO
    TITLE "Going In Blind"
    PERFORMER "P.O.D."
    INDEX 01 07:15:70
  TRACK 04 AUDIO
    TITLE "Roots In Stereo"
    PERFORMER "P.O.D."
    INDEX 01 11:44:10
  TRACK 05 AUDIO
    TITLE "Alive"
    PERFORMER "P.O.D."
    INDEX 01 16:27:10
  TRACK 06 AUDIO
    TITLE "Youth Of The Nation"
    PERFORMER "P.O.D."
    INDEX 01 19:50:62
  TRACK 07 AUDIO
    TITLE "Sleeping Awake"
    PERFORMER "P.O.D."
    INDEX 01 24:09:00
  TRACK 08 AUDIO
    TITLE "Rock the Party {Off The Hook}"
    PERFORMER "P.O.D."
    INDEX 01 27:33:60
  TRACK 09 AUDIO
    TITLE "Lights Out"
    PERFORMER "P.O.D."
    INDEX 00 30:59:72
    INDEX 01 31:01:22
  TRACK 10 AUDIO
    TITLE "Goodbye For Now"
    PERFORMER "P.O.D."
    INDEX 00 33:47:12
    INDEX 01 33:48:15
  TRACK 11 AUDIO
    TITLE "Execute The Sounds"
    PERFORMER "P.O.D."
    INDEX 01 38:22:00
  TRACK 12 AUDIO
    TITLE "Will You"
    PERFORMER "P.O.D."
    INDEX 01 41:23:10
  TRACK 13 AUDIO
    TITLE "Truly Amazing"
    PERFORMER "P.O.D."
    INDEX 01 45:10:60
  TRACK 14 AUDIO
    TITLE "Satellite"
    PERFORMER "P.O.D."
    INDEX 00 48:12:32
    INDEX 01 48:13:65
  TRACK 15 AUDIO
    TITLE "Set Your Eyes To Zion"
    PERFORMER "P.O.D."
    INDEX 00 51:45:17
    INDEX 01 51:46:17
  TRACK 16 AUDIO
    TITLE "Here We Go"
    PERFORMER "P.O.D."
    INDEX 01 55:54:15
  TRACK 17 AUDIO
    TITLE "If It Wasn't For You"
    PERFORMER "P.O.D."
    INDEX 01 59:23:00

Трэклист:
01. Alive [Album Version]
02. School Of Hard Knocks [Non LP Bonus Track]
03. Lie Down [Demo]

Код:

Exact Audio Copy V0.99 prebeta 5 from 4. May 2009

EAC extraction logfile from 20. September 2009, 18:11

P.O.D. / Alive

Used drive  : PIONEER BD-ROM  BDC-202   Adapter: 2  ID: 1

Read mode               : Secure
Utilize accurate stream : Yes
Defeat audio cache      : Yes
Make use of C2 pointers : No

Read offset correction                      : 667
Overread into Lead-In and Lead-Out          : No
Fill up missing offset samples with silence : Yes
Delete leading and trailing silent blocks   : No
Null samples used in CRC calculations       : Yes
Used interface                              : Native Win32 interface for Win NT & 2000
Gap handling                                : Appended to previous track

Used output format              : User Defined Encoder
Selected bitrate                : 1024 kBit/s
Quality                         : High
Add ID3 tag                     : No
Command line compressor         : C:\Program Files\Exact Audio Copy 1\Flac\flac.exe
Additional command line options : -V -8 -T "artist=%a" -T "title=%t" -T "album=%g" -T "date=%y" -T "tracknumber=%n" -T "genre=%m" %s

TOC of the extracted CD

     Track |   Start  |  Length  | Start sector | End sector
    ---------------------------------------------------------
        1  |  0:00.00 |  3:24.08 |         0    |    15307   
        2  |  3:24.08 |  4:06.25 |     15308    |    33782   
        3  |  7:30.33 |  4:20.72 |     33783    |    53354   
        4  | 14:23.30 | 15:35.01 |     64755    |   134880   

Track  1

     Filename C:\Users\General1k\Desktop\Alive\01 - Alive ( Album Version ).wav

     Pre-gap length  0:00:02.00

     Peak level 97.6 %
     Track quality 100.0 %
     Test CRC 15C5A00E
     Copy CRC 15C5A00E
     Track not present in AccurateRip database
     Copy OK

Track  2

     Filename C:\Users\General1k\Desktop\Alive\02 - School Of Hard Knocks.wav

     Pre-gap length  0:00:01.02

     Peak level 92.2 %
     Track quality 100.0 %
     Test CRC 0223EACB
     Copy CRC 0223EACB
     Track not present in AccurateRip database
     Copy OK

Track  3

     Filename C:\Users\General1k\Desktop\Alive\03 - Lie Down ( Demo Version ).wav

     Pre-gap length  0:00:01.02

     Peak level 96.6 %
     Track quality 100.0 %
     Test CRC 1AAE81CA
     Copy CRC 1AAE81CA
     Track not present in AccurateRip database
     Copy OK

None of the tracks are present in the AccurateRip database

No errors occurred

End of status report

Код:

REM ACCURATERIPID 0002cea4-000a3f02-28070604
REM GENRE "Alternative Rock"
REM DATE 2001
REM DISCID 28070604
REM COMMENT "ExactAudioCopy v0.99pb5"
PERFORMER "P.O.D."
TITLE "Alive [CDM]"
CATALOG "AT 0119 CD"
FILE "P.O.D. - Alive [CDM].image_my.wav" WAVE
  TRACK 01 AUDIO
    TITLE "Alive [Album Version]"
    PERFORMER "P.O.D."
    INDEX 01 00:00:00
  TRACK 02 AUDIO
    TITLE "School Of Hard Knocks [Non LP Bonus Track]"
    PERFORMER "P.O.D."
    INDEX 00 03:23:06
    INDEX 01 03:24:08
  TRACK 03 AUDIO
    TITLE "Lie Down [Demo]"
    PERFORMER "P.O.D."
    INDEX 00 07:29:31
    INDEX 01 07:30:33
Трэклист:
01. Youth Of The Nation [Album Version]
02. Alive [Semi-Acoustic Version]
03. Sabbath [Non-Album Bonus Track]

Код:

Exact Audio Copy V0.99 prebeta 5 from 4. May 2009

EAC extraction logfile from 23. September 2009, 20:24

P.O.D. / Youth Of The Nation

Used drive  : PIONEER BD-ROM  BDC-202   Adapter: 2  ID: 1

Read mode               : Secure
Utilize accurate stream : Yes
Defeat audio cache      : Yes
Make use of C2 pointers : No

Read offset correction                      : 667
Overread into Lead-In and Lead-Out          : No
Fill up missing offset samples with silence : Yes
Delete leading and trailing silent blocks   : No
Null samples used in CRC calculations       : Yes
Used interface                              : Native Win32 interface for Win NT & 2000
Gap handling                                : Appended to previous track

Used output format              : User Defined Encoder
Selected bitrate                : 1024 kBit/s
Quality                         : High
Add ID3 tag                     : No
Command line compressor         : C:\Program Files\Exact Audio Copy 1\Flac\flac.exe
Additional command line options : -V -8 -T "artist=%a" -T "title=%t" -T "album=%g" -T "date=%y" -T "tracknumber=%n" -T "genre=%m" %s

TOC of the extracted CD

     Track |   Start  |  Length  | Start sector | End sector
    ---------------------------------------------------------
        1  |  0:00.00 |  4:19.02 |         0    |    19426   
        2  |  4:19.02 |  3:25.13 |     19427    |    34814   
        3  |  7:44.15 |  4:32.62 |     34815    |    55276   

Track  1

     Filename C:\Users\General1k\Desktop\Youth Of The Nation\01 - Youth Of The Nation (Album Version).wav

     Pre-gap length  0:00:02.00

     Peak level 98.7 %
     Track quality 100.0 %
     Test CRC 46D8F2A2
     Copy CRC 46D8F2A2
     Accurately ripped (confidence 9)  [0375AAED]
     Copy OK

Track  2

     Filename C:\Users\General1k\Desktop\Youth Of The Nation\02 - Alive (Semi-Acoustic Version).wav

     Pre-gap length  0:00:01.47

     Peak level 98.8 %
     Track quality 100.0 %
     Test CRC A16C5F6E
     Copy CRC A16C5F6E
     Accurately ripped (confidence 9)  [0A381CC4]
     Copy OK

Track  3

     Filename C:\Users\General1k\Desktop\Youth Of The Nation\03 - Sabbath (Non-Album Bonus Track).wav

     Pre-gap length  0:00:01.28

     Peak level 98.8 %
     Track quality 100.0 %
     Test CRC 31C7CE62
     Copy CRC 31C7CE62
     Accurately ripped (confidence 9)  [DE3C48BE]
     Copy OK

All tracks accurately ripped

No errors occurred

End of status report

Код:

REM ACCURATERIPID 0001abcf-00058f78-1b02e103
REM GENRE "Nu Metal"
REM DATE 2002
REM DISCID 1B02E103
REM COMMENT "Label: © 06 May 2002 Atlantic /Germany /CDM /AT0127CD /LC 00121"
PERFORMER "P.O.D."
TITLE "Youth Of The Nation [CDM]"
CATALOG AT0127CD
FILE "P.O.D. - Youth Of The Nation [CDM].image_my.wav" WAVE
  TRACK 01 AUDIO
    TITLE "Youth Of The Nation [Album Version]"
    PERFORMER "P.O.D."
    INDEX 01 00:00:00
  TRACK 02 AUDIO
    TITLE "Alive [Semi-Acoustic Version]"
    PERFORMER "P.O.D."
    INDEX 00 04:17:30
    INDEX 01 04:19:02
  TRACK 03 AUDIO
    TITLE "Sabbath [Non-Album Bonus Track]"
    PERFORMER "P.O.D."
    INDEX 00 07:42:62
    INDEX 01 07:44:15
Трэклист:
01. Will You [Album Version]

Код:

Exact Audio Copy V0.99 prebeta 5 from 4. May 2009

EAC extraction logfile from 20. September 2009, 18:32

P.O.D. / Will You

Used drive  : PIONEER BD-ROM  BDC-202   Adapter: 2  ID: 1

Read mode               : Secure
Utilize accurate stream : Yes
Defeat audio cache      : Yes
Make use of C2 pointers : No

Read offset correction                      : 667
Overread into Lead-In and Lead-Out          : No
Fill up missing offset samples with silence : Yes
Delete leading and trailing silent blocks   : No
Null samples used in CRC calculations       : Yes
Used interface                              : Native Win32 interface for Win NT & 2000
Gap handling                                : Appended to previous track

Used output format              : User Defined Encoder
Selected bitrate                : 1024 kBit/s
Quality                         : High
Add ID3 tag                     : No
Command line compressor         : C:\Program Files\Exact Audio Copy 1\Flac\flac.exe
Additional command line options : -V -8 -T "artist=%a" -T "title=%t" -T "album=%g" -T "date=%y" -T "tracknumber=%n" -T "genre=%m" %s

TOC of the extracted CD

     Track |   Start  |  Length  | Start sector | End sector
    ---------------------------------------------------------
        1  |  0:00.00 |  3:45.67 |         0    |    16941   

Track  1

     Filename C:\Users\General1k\Desktop\Will You\01 - Will You.wav

     Pre-gap length  0:00:02.00

     Peak level 98.8 %
     Track quality 100.0 %
     Test CRC 64B6E94B
     Copy CRC 64B6E94B
     Cannot be verified as accurate (confidence 1)  [B5B6EDC1], AccurateRip returned [26C816DF]
     Copy OK

No tracks could be verified as accurate
You may have a different pressing from the one(s) in the database

No errors occurred

End of status report

Код:

REM GENRE "Nu Metal"
REM DATE 2003
REM DISCID 0200E101
REM COMMENT "Label: © 2003 Atlantic /UK /Promo CDS /PR04320 /LC 00121"
PERFORMER "P.O.D."
TITLE "Will You [Promo CDS]"
FILE "01. Will You [Album Version].flac" WAVE
  TRACK 01 AUDIO
    TITLE "Will You"
    PERFORMER "P.O.D."
    INDEX 01 00:00:00
Трэклист:
01. Will You [Album Version]
02. Will You [Chris Vrenna Remix]
03. Cain [non-LP Track]

Код:

Exact Audio Copy V1.0 beta 1 from 15. November 2010

EAC extraction logfile from 5. January 2011, 23:02

P.O.D. / Will You

Used drive  : PIONEER DVD-RW  DVR-110D   Adapter: 0  ID: 0

Read mode               : Secure
Utilize accurate stream : Yes
Defeat audio cache      : Yes
Make use of C2 pointers : No

Read offset correction                      : 48
Overread into Lead-In and Lead-Out          : No
Fill up missing offset samples with silence : Yes
Delete leading and trailing silent blocks   : No
Null samples used in CRC calculations       : Yes
Used interface                              : Native Win32 interface for Win NT & 2000
Gap handling                                : Appended to previous track

Used output format              : User Defined Encoder
Selected bitrate                : 128 kBit/s
Quality                         : High
Add ID3 tag                     : No
Command line compressor         : C:\Program Files\Exact Audio Copy\Flac\flac.exe
Additional command line options : -V -8 -T "artist=%a" -T "title=%t" -T "album=%g" -T "date=%y" -T "tracknumber=%n" -T "genre=%m" %s

TOC of the extracted CD

     Track |   Start  |  Length  | Start sector | End sector
    ---------------------------------------------------------
        1  |  0:00.00 |  3:48.57 |         0    |    17156   
        2  |  3:48.57 |  3:56.18 |     17157    |    34874   
        3  |  7:45.00 |  6:11.07 |     34875    |    62706   

Track  1

     Filename C:\FLAC\P.O.D. - Will You (2003) - FLAC\01 - P.O.D. - Will You (Album Version).wav

     Pre-gap length  0:00:02.00

     Peak level 98.8 %
     Extraction speed 4.0 X
     Track quality 100.0 %
     Test CRC 89577F2C
     Copy CRC 89577F2C
     Cannot be verified as accurate (confidence 2)  [EF36B2AE], AccurateRip returned [BE7E9B2E]
     Copy OK

Track  2

     Filename C:\FLAC\P.O.D. - Will You (2003) - FLAC\02 - P.O.D. - Will You (Chris Vrenna Remix).wav

     Peak level 98.8 %
     Extraction speed 4.1 X
     Track quality 100.0 %
     Test CRC FFB5DC09
     Copy CRC FFB5DC09
     Cannot be verified as accurate (confidence 2)  [9EEC15D1], AccurateRip returned [59309C11]
     Copy OK

Track  3

     Filename C:\FLAC\P.O.D. - Will You (2003) - FLAC\03 - P.O.D. - Cain (non-LP Track).wav

     Peak level 98.8 %
     Extraction speed 4.9 X
     Track quality 100.0 %
     Test CRC B56EAF89
     Copy CRC B56EAF89
     Cannot be verified as accurate (confidence 2)  [32B7ABD0], AccurateRip returned [8C828210]
     Copy OK

No tracks could be verified as accurate
You may have a different pressing from the one(s) in the database

No errors occurred

End of status report

==== Log checksum C19D292A252C092E5B9012D5A84AFCB77497F98DA87AE886D1441834FAE84E17 ====

Код:

REM ACCURATERIPID 0001c033-0005f288-18034403
REM GENRE "Nu Metal"
REM DATE 2003
REM DISCID 18034403
REM COMMENT "ExactAudioCopy v1.0b1"
PERFORMER "P.O.D."
TITLE "Will You [CDS]"
FILE "01. Will You [Album Version].flac" WAVE
  TRACK 01 AUDIO
    TITLE "Will You [Album Version]"
    PERFORMER "P.O.D."
    INDEX 01 00:00:00
FILE "02. Will You [Chris Vrenna Remix].flac" WAVE
  TRACK 02 AUDIO
    TITLE "Will You [Chris Vrenna Remix]"
    PERFORMER "P.O.D."
    INDEX 01 00:00:00
FILE "03. Cain [non-LP Track].flac" WAVE
  TRACK 03 AUDIO
    TITLE "Cain [non-LP Track]"
    PERFORMER "P.O.D."
    INDEX 01 00:00:00

Трэклист:
01. One Day
02. Draw The Line
03. Selah
04. Know Me
05. Punk-Reggae Jam
06. Breathe Babylon
07. Preach
08. Full Color

Код:

Exact Audio Copy V0.99 prebeta 4 from 23. January 2008

EAC extraction logfile from 31. August 2008, 23:07

P.O.D. / POD Live

Used drive  : TSSTcorpCD/DVDW SH-S182D   Adapter: 1  ID: 0

Read mode               : Secure
Utilize accurate stream : Yes
Defeat audio cache      : Yes
Make use of C2 pointers : No

Read offset correction                      : 6
Overread into Lead-In and Lead-Out          : No
Fill up missing offset samples with silence : Yes
Delete leading and trailing silent blocks   : No
Null samples used in CRC calculations       : Yes
Used interface                              : Native Win32 interface for Win NT & 2000
Gap handling                                : Appended to previous track

Used output format              : User Defined Encoder
Selected bitrate                : 320 kBit/s
Quality                         : High
Add ID3 tag                     : No
Command line compressor         : C:\Program Files\Exact Audio Copy\Flac\flac.exe
Additional command line options : -V -8 -T "artist=%a" -T "title=%t" -T "album=%g" -T "date=%y" -T "tracknumber=%n" -T "genre=%m" %s

TOC of the extracted CD

     Track |   Start  |  Length  | Start sector | End sector
    ---------------------------------------------------------
        1  |  0:00.00 |  5:08.25 |         0    |    23124   
        2  |  5:08.25 |  3:02.70 |     23125    |    36844   
        3  |  8:11.20 |  5:06.59 |     36845    |    59853   
        4  | 13:18.04 |  4:07.15 |     59854    |    78393   
        5  | 17:25.19 |  3:02.11 |     78394    |    92054   
        6  | 20:27.30 |  6:19.55 |     92055    |   120534   
        7  | 26:47.10 |  2:53.61 |    120535    |   133570   
        8  | 29:40.71 | 17:22.26 |    133571    |   211746   

Track  1

     Filename C:\Rips\P.O.D. - One Day.wav

     Pre-gap length  0:00:02.00

     Peak level 97.2 %
     Track quality 100.0 %
     Test CRC 6B113207
     Copy CRC 6B113207
     Copy OK

Track  2

     Filename C:\Rips\P.O.D. - Draw The Line.wav

     Peak level 97.2 %
     Track quality 99.9 %
     Test CRC 76D7FAB3
     Copy CRC 76D7FAB3
     Copy OK

Track  3

     Filename C:\Rips\P.O.D. - Selah.wav

     Peak level 97.2 %
     Track quality 100.0 %
     Test CRC 3F09F9A7
     Copy CRC 3F09F9A7
     Copy OK

Track  4

     Filename C:\Rips\P.O.D. - Know Me.wav

     Peak level 97.2 %
     Track quality 100.0 %
     Test CRC C3779A9B
     Copy CRC C3779A9B
     Copy OK

Track  5

     Filename C:\Rips\P.O.D. - Punk-Reggae Jam.wav

     Peak level 97.2 %
     Track quality 100.0 %
     Test CRC 5C1D34AE
     Copy CRC 5C1D34AE
     Copy OK

Track  6

     Filename C:\Rips\P.O.D. - Breathe Babylon.wav

     Peak level 97.2 %
     Track quality 100.0 %
     Test CRC ADE4ADC7
     Copy CRC ADE4ADC7
     Copy OK

Track  7

     Filename C:\Rips\P.O.D. - Preach.wav

     Peak level 97.2 %
     Track quality 100.0 %
     Test CRC AC4C25B8
     Copy CRC AC4C25B8
     Copy OK

Track  8

     Filename C:\Rips\P.O.D. - Full Color.wav

     Peak level 100.0 %
     Track quality 99.9 %
     Test CRC FF1B27D3
     Copy CRC FF1B27D3
     Copy OK

No errors occurred

End of status report

Код:

REM ACCURATERIPID 000b899e-004eb68a-5a0b0708
REM GENRE "Nu Metal"
REM DATE 2001
REM DISCID 5A0B0708
REM COMMENT "ExactAudioCopy v0.99pb4"
PERFORMER "P.O.D."
TITLE "P.O.D. Live"
FILE "P.O.D. - P.O.D. Live.image_my.wav" WAVE
  TRACK 01 AUDIO
    TITLE "One Day"
    PERFORMER "P.O.D."
    INDEX 01 00:00:00
  TRACK 02 AUDIO
    TITLE "Draw The Line"
    PERFORMER "P.O.D."
    INDEX 01 05:08:25
  TRACK 03 AUDIO
    TITLE "Selah"
    PERFORMER "P.O.D."
    INDEX 01 08:11:20
  TRACK 04 AUDIO
    TITLE "Know Me"
    PERFORMER "P.O.D."
    INDEX 01 13:18:04
  TRACK 05 AUDIO
    TITLE "Punk-Reggae Jam"
    PERFORMER "P.O.D."
    INDEX 01 17:25:19
  TRACK 06 AUDIO
    TITLE "Breathe Babylon"
    PERFORMER "P.O.D."
    INDEX 01 20:27:30
  TRACK 07 AUDIO
    TITLE "Preach"
    PERFORMER "P.O.D."
    INDEX 01 26:47:10
  TRACK 08 AUDIO
    TITLE "Full Color"
    PERFORMER "P.O.D."
    INDEX 01 29:40:71


info [Профиль]  [ЛС] 

The Buzzhorn

Пол: Пол:Муж

Стаж: 6 лет 1 месяц

Сообщений: 901

Германия
Рейтинг

post 21-Янв-2012 14:06 (спустя 30 секунд) [-]0[+]

[Цитировать] 

(c)
info [Профиль]  [ЛС] 

post 22-Янв-2012 00:49 (спустя 10 часов) [-]0[+]

Топик был перенесен из форума Оформление раздач в форум Аltеrnаtivе, Рunk, Indереndеnt (lоsslеss)

The Buzzhorn
 

Resistance

Пол: Пол:Муж

Стаж: 7 лет 2 месяца

Сообщений: 3639

Россия
Рейтинг

post 22-Янв-2012 19:32 (спустя 1 день 5 часов) [-]0[+]

[Цитировать] 

Постер не больше 500х500, плюс учимся юзать тэг pic.

Цитата:

P.O.D. Live aka (1997). Live At Tomfest - 2001
Когда у нас лайвы стали компиляциями? И альбом вышел в 1997 году, а не в 2001.

Цитата:

Полиграфия:Присутствует
В большей половине релизов нету, так что удаляем это.

Цитата:

P.O.D. (Payable On Death) - The Complete Discography
Удаляем слово красным шрифтом выделенное.
info [Профиль]  [ЛС] 

Raa

Пол: Пол:Муж

Стаж: 6 лет 8 месяцев

Сообщений: 1099

Рейтинг

post 23-Янв-2012 14:52 (спустя 19 часов) [-]0[+]

[Цитировать] 

The Buzzhorn
Жанр и количество релизов в названии укажите
info [Профиль]  [ЛС] 

AnDran1k

Пол: Пол:Муж

Стаж: 6 лет

Сообщений: 9

Россия
Рейтинг

post 03-Авг-2012 15:40 (спустя 6 месяцев 11 дней) [-]0[+]

[Цитировать] 

встаньте кто-нибудь на раздачу, вообще не качает, зарание спасибо
info [Профиль]  [ЛС] 

The Buzzhorn

Пол: Пол:Муж

Стаж: 6 лет 1 месяц

Сообщений: 901

Германия
Рейтинг

post 06-Авг-2012 23:02 (спустя 3 дня) [-]0[+]

[Цитировать] 

Торрент файл пересоздан! Добавлены альбомы Murdered Love обычного и японского изданий

info [Профиль]  [ЛС] 

Moleculo

Пол: Пол:Муж

Стаж: 6 лет 7 месяцев

Сообщений: 3

Рейтинг

post 13-Сен-2012 17:29 (спустя 1 месяц 6 дней) [-]0[+]

[Цитировать] 

Раздайте кто нибудь
info [Профиль]  [ЛС] 

макармакар

Пол: Пол:Муж

Стаж: 7 лет 1 месяц

Сообщений: 5

Россия
Рейтинг

post 30-Мар-2013 20:23 (спустя 6 месяцев 17 дней) [-]0[+]

[Цитировать] 

Ребят, какой проигрыватель нужен. Пишет неизвестный формат. Или это образ.
info [Профиль]  [ЛС] 

len4ik22

Стаж: 3 года 7 месяцев

Сообщений: 3

Рейтинг

post 13-Мар-2016 13:23 (спустя 2 года 11 месяцев) [-]0[+]

[Цитировать] 

Скорости дайте плиз
info [Профиль]  [ЛС] 
Показать сообщения:    
Ответить на тему

Текущее время: 03-Дек 10:52

Часовой пояс: GMT + 4



Вы не можете начинать темы
Вы не можете отвечать на сообщения
Вы не можете редактировать свои сообщения
Вы не можете удалять свои сообщения
Вы не можете голосовать в опросах
Вы не можете прикреплять файлы к сообщениям
Вы не можете скачивать файлы