Ошибка

До окончания фрилича осталось:


(Pop-Punk) Порт (812) - Дискография (4 альбома, 1 сингл, 1 ЕР) - 2002-2016, FLAC (tracks/image+.cue)+covers, lossless

Ответить на тему
 
Автор Сообщение

The Royal

Пол: Пол:Муж

Стаж: 6 лет 11 месяцев

Сообщений: 652

Россия
Рейтинг

post 20-Янв-2012 18:36 0[+]

[Цитировать] 

Порт (812)

Жанр: Pop-Punk
Происхождение исполнителя: Санкт-Петербург
Год издания данного носителя: 2002 - 2016
Тип релиза: tracks/image+.cue
Аудио кодек: FLAC
Битрейт аудио: lossless
Продолжительность: 03:17:51
Полиграфия: присутствует

01. Скорость (4:15)
02. Ветер (2:20)
03. День Сурка (2:02)
04. Снова Одни (3:48)
05. В ее глазах (3:50)
06. 5-2-6-3-8-8-3 (2:51)
07. Не Сошлось (3:08)
08. Кого Она Ждет (3:26)
09. Как Же Можно (1:23)
10. Про Движение (1:09)
11. Зачем (3:05)
12. Ты Знал (2:58)
13. Клеша (0:48)
AUDIOCHECKER v2.0 beta (build 457) - by Dester - opdester@freemail.hu 
~~~~~~~~~~~~~~~~~~~~~~~~~~~~~~~~~~
-=== НЕ РЕДАКТИРУЙТЕ ЭТОТ ФАЙЛ! ===-

Путь: ...\2004 - ЯУПП (WEB)

01 -=- 01. Скорость.flac -=- MPEG (95%)
02 -=- 02. Ветер.flac -=- CDDA (100%)
03 -=- 03. День Сурка.flac -=- CDDA (100%)
04 -=- 04. Снова Одни.flac -=- CDDA (100%)
05 -=- 05. В ее глазах.flac -=- CDDA (100%)
06 -=- 06. 5-2-6-3-8-8-3.flac -=- CDDA (99%)
07 -=- 07. Не Сошлось.flac -=- CDDA (100%)
08 -=- 08. Кого Она Ждет.flac -=- MPEG (95%)
09 -=- 09. Как Же Можно.flac -=- CDDA (100%)
10 -=- 10. Про Движение.flac -=- CDDA (100%)
11 -=- 11. Зачем.flac -=- MPEG (95%)
12 -=- 12. Ты Знал.flac -=- MPEG (95%)
13 -=- 13. Клеша.flac -=- MPEG (95%)

Сводка 63,38% CDDA

217444964
01. Login (1:35)
02. Проваливай из Снов (2:48)
03. Без Тебя - 2 (2:36)
04. Любовь (Убивает меня) (4:10)
05. Наших Желаний (2:49)
06. Пытаюсь Забыть (2:36)
07. Гламур (feat. Шахаш, Бася) (3:14)
08. Ты (4:18)
09. Алкоголь (2:35)
10. Рок (2:30)
11. Панк Бунт (3:38)
12. Здесь и Сейчас (4:33)
13. Контрабас Боба Марли (4:21)
14. Hidden Track (0:45)
AUDIOCHECKER v2.0 beta (build 457) - by Dester - opdester@freemail.hu 
~~~~~~~~~~~~~~~~~~~~~~~~~~~~~~~~~~
-=== НЕ РЕДАКТИРУЙТЕ ЭТОТ ФАЙЛ! ===-

Путь: ...\2006 - Все В Твоих Руках (WEB)

01 -=- 01. Login.flac -=- CDDA (100%)
02 -=- 02. Проваливай из Снов.flac -=- CDDA (100%)
03 -=- 03. Без Тебя - 2.flac -=- CDDA (100%)
04 -=- 04. Любовь (Убивает меня).flac -=- MPEG (95%)
05 -=- 05. Наших Желаний.flac -=- MPEG (95%)
06 -=- 06. Пытаюсь Забыть.flac -=- CDDA (100%)
07 -=- 07. Гламур (feat. Шахаш, Бася).flac -=- MPEG (95%)
08 -=- 08. Ты.flac -=- CDDA (100%)
09 -=- 09. Алкоголь.flac -=- CDDA (100%)
10 -=- 10. Рок.flac -=- MPEG (95%)
11 -=- 11. Панк Бунт.flac -=- CDDA (100%)
12 -=- 12. Здесь и Сейчас.flac -=- CDDA (100%)
13 -=- 13. Контрабас Боба Марли.flac -=- MPEG (95%)
14 -=- 14. Hidden Track.flac -=- CDDA (100%)

Сводка 66,07% CDDA

201303748
01. Нефть (3:03)
AUDIOCHECKER v2.0 beta (build 457) - by Dester - opdester@freemail.hu 
~~~~~~~~~~~~~~~~~~~~~~~~~~~~~~~~~~
-=== НЕ РЕДАКТИРУЙТЕ ЭТОТ ФАЙЛ! ===-

Путь: ...\2009 - Нефть (WEB)

01 -=- 01. Нефть.flac -=- CDDA (99%)

16192596
01. Морзе (3:39)
02. Последнее Письмо (4:14)
03. Севастополь (3:17)
+ cover bonus. Карина Назарова (id1041752) исполняет песни Порт (812):
04. Ты со мной (ПОРТ(812) cover) (4:43)
05. В его глазах (ПОРТ(812) cover) (2:54)
06. Кого она ждет (ПОРТ(812) cover) (2:20)
07. 25 (ПОРТ(812) cover) (2:50)
08. Ты (ПОРТ(812) cover) (2:59)
09. Любовь (убивает меня) (ПОРТ(812) cover) (3:16)
AUDIOCHECKER v2.0 beta (build 457) - by Dester - opdester@freemail.hu 
~~~~~~~~~~~~~~~~~~~~~~~~~~~~~~~~~~
-=== НЕ РЕДАКТИРУЙТЕ ЭТОТ ФАЙЛ! ===-

Путь: ...\2011 - Волны (WEB)

01 -=- 01. ПОРТ(812) - Морзе.flac -=- CDDA (100%)
02 -=- 02. ПОРТ(812) - Последнее Письмо.flac -=- CDDA (100%)
03 -=- 03. ПОРТ(812) - Севастополь.flac -=- CDDA (100%)
04 -=- 04. Карина Назарова - Ты со мной (ПОРТ(812) cover).flac -=- CDDA (100%)
05 -=- 05. Карина Назарова - В его глазах (ПОРТ(812) cover).flac -=- CDDA (100%)
06 -=- 06. Карина Назарова - Кого она ждет (ПОРТ(812) cover).flac -=- CDDA (100%)
07 -=- 07. Карина Назарова - 25 (ПОРТ(812) cover).flac -=- CDDA (99%)
08 -=- 08. Карина Назарова - Ты (ПОРТ(812) cover).flac -=- CDDA (100%)
09 -=- 09. Карина Назарова - Любовь (убивает меня) (ПОРТ(812) cover).flac -=- CDDA (100%)

Сводка 99,89% CDDA

135316676
01. Бунт на продажу (4:26)
02. Киев в огне (3:59)
03. Кровь с амфетамином (3:10)
04. Мой Париж (3:16)
05. Чужие раны (3:45)
06. Гимн (Панк-рок разрушил мою жизнь) (5:04)
07. Нефть (3:15)
08. Учителя (4:13)
09. Главная роль (2:33)
10. Сто тел. Сто лиц (2:47)
11. Шантаж и вымогательство (3:07)
12. Виталий (2:21)
Exact Audio Copy V1.1 from 23. June 2015 

Отчёт EAC об извлечении, выполненном 8. июля 2016, 15:55

ПОРТ(812) / Бунт на продажу

Дисковод: HL-DT-STDVDRAM GSA-H10A Adapter: 1 ID: 0

Режим чтения : Достоверность
Использование точного потока : Да
Отключение кэша аудио : Да
Использование указателей C2 : Нет

Коррекция смещения при чтении : 667
Способность читать области Lead-in и Lead-out : Нет
Заполнение пропущенных сэмплов тишиной : Да
Удаление блоков с тишиной в начале и конце : Нет
При вычислениях CRC использовались нулевые сэмплы : Да
Интерфейс : Встроенный Win32-интерфейс для Win NT/2000

Выходной формат : Пользовательский кодировщик
Выбранный битрейт : 128 kBit/s
Качество : Высокий
Добавление ID3-тега : Да
Утилита сжатия : C:\Program Files\Exact Audio Copy\Flac\flac.exe
Дополнительные параметры : -V -8 -T "Date=%year%" -T "Genre=%genre%" %source%

TOC извлечённого CD

Трек | Старт | Длительность | Начальный сектор | Конечный сектор
---------------------------------------------------------------------
1 | 0:00.00 | 4:25.41 | 0 | 19915
2 | 4:25.41 | 3:59.31 | 19916 | 37871
3 | 8:24.72 | 3:09.57 | 37872 | 52103
4 | 11:34.54 | 3:15.57 | 52104 | 66785
5 | 14:50.36 | 3:44.53 | 66786 | 83638
6 | 18:35.14 | 5:03.61 | 83639 | 106424
7 | 23:39.00 | 3:14.50 | 106425 | 121024
8 | 26:53.50 | 4:13.16 | 121025 | 140015
9 | 31:06.66 | 2:33.11 | 140016 | 151501
10 | 33:40.02 | 2:46.39 | 151502 | 163990
11 | 36:26.41 | 3:06.55 | 163991 | 177995
12 | 39:33.21 | 2:21.08 | 177996 | 188578

Характеристики диапазона извлечения и сообщения об ошибках

Выбранный диапазон

Имя файла D:\Music\ПОРТ(812) - 2014 - Бунт на продажу.wav

Пиковый уровень 98.4 %
Скорость извлечения 3.9 X
Качество диапазона 100.0 %
CRC теста 0517BFCD
CRC копии 0517BFCD
Копирование... OK

Ошибок не произошло

AccurateRip: сводка
Трек 1 : извлечено точно (доверие 1) [AD37EE66] (AR v2)
Трек 2 : извлечено точно (доверие 1) [8438F6B5] (AR v2)
Трек 3 : извлечено точно (доверие 1) [0C2F2A76] (AR v2)
Трек 4 : извлечено точно (доверие 1) [B0B9A429] (AR v2)
Трек 5 : извлечено точно (доверие 1) [BDDEC493] (AR v2)
Трек 6 : извлечено точно (доверие 1) [299AEEC8] (AR v2)
Трек 7 : извлечено точно (доверие 1) [E3297026] (AR v2)
Трек 8 : извлечено точно (доверие 1) [5EBD23CC] (AR v2)
Трек 9 : извлечено точно (доверие 1) [C0853210] (AR v2)
Трек 10 : извлечено точно (доверие 1) [1966F61A] (AR v2)
Трек 11 : извлечено точно (доверие 1) [03E1FFE5] (AR v2)
Трек 12 : извлечено точно (доверие 1) [CA682003] (AR v2)
Все треки извлечены точно

Конец отчёта

---- CUETools DB Plugin V2.1.6

[CTDB TOCID: E42PGifoF9A51fZTzZJ4_yvg714-] found
Submit result: E42PGifoF9A51fZTzZJ4_yvg714- has been confirmed
Track | CTDB Status
1 | (1/1) Accurately ripped
2 | (1/1) Accurately ripped
3 | (1/1) Accurately ripped
4 | (1/1) Accurately ripped
5 | (1/1) Accurately ripped
6 | (1/1) Accurately ripped
7 | (1/1) Accurately ripped
8 | (1/1) Accurately ripped
9 | (1/1) Accurately ripped
10 | (1/1) Accurately ripped
11 | (1/1) Accurately ripped
12 | (1/1) Accurately ripped

REM DATE 2014 
REM DISCID A409D20C
REM COMMENT "ExactAudioCopy v1.1"
PERFORMER "ПОРТ(812)"
TITLE "Бунт на продажу"
FILE "ПОРТ(812) - 2014 - Бунт на продажу.flac" WAVE
TRACK 01 AUDIO
TITLE "Бунт на продажу"
PERFORMER "ПОРТ(812)"
FLAGS DCP
INDEX 01 00:00:00
TRACK 02 AUDIO
TITLE "Киев в огне"
PERFORMER "ПОРТ(812)"
FLAGS DCP
INDEX 01 04:25:41
TRACK 03 AUDIO
TITLE "Кровь с амфетамином"
PERFORMER "ПОРТ(812)"
FLAGS DCP
INDEX 01 08:24:72
TRACK 04 AUDIO
TITLE "Мой Париж"
PERFORMER "ПОРТ(812)"
FLAGS DCP
INDEX 01 11:34:54
TRACK 05 AUDIO
TITLE "Чужие раны"
PERFORMER "ПОРТ(812)"
FLAGS DCP
INDEX 01 14:50:36
TRACK 06 AUDIO
TITLE "Гимн (Панк-рок разрушил мою жизнь)"
PERFORMER "ПОРТ(812) feat. Сид (Тараканы!), Толян (Бригадный подряд), Чача (НАИВ)"
FLAGS DCP
INDEX 01 18:35:14
TRACK 07 AUDIO
TITLE "Нефть"
PERFORMER "ПОРТ(812)"
FLAGS DCP
INDEX 01 23:39:00
TRACK 08 AUDIO
TITLE "Учителя"
PERFORMER "ПОРТ(812)"
FLAGS DCP
INDEX 01 26:53:50
TRACK 09 AUDIO
TITLE "Главная роль"
PERFORMER "ПОРТ(812)"
FLAGS DCP
INDEX 01 31:06:66
TRACK 10 AUDIO
TITLE "Сто тел. Сто лиц"
PERFORMER "ПОРТ(812)"
FLAGS DCP
INDEX 01 33:40:02
TRACK 11 AUDIO
TITLE "Шантаж и вымогательство"
PERFORMER "ПОРТ(812)"
FLAGS DCP
INDEX 01 36:26:41
TRACK 12 AUDIO
TITLE "Виталий"
PERFORMER "ПОРТ(812)"
FLAGS DCP
INDEX 01 39:33:21
01. Intro (0:54)
02. Сомнения (2:40)
03. Война (3:20)
04. Проснись! (3:15)
05. С тобой (3:55)
06. Стабильность (3:06)
07. Навечно 23 (3:25)
08. 40 недель (3:51)
09. Полиция сцены (2:58)
10. Абсолютно всех (Васе В.) (2:25)
11. Миллионы одиночек (3:10)
12. Живей живых (4:29)
13. Русские девушки. Французские поцелуи (4:30)
14. Кали-юга (2:16)
15. Кузнецов (0:54)
Exact Audio Copy V1.1 from 23. June 2015 

Отчёт EAC об извлечении, выполненном 28. мая 2016, 12:09

Порт (812) / Абсолютно всех

Дисковод: TSSTcorpCDDVDW SN-208BB Adapter: 1 ID: 0

Режим чтения : Достоверность
Использование точного потока : Да
Отключение кэша аудио : Да
Использование указателей C2 : Нет

Коррекция смещения при чтении : 6
Способность читать области Lead-in и Lead-out : Нет
Заполнение пропущенных сэмплов тишиной : Да
Удаление блоков с тишиной в начале и конце : Нет
При вычислениях CRC использовались нулевые сэмплы : Да
Интерфейс : Встроенный Win32-интерфейс для Win NT/2000

Выходной формат : Пользовательский кодировщик
Выбранный битрейт : 128 kBit/s
Качество : Высокий
Добавление ID3-тега : Нет
Утилита сжатия : C:\Program Files (x86)\Exact Audio Copy\Flac\flac.exe
Дополнительные параметры : -V -8 -T "Date=%year%" -T "Genre=%genre%" %source%

TOC извлечённого CD

Трек | Старт | Длительность | Начальный сектор | Конечный сектор
---------------------------------------------------------------------
1 | 0:00.00 | 0:54.20 | 0 | 4069
2 | 0:54.20 | 2:39.45 | 4070 | 16039
3 | 3:33.65 | 3:20.00 | 16040 | 31039
4 | 6:53.65 | 3:14.44 | 31040 | 45633
5 | 10:08.34 | 3:55.08 | 45634 | 63266
6 | 14:03.42 | 3:05.65 | 63267 | 77206
7 | 17:09.32 | 3:25.32 | 77207 | 92613
8 | 20:34.64 | 3:51.00 | 92614 | 109938
9 | 24:25.64 | 2:57.55 | 109939 | 123268
10 | 27:23.44 | 2:24.59 | 123269 | 134127
11 | 29:48.28 | 3:10.29 | 134128 | 148406
12 | 32:58.57 | 4:28.45 | 148407 | 168551
13 | 37:27.27 | 4:30.29 | 168552 | 188830
14 | 41:57.56 | 2:16.30 | 188831 | 199060
15 | 44:14.11 | 0:53.59 | 199061 | 203094

Характеристики диапазона извлечения и сообщения об ошибках

Выбранный диапазон

Имя файла C:\Users\1\Desktop\Порт (812) - 2016 - Абсолютно всех.wav

Пиковый уровень 98.8 %
Скорость извлечения 1.8 X
Качество диапазона 100.0 %
CRC теста D877FEA7
CRC копии D877FEA7
Копирование... OK

Ошибок не произошло

AccurateRip: сводка
Трек 1 отсутствует в базе данных
Трек 2 отсутствует в базе данных
Трек 3 отсутствует в базе данных
Трек 4 отсутствует в базе данных
Трек 5 отсутствует в базе данных
Трек 6 отсутствует в базе данных
Трек 7 отсутствует в базе данных
Трек 8 отсутствует в базе данных
Трек 9 отсутствует в базе данных
Трек 10 отсутствует в базе данных
Трек 11 отсутствует в базе данных
Трек 12 отсутствует в базе данных
Трек 13 отсутствует в базе данных
Трек 14 отсутствует в базе данных
Трек 15 отсутствует в базе данных
Ни одного трека нет в базе AccurateRip

Конец отчёта

==== Контрольная сумма отчёта 55DE0399CFD57D68A4085DC56B513666486EA75280B640F6AE1C80C615113A1E ====
REM DISCID C20A930F 
REM COMMENT "ExactAudioCopy v1.1"
PERFORMER "Порт (812)"
TITLE "Абсолютно всех"
FILE "Порт (812) - 2016 - Абсолютно всех.flac" WAVE
TRACK 01 AUDIO
TITLE "Intro"
PERFORMER "Порт (812)"
INDEX 01 00:00:00
TRACK 02 AUDIO
TITLE "Сомнения"
PERFORMER "Порт (812)"
INDEX 01 00:54:20
TRACK 03 AUDIO
TITLE "Война"
PERFORMER "Порт (812)"
INDEX 01 03:33:65
TRACK 04 AUDIO
TITLE "Проснись!"
PERFORMER "Порт (812)"
INDEX 01 06:53:65
TRACK 05 AUDIO
TITLE "С тобой"
PERFORMER "Порт (812)"
INDEX 01 10:08:34
TRACK 06 AUDIO
TITLE "Стабильность"
PERFORMER "Порт (812)"
INDEX 01 14:03:42
TRACK 07 AUDIO
TITLE "Навечно 23"
PERFORMER "Порт (812)"
INDEX 01 17:09:32
TRACK 08 AUDIO
TITLE "40 недель"
PERFORMER "Порт (812)"
INDEX 01 20:34:64
TRACK 09 AUDIO
TITLE "Полиция сцены"
PERFORMER "Порт (812)"
INDEX 01 24:25:64
TRACK 10 AUDIO
TITLE "Абсолютно всех (Васе В.)"
PERFORMER "Порт (812)"
INDEX 01 27:23:44
TRACK 11 AUDIO
TITLE "Миллионы одиночек"
PERFORMER "Порт (812)"
INDEX 01 29:48:28
TRACK 12 AUDIO
TITLE "Живей живых"
PERFORMER "Порт (812)"
INDEX 01 32:58:57
TRACK 13 AUDIO
TITLE "Русские девушки. Французские поцелуи"
PERFORMER "Порт (812)"
INDEX 01 37:27:27
TRACK 14 AUDIO
TITLE "Кали-юга"
PERFORMER "Порт (812)"
INDEX 01 41:57:56
TRACK 15 AUDIO
TITLE "Кузнецов"
PERFORMER "Порт (812)"
INDEX 01 44:14:11
info [Профиль]  [ЛС] 

The Royal

Пол: Пол:Муж

Стаж: 6 лет 11 месяцев

Сообщений: 652

Россия
Рейтинг

post 14-Окт-2016 00:09 (спустя 4 года 8 месяцев) [-]0[+]

[Цитировать] 

Добавлены альбомы
2014 - Бунт на продажу
2016 - Абсолютно всех
info [Профиль]  [ЛС] 
Показать сообщения:    
Ответить на тему

Текущее время: 10-Дек 07:15

Часовой пояс: GMT + 4



Вы не можете начинать темы
Вы не можете отвечать на сообщения
Вы не можете редактировать свои сообщения
Вы не можете удалять свои сообщения
Вы не можете голосовать в опросах
Вы не можете прикреплять файлы к сообщениям
Вы не можете скачивать файлы